#TITLE:Lawn Wake IX;
#SUBTITLE:;
#ARTIST:the flashbulb;
#TITLETRANSLIT:;
#SUBTITLETRANSLIT:;
#ARTISTTRANSLIT:;
#CREDIT:;
#BANNER:Lawn Wake IX - banner.png;
#BACKGROUND:Lawn Wake IX - bg.png;
#LYRICSPATH:;
#CDTITLE:pfx - icon.png;
#MUSIC:the flashbulb - 04 - lawn wake ix.mp3;
#OFFSET:-0.067;
#SAMPLESTART:57.245;
#SAMPLELENGTH:13.020;
#SELECTABLE:YES;
#BPMS:0.000=186.000,128.000=93.000,152.000=186.000,264.000=93.000,296.000=186.000,320.000=93.000,322.000=186.000;
#STOPS:;
#BGCHANGES:;
// cache tags:
#FIRSTBEAT:0.000;
#LASTBEAT:418.000;
#SONGFILENAME:Songs/Community Keyboard Megapack - Volume 2/(pfx13AE) Lawn Wake IX/Lawn Wake IX.sm;
#HASMUSIC:1;
#HASBANNER:1;
#MUSICLENGTH:155.820;
// end cache tags

//---------------dance-single - ----------------
#NOTES:
     dance-single:
     :
     Hard:
     12:
     1.000,1.000,0.468,0.693,1.000,984.000,73.000,108.000,0.000,0.000:
1000
0000
1000
0100
0010
0000
0200
0000
0000
0000
0000
0000
0000
0000
0000
0000
,
0000
0000
0000
0000
,
0000
0000
0000
0000
0000
0000
0000
0000
0000
0000
0000
0000
0000
0000
0000
0000
1300
0000
0000
0000
0000
0000
0000
0000
0010
0000
0000
0000
0100
0000
0000
0000
0001
0000
0000
0000
0010
0000
0000
0000
0002
0000
0000
0000
0000
0000
0000
0000
0000
0000
0000
0000
0000
0000
0000
0000
0000
0000
0000
0000
0000
0000
0000
0003
,
0002
0103
0000
0020
,
1030
0000
1000
0100
0010
0000
0100
0000
0000
0000
0000
0000
0000
0000
0000
0000
,
0000
0000
0000
0000
0000
0000
0000
0000
0000
0000
0000
0000
0000
0000
0000
0000
0000
0000
0000
0000
0000
0000
0000
0000
0000
0000
0000
0000
0000
0000
0000
0000
0000
0000
0000
0000
0000
0000
0000
0000
0000
0000
0000
0000
0000
0000
0000
0000
0100
0000
0000
0000
0000
0000
0000
0000
1000
0000
0000
0000
0000
0000
0000
0000
0100
0000
0000
0000
0000
0000
0000
0000
1000
0000
0000
0000
0000
0000
0000
0000
0100
0000
0000
0000
0000
0000
0000
0000
1000
0000
0000
0000
0000
0000
0000
0000
0200
0000
0000
0000
0000
0000
0000
0000
0000
0000
0000
0000
0000
0000
0000
0000
0320
0000
0000
0000
0000
0000
0000
0000
0000
0000
0000
0000
0000
0000
0000
0000
0000
0000
0000
0000
0000
0000
0000
0000
0000
0000
0000
0000
0000
0000
0000
0000
0032
0000
0000
0000
0000
0000
0000
0000
0000
0000
0000
0000
0000
0000
0000
0000
0000
0000
0000
0000
0000
0000
0000
0000
0000
0000
0000
0000
0000
0000
0000
0000
0000
0000
0000
0000
0000
0000
0000
0000
0000
0000
0000
0000
0000
0003
0000
0000
,
0002
0000
0000
0000
1003
0000
0010
0100
0001
0010
0001
0000
0000
0000
0000
0000
,
0000
0000
0000
0000
0000
0000
0000
0000
0002
0000
0000
0000
0000
0000
0000
0000
0203
0000
0000
0000
0000
0000
0000
0000
0000
0000
0000
0000
0000
0000
0000
0300
0200
0000
0000
0000
0000
0000
0000
0000
0000
0000
0000
0000
0000
0000
0000
0000
0320
0000
0000
0000
0000
0000
0000
0000
0030
0000
0000
0000
0000
0000
0000
0000
,
1000
0000
1000
0100
0010
0000
0200
0000
0000
0000
0300
0000
0000
0000
0000
0000
,
0000
0000
0000
0000
,
0000
0000
2000
0000
0000
0000
3010
0100
0001
0010
0002
0000
0000
0000
0003
0000
,
0000
0000
0000
0000
0000
0200
0320
0000
,
1030
0000
0010
1000
0100
0000
0020
0000
0000
0000
0000
0000
0030
0000
0000
0000
,
0000
0000
0000
0000
,
0000
0000
0000
0000
0000
0000
0000
0000
0000
0000
0000
0000
0000
0000
0000
0000
2000
0000
0000
0000
0000
0000
0000
0000
3010
0000
0000
0000
0100
0000
0000
0000
0001
0000
0000
0000
0010
0000
0000
0000
0002
0000
0000
0000
0000
0000
0000
0000
0000
0000
0000
0000
0000
0000
0000
0000
0000
0000
0000
0000
0000
0000
0000
0003
,
0002
0000
0000
0000
0203
0000
0320
0000
0000
0000
1030
0000
0001
0010
0100
1000
,
0100
0000
0010
0001
0010
0000
0100
0000
1000
0000
0200
0000
0000
0000
0300
0000
,
0000
0000
0000
0000
,
2000
0000
0000
0000
0000
0000
3010
0100
0001
0010
0001
0000
0000
0000
0000
0000
,
0000
0000
0000
0000
0000
0000
0000
0000
0020
0000
0000
0000
0000
0000
0000
0000
0230
0000
0000
0000
0000
0000
0000
0000
0000
0000
0000
0000
0000
0000
0000
0300
0200
0000
0000
0000
0000
0000
0000
0000
0000
0000
0000
0000
0000
0000
0000
0000
1300
0000
0000
0000
0000
0000
0000
0000
0000
0000
0000
0000
0000
0000
0000
0000
,
1100
0000
0100
0010
0001
0000
2100
0000
0000
0000
3000
0000
0001
0100
0010
1000
,
0001
0100
0010
1000
0001
0010
0100
1000
0200
0000
0000
0320
0000
0000
0230
0000
,
0000
0000
0000
0000
1300
0000
0100
0010
0001
0010
0001
1000
0100
0010
0100
0010
,
0001
1000
0100
1000
0100
0010
0100
0010
0001
1000
0010
0100
0002
0000
0000
0000
,
0203
0000
0000
0000
0320
0000
0000
0000
2030
0000
0000
0000
3200
0000
0000
0000
0320
0000
0000
0000
0230
0000
0000
0000
2300
0000
0000
3000
1000
0000
0100
0000
,
0010
0001
1000
0010
0100
0001
1000
0100
0010
0001
1000
0010
0100
0001
0020
0000
,
0230
0000
0000
0000
0000
0000
0000
0000
0000
0000
0000
0000
0000
0000
0000
0000
1300
0000
0000
0000
0100
0000
0000
0000
0010
0000
0000
0000
0000
0000
0000
0000
0020
0000
0000
0000
0000
0000
0000
0030
0020
0000
0000
0000
0000
0000
0000
0000
0130
0000
0000
0000
0010
0000
0000
0000
0001
0000
0000
0000
0010
0000
0000
0000
,
0100
0000
0000
0000
1000
0000
0000
0000
0001
0000
0000
0000
0010
0000
0000
0000
0200
0000
0000
0000
0000
0000
0000
0300
0200
0000
0000
0000
0000
0000
0000
0000
2300
0000
0000
0000
0000
0000
0000
3000
2000
0000
0000
0000
0000
0000
0000
0000
3200
0000
0000
0000
0000
0000
0000
0000
0320
0000
0000
0000
0000
0000
0000
0000
,
0130
0000
0000
0000
0000
0000
0000
0000
1000
0000
0000
0000
0100
0000
0000
0000
0010
0000
0000
0000
0000
0000
0000
0000
0200
0000
0000
0000
0000
0000
0000
0300
0200
0000
0000
0000
0000
0000
0000
0000
0000
0000
0000
0000
0000
0000
0000
0000
0320
0000
0000
0000
0000
0000
0000
0030
0020
0000
0000
0000
0000
0000
0000
0000
,
0032
0000
0000
0000
0000
0000
0000
0003
0002
0000
0000
0000
0000
0000
0000
0000
0023
0000
0000
0000
0000
0000
0000
0000
0230
0000
0000
0000
0000
0000
0000
0000
0320
0000
0000
0000
0000
0000
0000
0000
0032
0000
0000
0000
0000
0000
0000
0000
2003
0000
0000
0000
0000
0000
0000
0000
3200
0000
0000
0000
0000
0000
0000
0000
,
0320
0000
0000
0000
0000
0000
0000
0000
0032
0000
0000
0000
0000
0000
0000
0000
0203
0000
0000
0000
0000
0000
0000
0000
0310
0000
0000
0000
1000
0000
0000
0000
0100
0000
0000
0000
0010
0000
0000
0000
0200
0000
0000
0000
0000
0000
0000
0300
0200
0000
0000
0000
0000
0000
0000
0000
0320
0000
0000
0000
0000
0000
0000
0000
,
0230
0000
1300
0010
0200
0000
0302
0000
0023
0000
0230
0000
0310
0001
0010
0001
,
0200
0000
0000
0000
,
0320
0000
2030
0000
3200
0000
0320
0000
0031
0010
0100
0010
0001
0100
0010
1000
0100
0010
0100
1000
0001
0010
0100
1000
0100
0010
0100
1000
0100
0010
0001
0010
,
0200
0000
0000
0000
0000
0000
0000
0000
0000
0000
0000
0000
0000
0000
0000
0000
0300
0000
1000
0000
0000
0000
0000
0000
0000
0000
0000
0100
0000
0000
0000
0000
0000
0000
0000
0000
0010
0000
0000
0000
0000
0000
0000
0000
0000
0100
0000
0000
,
0000
0000
1000
0000
0000
0010
0000
0000
0100
0000
0000
0001
0000
0000
0100
0000
,
1000
0000
0000
0010
0000
0000
1000
0000
0000
0100
0000
0000
0010
0000
0000
0100
,
0000
0000
1000
0000
0000
0010
0000
0000
0100
0000
0000
0001
0000
0000
0100
0000
,
1000
0000
1000
0000
0110
0000
1000
0100
0010
0000
0010
0000
0101
0000
0001
0000
,
1000
0000
1000
0000
0110
0000
0001
1000
0100
0010
0100
0000
0011
0000
0010
0000
,
1000
0000
1000
0000
0101
0000
0010
0100
0000
0100
0001
0000
0110
0000
0001
1000
,
0100
0000
0100
0010
1001
0000
0002
0000
0003
1000
0100
0000
1001
0000
0001
0000
,
1000
0000
1000
0010
0101
0000
0010
1000
0100
1000
0010
0100
0011
0000
0001
0000
,
1000
0000
0000
0000
0000
0000
1000
0000
0000
0100
0000
0000
0011
0000
0000
0000
0011
0000
0000
0000
0002
0000
0000
0000
1003
0000
0000
0100
0000
0000
0010
0000
0000
0100
0000
0000
1001
0000
0000
0000
0000
0000
1000
0000
0100
0000
0010
0000
,
0001
0000
0000
0010
0000
0000
0100
0000
0000
0010
0000
0000
0001
0000
0010
0000
0100
0000
2000
0000
0000
0000
0000
0000
3100
0000
0000
0010
0000
0000
0001
0000
0000
0010
0000
0000
0100
0000
0000
1000
0000
0000
0010
0000
0000
0100
0000
0000
,
0001
0000
1000
0100
0011
0000
0001
0010
0000
0010
0001
1000
0110
0000
0010
0000
,
0001
0000
0000
0000
0000
0000
0100
0000
0000
0010
0000
0000
1001
0000
0000
0000
0000
0000
0002
0000
0000
0003
0000
0000
0001
0000
0000
0010
0000
0000
0200
0000
0000
0300
0000
0000
1010
0000
0000
0000
0000
0000
0001
0000
0010
0000
0100
0000
,
1000
0000
0000
0000
0000
0000
1000
0000
0000
0000
1000
0000
0100
0000
0000
0000
0010
0000
0000
0000
0100
0000
0000
0000
0010
0000
0001
0000
1000
0000
0100
0000
0000
0010
0000
0000
1001
0000
0000
0100
0000
0000
0001
0000
0000
0100
0000
0000
,
0001
1000
0010
1000
0101
0000
0010
1000
0100
0010
0100
0000
1001
0000
0010
1000
,
0100
0000
0000
0000
0100
0000
0000
0000
0100
0000
0000
0000
0011
0000
0000
0000
0000
0000
0001
0000
0010
0000
0100
0000
1000
0000
0000
0100
0000
0000
0010
0000
0000
0100
0000
0000
0011
0000
0000
0000
0000
0000
1000
0000
0000
0100
0000
0000
,
0100
0000
0000
0000
0000
0000
0010
0000
0000
0001
0000
0000
0101
0000
0000
0000
0000
0000
1000
0000
0000
0001
0000
0000
2000
0000
0000
3020
0000
0000
2030
0000
0000
3001
0000
0000
0110
0000
0000
0000
0000
0000
1000
0000
0100
0000
0010
0000
,
0001
0000
0000
0000
0000
0000
0001
0000
0010
0000
0100
0000
1001
0000
0000
0000
0000
0000
1000
0000
0000
0010
0000
0000
1000
0000
0000
0001
0000
0000
0100
0000
0000
0000
0000
0000
1100
0000
0000
0010
0000
0000
0001
0000
0000
0010
0000
0000
,
0100
0000
0000
1000
0000
0000
0100
0000
0000
0000
0000
0000
0011
0000
0000
0000
0000
0000
1000
0000
0000
0100
0000
0000
1000
0000
0100
0000
0010
0000
0001
0000
0000
0010
0000
0000
1100
0000
0000
0000
0000
0000
0001
0000
0000
0010
0000
0000
,
0001
1000
0001
0000
1020
0000
1030
0100
0000
0100
1000
0100
0011
0000
0001
0000
,
0001
0000
0001
0010
1100
0000
0000
0001
0000
0000
0001
0000
0000
0001
0000
0000
,
1001
0000
0000
0000
0000
0000
1000
0000
0000
0100
0000
0000
1000
0000
0000
1000
0000
0000
0010
0000
0100
0000
0001
0000
1000
0000
0000
0100
0000
0000
1000
0000
0000
0010
0000
0000
0100
0000
0000
0001
0000
0000
0010
0000
0000
0000
0000
0000
,
1100
0000
0100
0010
0100
0000
0100
0000
0100
0010
1001
0000
1001
0000
1001
0000
,
0001
0010
0100
1000
0000
0000
1000
0100
0010
0001
0000
0000
0001
0010
0100
1000
0000
0000
1000
0100
0010
0002
0000
0000
,
1003
0000
1000
0100
0011
0000
0100
0000
0100
0000
1000
0100
0011
0000
0002
0000
,
0103
0010
1000
0001
0110
0000
0001
0010
0001
0010
1200
0000
1300
0000
1000
0000
,
0100
0000
0010
0000
0101
0000
0010
1000
0100
0010
0100
1000
0110
0000
0001
0010
,
0100
0000
0010
0000
0100
0000
0010
0000
0011
0100
1000
0000
1002
0000
0000
0000
,
1003
0000
1000
0100
0010
0000
0100
1000
0010
0100
0001
1000
0110
0000
1000
0000
,
0001
0010
0100
1000
0001
0010
0100
1000
0001
0100
0010
1000
0001
0100
0010
1000
,
0200
0000
0000
0000
0000
0000
0000
0300
0100
0000
0010
0000
0001
0000
0010
0000
0100
0000
1000
0000
0001
0000
0100
0000
0010
0000
1000
0000
0001
0000
0010
0000
,
0100
1000
0001
0100
0010
0100
0001
0010
0100
0010
0001
0010
0100
1000
0100
0010
,
0002
0000
0000
0000
,
0203
0000
0000
0320
,
0130
0000
0000
0001
0000
0000
0010
0000
0000
0100
0000
0000
0010
0000
0000
1000
,
0000
0000
0100
0000
0000
0010
0000
0000
0100
0000
0000
1000
0000
0000
0010
0000
,
0100
0000
0000
0001
0000
0000
0010
0000
0000
0100
0000
0000
0010
0000
0000
1000
,
0000
0000
0100
0000
0000
0010
0000
0000
0001
0000
0000
1000
0000
0000
0010
0000
,
0100
0000
0000
1000
,
0010
0000
0100
0000
,
0001
0000
0000
0000
0001
0000
1000
0100
0011
0000
0000
0000
0001
0010
0001
0010
,
1100
0000
0000
0000
0000
0000
1000
0000
0011
0000
0000
0011
0000
0000
0011
0000
,
1000
0100
0010
0100
1000
0000
1000
0001
0100
0010
0100
0000
0100
0000
0000
0000
,
0100
0000
0000
0000
0100
0000
0100
0010
1001
0000
0001
0000
0002
0000
0000
0000
,
1003
0000
0000
0100
0000
0000
1000
0000
0000
0000
0000
0000
0110
0000
0000
0000
0000
0000
1000
0000
0000
0100
0000
0000
1000
0000
0000
0010
0000
0000
0100
0000
0000
0001
0000
0000
1100
0000
0000
0000
0000
0000
0001
0000
0010
0000
0100
0000
,
1000
0000
1000
0000
0101
0000
0001
1000
0001
1000
0100
0000
0011
0000
0000
0000
,
0001
0000
0200
0000
0320
0000
2030
0000
3001
0100
0001
0100
0010
1000
0010
0000
,
0100
0000
0000
0010
0000
0000
1000
0000
0000
0100
0000
0000
0010
0000
0000
0000
0000
0000
0010
0000
0000
0000
0000
0000
0001
0000
0100
0000
0001
0000
0100
0000
0001
0000
0100
0000
0010
0000
0000
0000
0000
0000
1000
0000
0000
0000
0000
0000
,
0100
0000
0010
0000
0100
0000
0010
0000
0100
0000
0010
0000
0001
0000
0000
0010
0000
0000
0100
0000
0000
1000
0000
0000
0010
0000
0000
0000
0000
0000
0010
0000
0000
0100
0000
0000
0010
0000
0000
0000
0000
0000
0010
0000
0000
0100
0000
0000
,
0010
0000
0010
0100
1001
0000
0010
0000
0100
0000
0010
0000
0100
0000
0010
1000
,
0101
0000
0010
0000
0100
0000
1000
0100
,
0011
0000
0010
0000
0200
0000
0000
0000
1300
0000
1000
0000
0110
0000
0001
1000
,
0010
0100
0001
0100
1010
0000
0001
0000
0001
0000
0001
0010
1100
0000
0100
0010
,
0100
1000
0010
0100
1001
0000
0100
1001
0000
1000
0100
0010
0101
0000
1000
0010
,
0100
0001
2000
0000
3100
0010
0100
0010
1001
0000
1000
0100
0000
0100
0010
0001
,
0100
0000
0000
0000
0000
0000
0000
0000
0000
0000
0000
0000
0002
0000
0000
0000
0000
0000
0003
0000
0000
0000
0000
0000
1000
0000
0000
0000
0000
0000
0000
0000
0000
0000
0000
0000
0000
0000
0000
0000
0000
0000
0000
0000
0000
0000
0000
0000
0001
0000
0000
0000
0000
0000
0000
0000
0010
0000
0000
0000
0000
0000
0000
0000
0100
0000
0000
0000
0000
0000
0000
0000
1000
0000
0000
0000
0000
0000
0000
0000
0000
0000
0000
0000
0000
0000
0000
0000
0000
0000
0000
0000
0000
0000
0000
0000
0100
0000
0000
0000
0000
0000
0000
0000
0000
0000
0000
0000
0010
0000
0000
0000
0000
0000
0000
0000
0000
0000
0000
0000
0100
0000
0000
0000
0000
0000
0000
0000
0000
0000
0000
0000
0010
0000
0000
0000
0000
0000
0000
0000
0000
0000
0000
0000
1001
0000
0000
0000
0000
0000
0000
0000
0000
0000
0000
0000
0000
0000
0000
0000
0000
0000
0000
0000
0000
0000
0000
0000
0100
0000
0000
0000
0000
0000
0000
0000
0000
0000
0000
0000
0010
0000
0000
0000
0000
0000
0000
0000
0000
0000
0000
0000
,
0001
1000
0010
0100
1001
0000
1001
0100
0010
0100
0010
0100
2000
0000
3100
0010
,
0001
0010
0100
0010
0001
0000
0001
0010
0100
0000
0100
0000
0010
0000
0010
0000
,
0001
1000
0100
0000
0011
0000
0100
0000
1000
0000
1000
0000
0110
0000
0001
1000
,
0001
0000
0000
0000
0000
0000
0101
0000
0000
0000
0000
0000
0001
0000
0000
0000
0000
0000
0001
0000
0010
0000
0100
0000
1000
0000
0000
0010
0000
0000
0100
0000
0000
0010
0000
0000
1000
0000
0100
0000
0010
0000
0002
0000
0000
0000
0000
0000
,
0003
0000
0010
0100
1000
0010
1000
0010
0100
0001
0010
0100
1000
0000
1000
0100
,
0010
0000
0001
0000
0010
0000
0001
0000
0000
0100
0000
0000
0010
0000
0000
0000
0010
0000
0000
0000
0010
0000
0000
0000
2000
0000
0000
0000
0000
0000
0000
0000
0000
0000
0000
0000
0000
0000
0000
0000
0000
0000
0000
0000
0000
0000
0000
0000
,
3001
0010
0100
1000
0001
0010
0100
1000
0001
0100
0010
1000
0001
0100
0010
1000
,
0100
0010
0100
0010
0001
1000
0100
0010
0002
0000
0000
0000
0000
0000
0000
0000
,
0000
0000
0000
0000
0000
0000
0000
0000
1003
0100
0010
0001
0010
0001
0100
0001
,
1000
0100
0010
0001
0100
0010
1000
0100
0010
0100
0010
0001
0010
0100
1000
0100
,
1000
0010
0100
0001
1000
0001
0010
0001
0010
0100
1000
0010
0100
0001
0010
0100
,
1000
0100
0010
0001
1000
0100
0010
0001
1000
0100
0010
0100
1000
0010
0100
0010
,
1000
0001
0100
0010
1000
0001
0010
0100
1000
0100
0010
0100
0010
0001
1000
0001
,
0010
0100
0010
0001
0100
0010
1000
0000
0200
0000
0000
0000
0000
0000
0000
0000
,
0000
0000
0300
0000
;
