#TITLE:Fly;
#SUBTITLE:Sexuality Violation;
#ARTIST:Hilary Duff;
#TITLETRANSLIT:;
#SUBTITLETRANSLIT:;
#ARTISTTRANSLIT:;
#CREDIT:;
#BANNER:Fly-bn.png;
#BACKGROUND:Fly-bg.png;
#LYRICSPATH:;
#CDTITLE:;
#MUSIC:Fly.ogg;
#OFFSET:0.655;
#SAMPLESTART:99.733;
#SAMPLELENGTH:10.435;
#SELECTABLE:YES;
#BPMS:0.000=184.005,452.000=92.003,467.000=184.005,633.000=181.000,635.000=172.000,637.000=167.500,639.000=149.500;
#STOPS:;
#BGCHANGES:;
// cache tags:
#FIRSTBEAT:20.000;
#LASTBEAT:648.000;
#SONGFILENAME:Songs/Sexuality Violation 2/Fly - [teejusb]/Fly.sm;
#HASMUSIC:1;
#HASBANNER:1;
#MUSICLENGTH:224.642;
// end cache tags

//---------------dance-single - teejusb----------------
#NOTES:
     dance-single:
     teejusb:
     Challenge:
     15:
     1.000,1.000,0.013,0.218,1.000,1703.000,3.000,49.000,0.000,0.000:
0000
0000
0000
0000
,
0000
0000
0000
0000
,
0000
0000
0000
0000
,
0000
0000
0000
0000
,
0000
0000
0000
0000
,
2000
0000
3001
0200
0000
0000
0000
0302
,
0000
0003
0000
0000
,
2000
3000
0000
0000
0200
0000
0300
0000
0020
0000
0000
0030
0000
0000
0200
0000
,
0000
0300
2000
0000
0000
0000
0000
0000
,
0000
0000
0000
3000
0000
0000
0000
0000
0000
0000
0000
0000
0002
0000
0003
0000
,
0020
0030
0002
0000
0000
0003
2000
3000
,
0002
0003
0200
0000
0000
0300
0020
0000
,
1030
0001
1001
1000
,
0001
0000
1000
0100
0010
0100
1000
0000
,
0001
0000
1000
0001
0100
0000
0001
0000
,
0010
0000
0100
1000
0100
1000
0001
0000
,
0100
0000
0010
0100
0001
0000
1000
0000
,
0010
0000
0100
0010
1000
0001
1000
0000
,
0001
0000
0010
0100
0010
0000
0100
0000
,
1000
0000
0001
0010
0001
1000
0001
0000
,
0010
0000
0100
0000
1000
0100
0010
0100
,
1000
0100
1000
0001
0010
0001
1000
0010
,
0100
0001
1000
0010
1000
0001
0100
0010
,
0100
0001
1000
0100
0010
0001
0010
0100
,
1000
0100
1000
0001
0010
0001
1000
0010
,
0100
0001
1000
0001
1000
0001
1000
0100
,
0010
0100
0010
0100
1000
0100
1000
0001
,
0100
0001
0010
0100
1000
0010
0100
0001
,
1000
0100
0010
0001
1000
0000
1000
0000
,
1000
0010
0100
0001
1000
0010
1000
0001
0100
0010
0100
0001
1000
0010
0100
0001
,
1000
0001
1000
0010
0100
0010
1000
0001
1000
0100
0010
0001
1000
0100
0010
0100
,
1000
0001
0010
0100
1000
0001
1000
0010
0100
0010
1000
0010
0100
0001
0010
0100
,
0010
0001
0010
0100
0010
0001
1000
0001
1000
0100
0010
0100
1000
0001
0100
0010
,
0100
0001
1000
0010
0100
0001
1000
0001
0100
0010
1000
0001
1000
0001
0010
0001
,
1000
0100
1000
0100
0010
0001
0010
0001
1000
0100
1000
0001
0010
0100
1000
0001
,
1000
0010
0100
0010
1000
0001
0100
0010
1000
0010
1000
0010
1000
0001
1000
0010
,
0100
0010
0100
0010
0100
0001
1000
0001
0010
0100
1000
0010
0100
0001
1000
0001
,
1000
0100
0010
0001
1000
0100
1000
0001
0010
0100
0010
0001
1000
0100
0010
0001
,
1000
0010
0100
0010
1000
0001
1000
0010
0100
0001
1000
0010
0100
0010
1000
0001
,
0100
0010
0100
0001
1000
0001
1000
0100
0010
0001
1000
0001
0010
0001
0010
0100
,
1000
0001
0010
0001
0100
0010
0100
0001
1000
0010
0100
0001
1000
0010
1000
0001
,
0100
0001
1000
0010
0100
0001
1000
0001
1000
0010
1000
0001
1000
0010
0100
0001
,
0100
0010
1000
0100
1000
0100
0010
0001
1000
0100
1000
0001
0010
0001
1000
0100
,
0010
0001
1000
0001
1000
0100
1000
0001
1000
0100
0010
0001
0010
0100
1000
0001
,
1000
0010
0100
0010
1000
0001
0100
0001
1000
0010
1000
0001
0100
0010
1000
0001
,
1000
0001
1000
0010
0100
0010
1000
0001
1000
0010
0100
0010
0100
0001
1000
0100
,
0010
0100
1000
0001
1000
0100
0010
0001
1000
0001
0010
0100
1000
0100
1000
0001
,
1000
0010
0100
0010
1000
0001
0100
0001
1000
0010
0100
0001
0100
0010
1000
0100
,
0010
0001
1000
0001
1000
0001
1000
0100
0010
0000
0000
0000
0010
0000
0000
0000
,
0001
0000
1000
0100
0010
0100
1000
0000
,
0001
0000
0100
0010
1000
0000
1000
0000
,
0010
0000
1000
0001
0010
0000
0001
0000
,
2002
3003
0000
0000
0000
0000
0000
0000
1000
0000
0000
0000
1000
0000
0000
0000
,
0100
0000
0010
0100
1000
0100
0010
0000
,
0001
0000
1000
0001
1000
0000
1000
0000
,
0010
0000
0100
0001
0100
0010
0100
0000
,
0001
0000
1000
0100
0010
0000
0010
0000
,
0100
0000
1000
0001
1000
0001
0100
0000
,
0010
0000
0100
0001
0010
0000
0100
0000
,
0010
0000
0100
0010
0001
1000
0100
0000
,
1000
0000
0001
0100
0010
0000
0010
0000
,
1000
0000
0001
0100
0010
0100
0001
0000
,
1000
0000
0001
1000
0100
0000
1000
0000
,
0001
0000
1000
0010
1000
0010
0100
0000
,
0001
0000
0100
0010
1000
0000
0001
0000
,
1000
0000
0100
0010
0100
1000
0001
0000
,
1000
0000
0100
0010
0100
0000
0100
0000
,
1000
0000
0001
0010
0100
0010
0001
0000
,
1000
0000
1000
0000
0001
0010
0100
0010
,
0001
1000
0001
1000
0010
0100
0010
1000
,
0001
0010
0100
1000
0001
1000
0010
0100
,
0001
1000
0001
1000
0010
1000
0001
1000
,
0010
0100
0001
1000
0100
1000
0010
0100
,
0001
1000
0100
0010
0100
1000
0001
0010
,
0001
1000
0100
1000
0001
0100
0010
0100
,
0001
1000
0010
0100
0010
1000
0001
0010
,
0100
1000
0010
0100
0001
0000
0001
0000
,
0001
0010
0100
1000
0001
0010
0001
1000
0100
0010
0100
1000
0001
0010
0100
1000
,
0001
1000
0001
0010
0100
0010
0001
1000
0001
0100
0010
1000
0001
0100
0010
0100
,
0001
1000
0010
0100
0001
1000
0001
0010
0100
0010
0001
0010
0100
1000
0010
0100
,
0010
1000
0010
0100
0010
1000
0001
1000
0001
0100
0010
0100
0001
1000
0100
0010
,
0100
1000
0001
0010
0100
1000
0001
1000
0100
0010
0001
1000
0001
1000
0010
1000
,
0001
0100
0001
0100
0010
1000
0010
1000
0001
0010
0001
1000
0100
0010
0100
1000
,
0001
0010
0100
0010
0001
1000
0100
0010
0001
0010
0001
0010
0001
1000
0001
0010
,
0100
0010
0100
0010
0100
1000
0001
1000
0010
0100
0001
0010
0100
1000
0001
1000
,
0001
0100
0010
1000
0001
0100
0001
1000
0010
0100
0010
1000
0001
0100
0010
1000
,
0001
0010
0100
0010
0001
1000
0001
0010
0100
1000
0001
0010
0100
0010
0001
1000
,
0100
0010
0100
1000
0001
1000
0001
0100
0010
1000
0001
1000
0010
1000
0010
0100
,
0001
1000
0010
1000
0100
0010
0100
1000
0001
0010
0100
1000
0001
0010
0001
1000
,
0100
1000
0001
0010
0100
1000
0001
1000
0001
0010
0001
1000
0001
0010
0100
1000
,
0100
0010
0001
1000
0001
0100
0010
1000
0001
0100
0001
1000
0010
1000
0001
0100
,
0010
1000
0001
1000
0001
0100
0001
1000
0001
0100
0010
1000
0010
0100
0001
1000
,
0001
0010
0100
0010
0001
1000
0100
1000
0001
0010
0001
1000
0100
0010
0001
1000
,
0001
1000
0001
0010
0100
0010
0001
1000
0001
0010
0100
0010
0100
1000
0001
0100
,
0010
0100
0001
1000
0001
0100
0010
1000
0001
1000
0010
0100
0001
0100
0001
1000
,
0001
0010
0100
0010
0001
1000
0100
1000
0001
0010
0100
1000
0100
0010
0001
0100
,
0010
1000
0001
0100
0010
0100
0001
0010
0100
0010
0001
1000
0100
1000
0001
0010
,
0100
1000
0001
0100
0010
0100
0010
1000
0001
0100
0001
1000
0010
0100
0001
0010
,
0100
0010
0100
1000
0001
1000
0001
0100
0010
1000
0001
0100
0001
1000
0010
1000
,
0001
0100
0010
0100
0001
0010
0001
1000
0100
0010
0100
1000
0001
1000
0001
0010
,
0001
1000
0001
1000
0100
0010
0100
1000
0001
0100
0001
1000
0010
0100
0001
0100
,
0001
1000
0010
1000
0100
0010
0001
1000
0100
0010
0100
1000
0010
0100
0001
1000
,
0010
0100
0010
1000
0100
0010
0001
1000
0100
0010
0100
1000
0001
0010
0001
1000
,
0001
0100
0001
0010
0100
1000
0100
1000
0010
0100
0001
1000
0001
0100
0010
0100
,
0001
0010
0001
1000
0100
0010
0100
1000
0010
0100
0010
1000
0001
1000
0010
0100
,
0010
1000
0001
0010
0100
0010
0100
1000
0001
0010
0001
1000
0100
0010
0100
1000
,
0001
0010
0001
1000
0100
0010
0001
0100
0010
0100
0010
1000
0001
0100
0010
1000
,
0001
0100
0001
0010
0100
1000
0100
1000
0100
0010
0001
0100
0010
1000
0100
0010
,
0001
0100
0010
0100
0001
1000
0100
0010
0100
1000
0001
0010
0001
1000
0100
1000
,
0100
0010
0001
1000
0010
1000
0001
0100
0010
0100
0001
1000
0100
0010
0100
1000
,
0001
1000
0010
0100
0001
1000
0001
1000
0100
0010
0100
1000
0001
0010
0100
1000
,
0010
0100
0001
0010
0100
1000
0010
0100
0010
1000
0001
0010
0001
0100
0001
1000
,
0100
0010
0001
0100
0010
1000
0001
0010
0200
0000
0000
0000
0000
0000
0300
0000
,
0020
0030
0100
2000
0000
0000
0000
3002
0000
0000
0003
0000
0000
0000
0000
0000
,
0020
0030
0000
0000
0200
0000
0300
0000
2000
0000
0000
3000
0000
0000
0200
0000
0000
0000
0300
0000
0020
0000
0000
0000
0000
0000
0000
0000
0000
0000
0000
0000
,
0000
0000
0000
0030
0000
0000
0000
0000
0000
0000
0000
0000
0002
0000
0003
0000
2000
0000
3000
0000
0002
0000
0000
0000
0000
0000
0003
0000
0200
0000
0300
0000
,
0002
0003
0020
0000
0000
0030
0200
0000
1300
0000
0001
0000
1001
0000
0000
0000
,
1000
0000
0100
0000
0010
0100
1000
0100
,
0010
0000
0001
0000
1000
0001
0100
0000
,
0100
0000
0010
0000
1000
0010
0100
0001
,
1000
0000
0001
0000
1000
0100
1000
0000
,
1000
0000
0001
0000
0100
0010
1000
0001
,
1000
0000
0000
0000
0000
0000
0000
0000
0200
0300
0000
0000
0000
0000
0000
0000
0020
0000
0030
0000
0000
0000
0000
0000
0020
0000
0000
0030
0000
0000
0000
0000
,
0002
0000
0000
0000
0003
0000
0000
0000
0002
0000
0000
0000
0000
0003
0000
0000
2000
0000
0000
0000
0000
0000
3000
0000
2000
0000
0000
0000
0000
0000
0000
0000
,
3100
0010
0001
0010
0100
1000
0100
0000
,
0100
0000
0000
0000
1000
0100
0010
0001
1000
0100
1000
0001
0010
0100
0010
0001
,
1000
0100
0010
0001
1000
0001
1000
0100
0010
0100
1000
0001
1000
0010
0100
0001
,
1000
0010
0100
0010
1000
0001
0100
0010
1000
0001
1000
0100
0010
0100
1000
0100
,
0010
0001
0100
0010
0100
0001
0100
0010
0100
0001
1000
0001
1000
0010
0100
0010
,
1000
0001
0010
0100
0010
0001
1000
0100
0010
0001
1000
0001
0010
0100
1000
0001
,
1000
0001
0100
0001
1000
0010
1000
0010
0100
0001
0100
0001
1000
0010
1000
0001
,
1000
0010
0100
0001
1000
0100
0010
0100
1000
0001
0010
0100
1000
0100
1000
0100
,
1000
0001
1000
0100
0010
0100
0010
0100
0010
0001
1000
0001
0100
0010
1000
0100
,
0010
0001
1000
0001
1000
0010
0100
0001
1000
0010
1000
0001
0100
0010
0100
0001
,
1000
0010
0100
0001
1000
0100
0010
0100
1000
0001
1000
0100
0010
0001
1000
0100
,
0010
0100
1000
0001
0010
0100
0010
0001
1000
0001
1000
0010
0100
0001
1000
0001
,
0100
0001
0100
0010
1000
0001
0100
0001
0010
0100
0010
0001
1000
0100
0010
0001
,
1000
0100
1000
0001
0010
0001
1000
0100
0010
0001
1000
0001
1000
0100
1000
0001
,
1000
0100
0010
0001
0010
0100
1000
0010
1000
0010
0100
0001
1000
0010
1000
0001
,
0100
0001
1000
0010
0100
0001
1000
0001
1000
0010
1000
0001
1000
0010
0100
0001
,
0100
0010
1000
0100
1000
0010
0100
0001
0010
0001
0010
0001
1000
0100
1000
0001
,
0010
0100
1000
0001
1000
0100
0010
0001
1000
0100
1000
0001
0010
0100
0010
0001
,
1000
0100
0010
0001
1000
0001
1000
0100
0010
0100
1000
0001
1000
0010
0100
0001
,
1000
0010
0100
0010
1000
0001
0100
0010
1000
0001
1000
0100
0010
0100
1000
0100
,
0010
0001
0100
0010
0100
0001
0100
0010
0100
0001
1000
0001
1000
0100
0010
0001
,
1000
0100
1000
0001
0010
0001
1000
0100
0010
0001
1000
0001
1000
0100
1000
0001
,
1000
0100
0010
0001
0010
0100
1000
0010
1000
0010
0100
0001
1000
0010
1000
0001
,
0100
0001
1000
0010
0100
0001
1000
0001
1000
0010
1000
0001
1000
0010
0100
0001
,
0100
0010
1000
0001
1000
0010
1000
0001
0100
0001
0010
0100
1000
0001
0010
0001
,
1000
0100
1000
0001
0010
0001
1000
0100
0010
0001
1000
0001
1000
0100
1000
0001
,
1000
0100
0010
0001
0010
0100
1000
0010
1000
0010
0100
0001
1000
0010
1000
0001
,
0100
0001
1000
0010
0100
0001
1000
0001
1000
0010
1000
0001
1000
0010
0100
0001
,
0100
0010
1000
0001
0010
0100
1000
0100
1000
0001
1000
0001
0200
0000
0000
0000
,
0000
0000
0001
0000
,
0000
0300
0001
0000
1000
0000
0001
0000
,
0000
0001
0000
0001
,
0010
0100
0010
0001
,
0000
0000
2000
0000
3100
2000
0000
0000
,
0000
3002
0000
0000
0003
0000
0000
0000
,
0000
0000
0000
0000
2000
3000
0000
0000
0002
0000
0003
0000
0020
0000
0000
0030
,
0000
0200
0000
0300
2000
0000
0000
0000
,
0000
0000
0000
3000
;

//---------------dance-single - teejusb----------------
#NOTES:
     dance-single:
     teejusb:
     Hard:
     9:
     0.467,0.685,0.045,0.610,0.007,587.000,10.000,137.000,0.000,0.000:

0000
0000
0000
0000
,
0000
0000
0000
0000
,
0000
0000
0000
0000
,
0000
0000
0000
0000
,
0000
0000
0000
0000
,
2000
0000
3001
0200
0000
0000
0000
0302
,
0000
0003
0000
0000
,
2000
3000
0000
0000
0200
0000
0300
0000
0020
0000
0000
0030
0000
0000
0200
0000
,
0000
0300
2000
0000
0000
0000
0000
0000
,
0000
0000
0000
3000
0000
0000
0000
0000
0000
0000
0000
0000
0002
0000
0003
0000
,
0020
0030
0002
0000
0000
0003
2000
3000
,
0002
0003
0200
0000
0000
0300
0020
0000
,
1030
0001
1001
1000
,
0001
0000
1000
0100
0010
0100
1000
0000
,
0001
0000
1000
0001
0100
0000
0001
0000
,
0010
0000
0100
1000
0100
1000
0001
0000
,
0100
0000
0010
0100
0001
0000
1000
0000
,
0010
0000
0100
0010
1000
0001
1000
0000
,
0001
0000
0010
0100
0010
0000
0100
0000
,
1000
0000
0001
0010
0001
1000
0001
0000
,
0010
0000
0100
0000
1000
0100
0010
0100
,
1000
0100
1000
0001
0010
0001
1000
0010
,
0100
0001
1000
0010
1000
0001
0100
0010
,
0100
0001
1000
0100
0010
0001
0010
0100
,
1000
0100
1000
0001
0010
0001
1000
0010
,
0100
0001
1000
0001
1000
0001
1000
0100
,
0010
0100
0010
0100
1000
0100
1000
0001
,
0100
0001
0010
0100
1000
0010
0100
0001
,
1000
0100
0010
0001
1000
0000
1000
0000
,
2002
0000
0000
0000
,
0000
3003
0000
0000
1000
0000
0010
2000
,
0000
3000
0001
0020
0000
0030
0100
0000
,
1000
0001
0200
0300
,
0010
2000
0000
0000
,
3001
0020
0000
0000
,
0030
0000
0000
0000
0200
0000
0000
0300
,
2000
0000
0000
3000
0001
0000
0001
0000
,
2002
0000
0000
0000
,
3003
0000
0000
1000
0020
0000
0130
0002
,
0000
0003
0010
0200
0000
0300
0010
0000
,
0001
1000
0002
0000
,
1003
0020
0000
0000
,
0030
0100
0002
0003
,
1000
0002
0000
0000
,
0003
1000
0200
0300
,
0010
0200
0000
0000
,
0000
2300
0000
0000
,
3000
0002
0000
0000
,
0203
0000
0300
0000
0010
1000
0001
0000
,
0001
0000
1000
0100
0010
0100
1000
0000
,
0001
0000
0100
0010
1000
0000
1000
0000
,
0010
0000
1000
0001
0010
0000
0001
0000
,
2002
3003
0000
0000
0000
0000
0000
0000
1000
0000
0000
0000
1000
0000
0000
0000
,
0100
0000
0010
0100
1000
0100
0010
0000
,
0001
0000
1000
0001
1000
0000
1000
0000
,
0010
0000
0100
0001
0100
0010
0100
0000
,
0001
0000
1000
0100
0010
0000
0010
0000
,
0100
0000
1000
0001
1000
0001
0100
0000
,
0010
0000
0100
0001
0010
0000
0100
0000
,
0010
0000
0100
0010
0001
1000
0100
0000
,
1000
0000
0001
0100
0010
0000
0010
0000
,
1000
0000
0001
0100
0010
0100
0001
0000
,
1000
0000
0001
1000
0100
0000
1000
0000
,
0001
0000
1000
0010
1000
0010
0100
0000
,
0001
0000
0100
0010
1000
0000
0001
0000
,
1000
0000
0100
0010
0100
1000
0001
0000
,
1000
0000
0100
0010
0100
0000
0100
0000
,
1000
0000
0001
0010
0100
0010
0001
0000
,
1000
0000
1000
0000
0001
0010
0100
0010
,
0001
1000
0001
1000
0010
0100
0010
1000
,
0001
0010
0100
1000
0001
1000
0010
0100
,
0001
1000
0001
1000
0010
1000
0001
1000
,
0010
0100
0001
1000
0100
1000
0010
0100
,
0001
1000
0100
0010
0100
1000
0001
0010
,
0001
1000
0100
1000
0001
0100
0010
0100
,
0001
1000
0010
0100
0010
1000
0001
0010
,
0100
1000
0010
0100
0001
0000
0001
0000
,
2002
0000
0000
0000
,
0000
3003
0000
0000
0001
0000
0010
0002
,
0000
0003
1000
0020
0000
0030
0100
0000
,
0001
1000
0200
0300
,
0010
0002
0000
0000
,
1003
0020
0000
0000
,
0030
0000
0000
0000
0200
0000
0000
0300
,
0002
0000
0000
0003
1000
0000
1000
0000
,
2002
0000
0000
0000
,
3003
0000
0000
0001
0020
0000
0130
2000
,
0000
3000
0010
0200
0000
0300
0010
0000
,
1000
0001
2000
0000
,
3001
0020
0000
0000
,
0030
0100
2000
0000
,
3001
2000
0000
0000
,
3000
0001
0200
0300
,
0010
0200
0000
0000
,
0000
0302
0000
0000
,
0003
2000
0000
0000
,
3200
0000
0310
0001
1000
0000
1000
0000
,
0001
0100
0100
0010
,
0100
0000
0010
0100
0001
0000
0001
0000
,
1000
0001
0200
0000
,
0310
0000
0100
0001
2000
0000
0000
0000
,
3000
0000
0001
0000
0010
0001
0000
1000
,
0000
0010
0200
0000
0000
0000
0302
0000
,
0013
0010
0100
0100
,
1000
0000
1000
0001
0100
0000
0010
0000
,
0010
2000
0000
3002
,
0000
0203
0000
0320
,
0000
2030
0000
3002
,
0003
0000
1000
0100
,
0010
0200
0300
1000
,
0001
0200
0300
0001
,
0010
0200
0300
1000
,
0001
0000
0200
0000
0000
0000
0000
0300
,
0020
0030
0100
0002
0000
0000
0000
2003
0000
0000
3000
0000
0000
0000
0000
0000
,
0020
0030
0000
0000
2000
0000
3000
0000
0002
0000
0000
0003
0000
0000
0200
0000
0000
0000
0300
0000
0020
0000
0000
0000
0000
0000
0000
0000
0000
0000
0000
0000
,
0000
0000
0000
0030
0000
0000
0000
0000
0000
0000
0000
0000
2000
0000
3000
0000
0002
0000
0003
0000
2000
0000
0000
0000
0000
0000
3000
0000
0200
0000
0300
0000
,
2000
3000
0020
0000
0000
0030
0200
0000
0301
0000
1000
0000
1001
0000
0000
0000
,
1000
0000
0100
0000
0010
0100
1000
0100
,
0010
0000
0001
0000
1000
0001
0100
0000
,
0100
0000
0010
0000
1000
0010
0100
0001
,
1000
0000
0001
0000
1000
0100
1000
0000
,
1000
0000
0001
0000
0100
0010
1000
0001
,
1000
0000
0000
0000
0000
0000
0000
0000
0200
0300
0000
0000
0000
0000
0000
0000
0020
0000
0030
0000
0000
0000
0000
0000
0020
0000
0000
0030
0000
0000
0000
0000
,
0002
0000
0000
0000
0003
0000
0000
0000
0002
0000
0000
0000
0000
0003
0000
0000
2000
0000
0000
0000
0000
0000
3000
0000
2000
0000
0000
0000
0000
0000
0000
0000
,
3100
0010
0001
0010
0100
1000
0100
0000
,
0010
2002
0000
0000
,
0000
0000
0000
3003
0000
0000
1000
0000
,
0010
2000
0000
3000
0001
0020
0000
0030
,
0100
1000
0001
0200
,
0300
0010
2000
0000
,
0000
3001
0020
0000
,
0000
0030
0000
0200
,
0000
0300
2000
0000
0000
3000
0001
0000
,
0001
2002
0000
0000
,
0000
0000
3003
0000
0000
1000
0020
0000
,
0130
0002
0000
0003
0010
0200
0000
0300
,
0010
0001
1000
0002
,
0000
1003
0020
0000
,
0000
0030
0100
0002
,
0003
1000
0002
0000
,
0010
0000
0000
1000
0003
0000
0001
0000
,
0001
2002
0000
0000
,
0000
0000
0000
3003
0000
0000
1000
0000
,
0010
2000
0000
3000
0001
0020
0000
0030
,
0100
1000
0001
0200
,
0300
0010
2000
0000
,
0000
3000
0001
0200
,
0300
0010
2000
0000
,
3001
0010
0100
2000
,
0000
3001
0200
0000
,
0000
0000
0320
0000
,
0000
0030
0200
0000
,
0300
0001
0000
0001
,
0000
0000
0001
0000
,
0000
1000
0100
0010
,
0000
0010
0000
0010
,
0100
1000
0010
0100
,
0000
0000
0002
0000
1003
0020
0000
0000
,
0000
0230
0000
0000
0300
0000
0000
0000
,
0000
0000
0000
0000
0000
0000
0002
0003
0000
0000
0000
0000
0200
0000
0300
0000
0000
0000
0020
0000
0000
0030
0000
0000
,
0000
0000
0000
0200
0000
0000
0000
0300
0000
0000
0000
0000
0002
0000
0000
0000
0000
0000
0000
0000
0000
0000
0000
0000
,
0000
0000
0000
0000
,
0003
0000
0000
0000
;
