#TITLE:God is a Girl;
#SUBTITLE:;
#ARTIST:Groove Coverage;
#TITLETRANSLIT:;
#SUBTITLETRANSLIT:;
#ARTISTTRANSLIT:;
#CREDIT:;
#BANNER:God Banner.png;
#BACKGROUND:God is a Girl-bg.png;
#LYRICSPATH:;
#CDTITLE:sandy.png;
#MUSIC:Groove Coverage - God is a Girl(1).mp3;
#OFFSET:-2.840;
#SAMPLESTART:74.230;
#SAMPLELENGTH:27.560;
#SELECTABLE:YES;
#BPMS:0.000=142.000;
#STOPS:;
#BGCHANGES:152.500=God is a Girl - red.png=1.000=0=0=1,
152.750=God is a Girl - white.png=1.000=0=0=1,
153.000=God is a Girl - red.png=1.000=0=0=1,
153.500=God is a Girl - white.png=1.000=0=0=1,
157.000=God is a Girl - red.png=1.000=0=0=1,
157.500=God is a Girl - white.png=1.000=0=0=1,
160.500=God is a Girl - red.png=1.000=0=0=1,
160.750=God is a Girl - white.png=1.000=0=0=1,
161.000=God is a Girl - red.png=1.000=0=0=1,
161.500=God is a Girl - white.png=1.000=0=0=1,
163.000=God is a Girl - red.png=1.000=0=0=1,
163.500=God is a Girl - white.png=1.000=0=0=1,
164.500=God is a Girl - red.png=1.000=0=0=1,
164.750=God is a Girl - white.png=1.000=0=0=1,
165.000=God is a Girl - red.png=1.000=0=0=1,
165.500=God is a Girl - white.png=1.000=0=0=1,
166.000=God is a Girl - red.png=1.000=0=0=1,
166.500=God is a Girl - white.png=1.000=0=0=1,
167.000=God is a Girl - red.png=1.000=0=0=1,
167.500=God is a Girl - white.png=1.000=0=0=1,
168.000=God is a Girl - red.png=1.000=0=0=1,
168.500=God is a Girl - white.png=1.000=0=0=1,
222.000=God is a Girl - red.png=1.000=0=0=1,
223.000=God is a Girl - white.png=1.000=0=0=1,
224.000=God is a Girl - red.png=1.000=0=0=1,
224.500=God is a Girl - white.png=1.000=0=0=1,
225.000=God is a Girl - red.png=1.000=0=0=1,
226.000=God is a Girl - white.png=1.000=0=0=1,
227.000=God is a Girl - red.png=1.000=0=0=1,
228.000=God is a Girl - white.png=1.000=0=0=1,
228.500=God is a Girl - red.png=1.000=0=0=1,
229.000=God is a Girl - white.png=1.000=0=0=1,
230.000=God is a Girl - red.png=1.000=0=0=1,
230.500=God is a Girl - white.png=1.000=0=0=1,
231.000=God is a Girl - red.png=1.000=0=0=1,
231.500=God is a Girl - white.png=1.000=0=0=1,
232.000=God is a Girl - red.png=1.000=0=0=1,
232.500=God is a Girl - white.png=1.000=0=0=1,
364.500=God is a Girl - red.png=1.000=0=0=1,
364.750=God is a Girl - white.png=1.000=0=0=1,
365.000=God is a Girl - red.png=1.000=0=0=1,
365.500=God is a Girl - white.png=1.000=0=0=1,
369.000=God is a Girl - red.png=1.000=0=0=1,
369.500=God is a Girl - white.png=1.000=0=0=1,
372.500=God is a Girl - red.png=1.000=0=0=1,
372.750=God is a Girl - white.png=1.000=0=0=1,
373.000=God is a Girl - red.png=1.000=0=0=1,
373.500=God is a Girl - white.png=1.000=0=0=1,
377.000=God is a Girl - red.png=1.000=0=0=1,
377.500=God is a Girl - white.png=1.000=0=0=1,
380.500=God is a Girl - red.png=1.000=0=0=1,
380.750=God is a Girl - white.png=1.000=0=0=1,
381.000=God is a Girl - red.png=1.000=0=0=1,
381.500=God is a Girl - white.png=1.000=0=0=1,
383.000=God is a Girl - red.png=1.000=0=0=1,
383.500=God is a Girl - white.png=1.000=0=0=1,
384.500=God is a Girl - red.png=1.000=0=0=1,
384.750=God is a Girl - white.png=1.000=0=0=1,
385.000=God is a Girl - red.png=1.000=0=0=1,
385.500=God is a Girl - white.png=1.000=0=0=1,
387.000=God is a Girl - red.png=1.000=0=0=1,
387.500=God is a Girl - white.png=1.000=0=0=1,
388.500=God is a Girl - red.png=1.000=0=0=1,
388.750=God is a Girl - white.png=1.000=0=0=1,
389.000=God is a Girl - red.png=1.000=0=0=1,
389.500=God is a Girl - white.png=1.000=0=0=1,
390.000=God is a Girl - red.png=1.000=0=0=1,
390.500=God is a Girl - white.png=1.000=0=0=1,
391.000=God is a Girl - red.png=1.000=0=0=1,
391.500=God is a Girl - white.png=1.000=0=0=1,
392.000=God is a Girl - red.png=1.000=0=0=1,
392.500=God is a Girl - white.png=1.000=0=0=1,
393.000=God is a Girl - red.png=1.000=0=0=1,
393.250=God is a Girl - white.png=1.000=0=0=1,
393.500=God is a Girl - red.png=1.000=0=0=1,
393.750=God is a Girl - white.png=1.000=0=0=1,
394.000=God is a Girl - red.png=1.000=0=0=1,
394.250=God is a Girl - white.png=1.000=0=0=1,
394.500=God is a Girl - red.png=1.000=0=0=1,
394.750=God is a Girl - white.png=1.000=0=0=1,
395.000=God is a Girl - red.png=1.000=0=0=1,
395.250=God is a Girl - white.png=1.000=0=0=1,
395.500=God is a Girl - red.png=1.000=0=0=1,
395.625=God is a Girl - white.png=1.000=0=0=1,
395.750=God is a Girl - red.png=1.000=0=0=1,
395.875=God is a Girl - white.png=1.000=0=0=1,
396.000=God is a Girl - red.png=1.000=0=0=1,
396.250=God is a Girl - white.png=1.000=0=0=1,
396.500=God is a Girl - red.png=1.000=0=0=1,
396.750=God is a Girl - white.png=1.000=0=0=1,
397.000=God is a Girl - red.png=1.000=0=0=1,
397.500=God is a Girl - white.png=1.000=0=0=1,
433.000=God is a Girl - white.png=1.000=0=0=1,
434.000=God is a Girl - red.png=1.000=0=0=1,
435.000=God is a Girl - white.png=1.000=0=0=1,
436.000=God is a Girl - red.png=1.000=0=0=1,
436.500=God is a Girl - white.png=1.000=0=0=1,
437.000=God is a Girl - red.png=1.000=0=0=1,
438.000=God is a Girl - white.png=1.000=0=0=1,
439.000=God is a Girl - red.png=1.000=0=0=1,
440.000=God is a Girl - white.png=1.000=0=0=1,
440.500=God is a Girl - red.png=1.000=0=0=1,
441.000=God is a Girl - white.png=1.000=0=0=1,
442.000=God is a Girl - red.png=1.000=0=0=1,
443.000=God is a Girl - white.png=1.000=0=0=1,
444.000=God is a Girl - red.png=1.000=0=0=1,
444.500=God is a Girl - white.png=1.000=0=0=1,
445.000=God is a Girl - red.png=1.000=0=0=1,
446.000=God is a Girl - white.png=1.000=0=0=1,
446.500=God is a Girl - red.png=1.000=0=0=1,
447.000=God is a Girl - white.png=1.000=0=0=1,
447.500=God is a Girl - red.png=1.000=0=0=1,
448.000=God is a Girl - white.png=1.000=0=0=1,
448.500=God is a Girl - red.png=1.000=0=0=1,
449.000=God is a Girl - white.png=1.000=0=0=1,
450.000=God is a Girl - red.png=1.000=0=0=1,
451.000=God is a Girl - white.png=1.000=0=0=1,
452.000=God is a Girl - red.png=1.000=0=0=1,
452.500=God is a Girl - white.png=1.000=0=0=1,
453.000=God is a Girl - red.png=1.000=0=0=1,
454.000=God is a Girl - white.png=1.000=0=0=1,
455.000=God is a Girl - red.png=1.000=0=0=1,
456.000=God is a Girl - white.png=1.000=0=0=1,
456.500=God is a Girl - red.png=1.000=0=0=1,
457.000=God is a Girl - white.png=1.000=0=0=1,
458.000=God is a Girl - red.png=1.000=0=0=1,
459.000=God is a Girl - white.png=1.000=0=0=1,
460.000=God is a Girl - red.png=1.000=0=0=1,
460.500=God is a Girl - white.png=1.000=0=0=1,
461.000=God is a Girl - red.png=1.000=0=0=1,
462.000=God is a Girl - white.png=1.000=0=0=1,
462.500=God is a Girl - red.png=1.000=0=0=1,
463.000=God is a Girl - white.png=1.000=0=0=1,
463.500=God is a Girl - red.png=1.000=0=0=1,
464.000=God is a Girl - white.png=1.000=0=0=1,
464.500=God is a Girl - red.png=1.000=0=0=1,
99999=-nosongbg-=1.000=0=0=0 // don't automatically add -songbackground-
;
// cache tags:
#FIRSTBEAT:0.000;
#LASTBEAT:500.000;
#SONGFILENAME:Songs/toune 8/Groove Coverage - God is a Girl(1)/Groove Coverage - God is a Girl(1).sm;
#HASMUSIC:1;
#HASBANNER:1;
#MUSICLENGTH:216.612;
// end cache tags

//---------------dance-single - Easy----------------
#NOTES:
     dance-single:
     Easy:
     Easy:
     6:
     0.391,0.373,0.000,0.005,0.002,592.000,0.000,1.000,0.000,0.000:
1000
0001
0000
0010
,
0100
1000
0000
0000
,
0001
0010
0000
0100
,
1000
0010
0000
0000
,
1000
0010
0000
0100
,
1000
0010
0000
0000
,
1000
0010
0000
0100
,
1000
0001
0000
0000
,
0010
0100
0000
1000
,
0010
0100
0000
0000
,
1000
0010
0000
0100
,
1000
0001
0000
0000
,
1000
0010
0100
1000
,
0010
0100
0000
0000
,
0001
0010
0100
1000
,
0100
0010
0000
0000
,
0000
0000
0000
0000
0000
0000
1000
0001
,
1000
0000
0010
0000
0000
1000
0001
0010
,
0100
0000
1000
0000
0000
0000
0010
1000
,
0001
0010
0000
0100
0000
0000
0001
0100
,
0010
0100
0000
0010
0000
0000
0001
1000
,
0010
0000
0100
0000
0000
1000
0001
0010
,
0100
0000
1000
0000
0000
0000
0010
0100
,
1000
0001
0000
0010
0000
0000
0100
1000
,
0001
0010
0000
0100
0000
0000
1000
0001
,
0010
0000
0100
0000
0000
1000
0001
0010
,
0100
0000
0010
0000
0000
0000
1000
0010
,
0100
1000
0000
0010
0000
0000
0001
0010
,
0100
0010
0000
0001
0000
0000
0010
0100
,
1000
0000
0010
0000
0000
0001
0010
0100
,
0010
0000
1000
0000
0000
0000
0010
0100
,
1000
0001
0000
0010
0000
0000
0100
1000
,
0001
0010
0000
0100
0000
0000
0000
0000
,
2000
0000
0000
0000
3010
0001
0010
0001
,
0010
0001
0010
0000
0010
0000
0010
0000
,
0010
0100
1000
0000
1000
0000
1000
0000
,
1000
0100
0001
0000
0001
0000
0001
0000
,
0001
0010
0100
0000
0100
1000
0100
1000
,
0100
1000
0001
0000
0001
0000
0001
0000
,
0001
0010
0100
0000
0100
0000
0100
0000
,
0100
1000
0001
0000
0001
0000
0001
0000
,
0001
0100
1000
0000
0100
0010
0100
0010
,
0100
0010
1000
0000
1000
0000
1000
0000
,
1000
0001
0010
0000
0010
0000
0010
0000
,
0010
0100
1000
0000
1000
0000
1000
0000
,
1000
0100
0010
0000
0010
0100
0010
0100
,
0010
0100
0010
0000
0010
0000
0010
0000
,
0010
0100
1000
0000
1000
0000
1000
0000
,
1000
0100
0010
0000
0010
0000
0010
0000
,
0010
0001
0100
0000
1000
0010
1000
0010
,
1000
0010
1000
0000
1000
0000
1000
0000
,
1000
0100
0010
0000
0010
0000
0010
0000
,
0010
0100
1000
0000
1000
0000
1000
0000
,
1000
0001
0010
0000
0100
0001
0100
0001
,
0100
0001
0100
0000
0100
0000
0100
0000
,
0100
0010
1000
0000
1000
0000
1000
0000
,
1000
0100
0010
0000
0010
0000
0010
0000
,
0010
0001
0100
0000
1000
0100
1000
0100
,
1000
0100
1000
0000
1000
0000
1000
0000
,
1000
0010
0001
0000
0001
0000
0001
0000
,
0001
0100
1000
0000
1000
0000
1000
0000
,
1000
0100
0010
0000
0010
0001
0010
0100
,
1000
0100
0010
0000
0010
0000
0010
0000
,
0010
0001
0010
0000
0010
0000
0010
0000
,
0010
0100
1000
0000
1000
0000
1000
0000
,
1000
0100
0010
0000
0001
1000
0010
0100
,
1000
0000
0001
0000
0000
0010
1000
0001
,
0010
0000
0100
0000
0000
0000
1000
0001
,
0010
0100
0000
1000
0000
0001
0010
0000
,
0100
0000
1000
0000
0000
0000
0001
1000
,
0010
0000
0100
0000
0000
1000
0001
1000
,
0010
0000
0100
0000
0000
1000
0001
0010
,
0100
1000
0000
0001
0000
0010
0100
0000
,
1000
0000
0001
0000
0000
0000
0010
1000
,
0001
0010
0000
0100
1000
0001
0010
0000
,
0100
1000
0000
0000
0000
0000
0010
0001
,
0100
1000
0000
0010
0100
1000
0001
0000
,
0010
0100
0000
0000
0000
0000
1000
0001
,
0010
0100
0000
1000
0000
0001
0010
0000
,
0100
1000
0000
0000
0000
0001
0010
0100
,
1000
0001
0000
0010
0000
1000
0010
0000
,
0100
1000
0000
0000
,
0000
0000
0000
0000
0000
0000
1000
0001
,
0010
0000
0100
0000
0000
1000
0010
0100
,
1000
0000
0001
0000
0000
0000
0010
0100
,
0010
0100
0000
0010
0000
0000
1000
0001
,
1000
0010
0000
0100
0000
0000
1000
0001
,
0010
0000
1000
0000
0000
0001
1000
0010
,
0100
0000
0001
0000
0000
0000
0010
0100
,
0010
0001
0000
1000
0000
0000
0010
0100
,
1000
0001
0000
0010
0000
0000
1000
0001
,
0010
0000
0100
0000
0000
1000
0001
0010
,
0100
0000
1000
0000
0000
0000
0010
0100
,
1000
0001
0000
0010
0000
0000
0010
0100
,
1000
0001
0000
0010
0000
0000
0100
1000
,
0001
0000
0010
0000
0000
0100
1000
0001
,
0010
0000
0100
0000
0000
0000
0001
0010
,
0100
1000
0000
0010
0000
0000
0100
1000
,
0001
0000
0010
0000
0000
0000
0100
0000
0000
0000
0000
0000
1000
0000
0000
0100
,
0001
0000
1000
0000
0001
1000
0001
1000
,
0001
1000
0100
0000
0100
0000
0100
0000
,
0100
0001
0010
0000
0010
0000
0010
0000
,
0010
0100
1000
0000
1000
0000
1000
0000
,
1000
0100
0010
0000
0001
0010
0100
0010
,
0100
0010
0100
0000
0100
0000
0100
0000
,
0100
0010
1000
0000
1000
0000
1000
0000
,
1000
0001
0010
0000
0010
0000
0010
0000
,
0010
0001
1000
0000
1000
0100
0010
0001
,
0010
0001
0010
0000
0010
0000
0010
0000
,
0010
0100
1000
0000
1000
0000
1000
0000
,
1000
0100
0010
0000
0010
0000
0010
0000
,
0010
0100
1000
0000
1000
0100
0010
0001
,
0010
0100
1000
0000
1000
0000
1000
0000
,
1000
0100
0010
0000
0010
0000
0010
0000
,
0010
0100
0001
0000
0001
0000
0001
0000
,
0001
0010
0100
0000
1000
0100
0010
0001
,
0010
0100
1000
0000
1000
0000
1000
0000
,
1000
0100
0010
0000
0010
0000
0010
0000
,
0001
0010
0100
0000
0100
0000
0100
0000
,
1000
0100
0010
0000
0001
0010
0100
1000
,
0100
0010
0001
0000
0001
0000
0001
0000
,
0001
0010
0100
0000
0100
0000
0100
0000
,
0100
0001
0010
0000
0010
0000
0010
0000
,
0010
0100
1000
0000
1000
0100
0010
0001
,
0010
0100
1000
0000
0000
0000
0000
0000
;

//---------------dance-single - Medium----------------
#NOTES:
     dance-single:
     Medium:
     Medium:
     9:
     0.641,0.721,1.000,0.046,0.002,704.000,258.000,10.000,0.000,0.000:
1000
0101
0000
0010
,
0100
1001
0000
0000
,
0001
1010
0000
0100
,
1000
0011
0000
0000
,
1000
0110
0000
0100
,
0001
1010
0000
0000
,
0100
1001
0000
0100
,
1000
0011
0000
0000
,
0010
1100
0000
0001
,
0010
1100
0000
0000
,
1000
0110
0000
0100
,
1000
0101
0000
0000
,
1000
0011
0100
1000
,
0010
1100
0000
0000
,
0001
1010
0100
1000
,
0100
0022
0000
0000
,
0000
0000
0033
0000
0000
0000
1000
0001
,
1000
0000
0101
0010
0100
0010
0100
1000
,
0100
0010
1100
0001
0010
0001
0010
0100
,
0010
0001
0110
0001
1000
0100
0010
0100
,
0010
0001
1010
0100
0001
0010
0001
0010
,
0100
1000
0101
0010
0001
0010
0100
0010
,
0100
1000
0101
1000
0100
0010
0100
0010
,
0001
1000
0101
0010
0001
0010
0100
1000
,
0100
0010
1100
0010
0001
0010
0100
0010
,
0001
0100
0011
0100
1000
0010
0100
0010
,
0100
1000
0011
0100
1000
0100
1000
0010
,
0100
1000
0101
0010
0100
1000
0001
0010
,
0100
0010
1100
0010
0001
0100
0010
0100
,
1000
0100
0011
0100
1000
0100
0010
0100
,
1000
0001
1010
0100
1000
0100
0010
0100
,
1000
0001
1010
0100
0010
0001
0100
1000
,
0100
0010
1001
0220
0000
0000
0330
0000
,
2002
0000
3003
0000
0100
0100
0010
0010
,
0001
0001
1010
0000
1010
0000
1010
0000
,
1010
0100
0011
0000
0011
0000
0011
0000
,
0011
0100
1001
0000
1001
0000
1001
0000
,
1001
0010
0101
0000
0100
0100
0010
0010
,
1000
1000
0011
0000
0011
0000
0011
0000
,
0011
0100
1010
0000
1010
0000
1010
0000
,
1010
0100
0011
0000
0011
0000
0011
0000
,
0011
0100
1010
0000
1000
1000
0100
0100
,
0010
0010
1001
0000
0110
0000
1010
0000
,
1100
0001
1010
0000
0011
0000
0110
0000
,
1001
0100
1010
0000
0101
0000
0110
0000
,
1001
0100
1010
0000
0001
0001
1000
1000
,
0100
0100
1010
0000
0110
0000
0011
0000
,
1100
0001
1010
0000
1100
0000
0011
0000
,
0110
1000
0101
0000
1010
0000
1001
0000
,
0110
0001
0110
0000
1000
1000
0100
0100
,
0010
0010
1001
0000
0110
0000
1001
0000
,
1010
0100
0011
0000
1010
0000
0101
0000
,
0110
0001
1010
0000
1100
0000
0011
0000
,
1100
0001
1010
0000
0001
0001
0100
0100
,
0010
0010
1100
0000
0101
0000
1001
0000
,
0110
0001
1010
0000
0110
0000
0011
0000
,
1001
0100
1010
0000
0110
0000
1001
0000
,
0110
0001
1100
0000
0001
0001
1000
1000
,
0100
0100
1001
0000
1001
0000
1001
0000
,
1001
0010
0101
0000
0101
0000
0101
0000
,
0101
1000
0011
0000
0011
0000
0011
0000
,
0011
0100
1010
0000
0010
0010
0100
0100
,
0001
0001
1010
0000
1010
0000
1010
0000
,
1010
0001
1100
0000
1100
0000
1100
0000
,
1100
0010
1001
0000
1001
0000
1001
0000
,
1001
0100
0011
0000
0100
0100
0010
0010
,
1000
1000
0101
0000
0000
0010
1000
0001
,
0010
0000
1100
0000
0000
0000
1000
0001
,
0010
0100
0011
1000
0000
0001
0010
0000
,
0100
0000
1001
0000
0000
0000
0001
1000
,
0010
0000
0101
0000
0000
1000
0001
1000
,
0010
0000
0011
0000
0000
1000
0001
0010
,
0100
1000
0110
0001
0000
0010
0100
0000
,
1000
0000
0101
0000
0000
0000
0010
1000
,
0001
0010
1001
0100
1000
0001
0010
0000
,
0100
1000
0110
0000
0000
0000
0010
0001
,
0100
1000
0101
0010
0100
1000
0001
0000
,
0010
0100
1010
0000
0000
0000
1000
0001
,
0010
0100
0011
1000
0000
0001
0010
0000
,
0100
1000
0110
0000
0000
0001
0010
0100
,
1000
0001
1100
0010
0000
1000
0010
0000
,
0100
0000
2002
0000
0000
0000
0000
3003
,
0000
0000
0000
0000
0000
0000
1000
0001
,
0010
0000
0101
0010
0100
1000
0010
0100
,
1000
0100
0011
1000
0100
0010
0001
0010
,
0100
0010
1001
0010
0100
0010
0001
1000
,
0100
0010
1100
0010
0001
0010
0100
1000
,
0100
0010
1100
0001
0010
0100
1000
0100
,
0010
0100
1001
0010
0100
1000
0100
0010
,
0001
0010
0101
1000
0001
0010
0100
0010
,
0100
1000
0101
1000
0100
0010
0001
0010
,
0100
1010
1010
0100
0010
0001
0010
0100
,
1000
0100
1001
0100
0010
0001
0010
0100
,
1000
0101
0101
0010
0100
1000
0010
0100
,
1000
0100
1010
0001
0010
0100
1000
0100
,
0010
1001
1001
0010
0100
1000
0110
0001
,
0010
1100
1100
0010
0001
0010
1001
0100
,
1000
0011
0011
0100
1001
0010
0101
0010
,
1100
0000
0010
0000
0100
0000
0010
0000
0100
0000
0010
0000
0001
0000
0010
0100
,
1000
0100
0010
0000
1000
1000
0001
0001
,
1000
1000
0101
0000
0101
0000
0101
0000
,
0101
0010
1100
0000
1100
0000
1100
0000
,
1100
0010
1001
0000
1001
0000
1001
0000
,
1001
0100
0011
0000
0010
0010
0100
0100
,
0010
0010
0101
0000
0101
0000
0101
0000
,
0101
0010
1001
0000
1001
0000
1001
0000
,
1001
0010
1100
0000
1100
0000
1100
0000
,
1100
0010
0101
0000
0100
0100
0001
0001
,
0100
0100
1010
0000
0110
0000
0011
0000
,
1001
0010
1100
0000
1001
0000
0011
0000
,
1001
0100
0011
0000
0110
0000
1001
0000
,
0011
0100
1010
0000
1000
1000
0010
0010
,
0100
0100
1001
0000
1010
0000
0011
0000
,
1010
0100
0011
0000
1010
0000
0110
0000
,
0011
0100
1001
0000
0011
0000
1100
0000
,
0101
0010
1100
0000
1000
1000
0010
0010
,
0100
0100
1001
0000
1001
0000
1001
0000
,
1001
0010
1100
0000
1100
0000
1100
0000
,
1100
0010
0101
0000
0101
0000
0101
0000
,
0101
0010
1100
0000
0001
0001
1000
1000
,
0010
0010
0101
0000
0101
0000
0101
0000
,
0101
1000
0110
0000
0110
0000
0110
0000
,
0110
0001
1010
0000
1010
0000
1010
0000
,
1010
0100
1001
0000
1000
1000
0010
0010
,
0100
0100
2002
0000
0000
0000
0000
0000
,
3003
0000
0000
0000
;

//---------------dance-single - Hard----------------
#NOTES:
     dance-single:
     Hard:
     Hard:
     10:
     0.866,0.981,1.000,0.138,0.178,893.000,390.000,30.000,0.000,22.000:
1000
0102
0000
0010
,
0100
2013
0000
0000
,
0001
3120
0000
1000
,
0100
1032
0000
0000
,
0100
2013
0000
0100
,
0001
3012
0000
0000
,
0100
1023
0000
0100
,
1000
0231
0000
0000
,
0001
2310
0000
0001
,
0010
3102
0000
0000
,
1000
0123
0000
0100
,
1000
2031
0000
0000
,
0100
3012
0100
1000
,
0010
1203
0000
0000
,
0001
2310
0100
0001
,
0100
3022
0000
0000
,
0000
0000
0033
0000
0000
0000
1000
0001
,
1000
0000
0101
0010
0100
0010
0100
1000
,
0100
0010
1100
0001
0010
0001
0010
0100
,
0010
0001
0110
0001
1000
0100
0010
0100
,
0010
0001
1010
0100
0001
0010
0001
0010
,
0100
1000
0101
0010
0001
0010
0100
0010
,
0100
1000
0101
1000
0100
0010
0100
0010
,
0001
1000
0101
0010
0001
0010
0100
1000
,
0100
0010
1100
0010
0001
0010
0100
0010
,
0001
0000
0100
0000
0011
0000
1000
0100
0001
0000
0010
0100
1000
0000
0010
0001
,
0010
0100
1000
0100
0010
0000
0001
0010
1000
0000
0010
0100
1000
0000
0100
0010
,
0001
0010
0100
0010
0001
0000
0010
0100
1000
0000
1000
0100
0001
0000
0010
0100
,
1000
0100
0010
0100
1000
0000
0100
0001
0010
0000
1000
0100
0010
0000
0100
0010
,
1000
0100
0010
0001
0010
0000
0100
0010
1000
0000
0001
0010
0100
0000
0010
0100
,
1000
0100
0010
0100
1000
0000
0001
1000
0010
0000
0100
1000
0010
0000
0001
0100
,
1000
0100
0001
0100
1000
0000
0100
0010
0001
0000
0001
0010
0100
0000
1000
0100
,
0010
0100
0010
0100
1000
0000
0010
0001
0100
0000
0010
0100
1000
0000
0010
0100
,
2002
0000
3003
0000
1100
1100
0110
0110
,
0011
0011
1010
0000
1010
0000
1010
0000
,
1010
0110
0011
0000
0011
0000
0011
0000
,
0011
0110
1001
0000
1001
0000
1001
0000
,
1001
0110
0101
0000
1100
1100
0011
0011
,
1100
1100
0011
0100
0011
0100
0011
0100
,
0011
0100
1010
0001
1010
0001
1010
0001
,
1010
1100
0011
0100
0011
0100
0011
0100
,
0011
1100
1010
0000
1001
1001
0110
0110
,
1010
1010
1001
1000
1010
0010
0011
0001
,
1001
0110
1001
1000
1010
0010
0011
0001
,
0101
1010
0101
0100
1100
1000
1100
0100
,
0101
1010
0101
0001
0011
0011
1100
1100
,
0101
0101
1010
1000
1100
0100
0110
0010
,
0011
1100
0011
0010
1010
1000
1001
0001
,
0101
1010
0101
0100
1100
1000
1001
0001
,
1001
0110
1001
0001
1001
1001
0110
0110
,
1010
1010
1001
0100
1010
0100
1001
0010
,
0101
1000
0101
0010
1001
0010
0101
1000
,
0110
0101
1010
0001
1100
0010
0101
1000
,
0110
1010
0110
1000
0101
0101
0110
0110
,
0011
0011
1100
0010
0101
0010
1001
0100
,
0110
1001
1010
0001
0110
1000
0011
0100
,
1001
0110
1010
0001
0110
1000
0101
0010
,
0110
1001
1100
0010
0101
0101
1010
1010
,
0101
0101
1001
0000
1001
0000
1001
0000
,
1001
0110
0101
0000
0101
0000
0101
0000
,
0101
1100
0011
0000
0011
0000
0011
0000
,
0011
0110
1010
0000
1010
1010
0101
0101
,
1001
1001
1010
0000
1010
0000
1010
0000
,
1010
0101
1100
0000
1100
0000
1100
0000
,
1100
0110
1001
0000
1001
0000
1001
0000
,
1001
1100
0011
0000
0101
0101
1010
1010
,
1001
0000
1001
0000
0101
0000
0100
0010
0001
0000
0010
0100
1000
0000
0001
0010
,
0100
0010
0001
0010
0100
0000
0001
0010
0100
0000
0010
0100
1000
0000
0001
0000
,
0100
1000
0100
0010
0001
0000
1000
0100
0010
0000
0001
0010
0100
0000
1000
0010
,
0100
1000
0010
0100
1000
0000
0001
0010
0100
0000
1000
0100
0001
0000
1000
0100
,
0010
0100
1000
0010
0001
0000
0100
0010
1000
0000
0010
0100
0001
0000
1000
0100
,
0001
0100
1000
0001
0100
0000
0001
0010
0100
0000
1000
0100
0001
0000
0010
1000
,
0100
0010
1000
0100
0010
0000
0001
0010
0100
0000
0010
0001
0100
0000
0010
0100
,
1000
0100
0010
1000
0100
0000
0001
0010
0100
0000
1000
0100
0010
0000
1000
0100
,
0001
0010
0100
0000
1002
0000
0100
0000
1000
0000
0100
0000
0010
0000
0000
0000
,
0100
1000
0213
0000
0000
0000
0010
0001
,
0010
1000
0321
1000
0100
1000
0001
0000
,
0001
0100
1032
0000
0000
0000
1000
0100
,
0010
0100
1023
0100
0000
0001
1000
0000
,
0100
1000
0231
0000
0000
0001
0010
0001
,
1000
0001
1320
0100
0000
1000
0001
0000
,
0100
0000
2032
0000
0000
0000
0000
3003
,
0000
0000
0000
0000
0000
0000
1000
0001
,
0010
0000
0101
0010
0100
1000
0010
0100
,
1000
0100
0011
1000
0100
0010
0001
0010
,
0100
0010
1001
0010
0100
0010
0001
1000
,
0100
0010
1100
0010
0001
0010
0100
1000
,
0100
0010
1100
0001
0010
0100
1000
0100
,
0010
0100
1001
0010
0100
1000
0100
0010
,
0001
0010
0101
1000
0001
0010
0100
0010
,
0100
1000
0101
1000
0100
0010
0001
0010
,
0100
1010
1010
0100
0010
0001
0010
0100
,
1000
0100
1001
0100
0010
0001
0010
0100
,
1000
0101
0101
0010
0100
1000
0010
0100
,
1000
0100
1010
0001
0010
0100
1000
0100
,
0010
1001
1001
0010
0100
1000
0110
0001
,
0010
1100
1100
0010
0001
0010
1001
0100
,
1000
0011
0011
0100
1001
0010
0101
0010
,
1100
0000
0011
0000
1100
0000
0011
0000
1100
0000
0011
0000
1100
0000
1001
0110
,
1001
0101
1010
0000
1100
1100
0011
0011
,
1100
1100
0101
0010
0101
0010
0101
0010
,
0101
0110
1100
0001
1100
0001
1100
0001
,
1100
0110
1001
0100
1001
0100
1001
0100
,
1001
0110
0011
0000
0011
0011
1100
1100
,
1010
1010
0101
0010
0101
0010
0101
0010
,
0101
1010
1001
0100
1001
0100
1001
0100
,
1001
0110
1100
0001
1100
0001
1100
0001
,
1100
1010
0101
0000
0110
0110
1001
1001
,
0110
0110
1010
0010
0011
0001
0101
0100
,
1100
0011
1100
0100
0101
0001
0011
0010
,
1010
0101
1010
0010
0110
0100
1100
1000
,
1010
0101
1010
0000
1100
1100
0011
0011
,
0110
0110
1001
0100
1010
0100
0011
0100
,
1010
0101
0011
0100
1010
0001
0110
1000
,
0011
0110
1001
0100
0011
0100
1010
0100
,
1001
0110
1100
0000
1100
1100
0011
0011
,
1100
1100
1001
0000
1001
0000
1001
0000
,
1001
0110
1100
0000
1100
0000
1100
0000
,
1100
0011
0101
0000
0101
0000
0101
0000
,
0101
1010
1100
0000
0011
0011
1100
1100
,
0011
0011
1100
0000
1100
0000
1100
0000
,
1100
0011
0110
0000
0110
0000
0110
0000
,
0110
0101
1010
0000
1010
0000
1010
0000
,
1010
0101
1001
0000
1100
1100
0011
0011
,
0110
0110
2002
0000
0000
0000
0000
0000
,
3003
0000
0000
0000
;

//---------------dance-single - Challenge----------------
#NOTES:
     dance-single:
     Challenge:
     Challenge:
     12:
     1.000,1.000,1.000,0.471,0.619,1129.000,476.000,102.000,0.000,58.000:
2000
3202
0000
0320
,
0230
2323
0000
0000
,
0032
3223
0000
2300
,
3200
2332
0000
0000
,
3200
2323
0000
0230
,
0320
3232
0000
0000
,
2300
3223
0000
0302
,
2003
3232
0000
0000
,
0023
2332
0000
0203
,
0320
3232
0000
0000
,
2300
3223
0000
0302
,
0203
2332
0000
0000
,
0203
3322
0230
2300
,
3020
2233
0000
0000
,
3002
2323
0230
0302
,
0203
3322
0000
0000
,
0000
0000
0033
0000
0000
0000
0011
0011
,
0011
0000
1011
0100
0010
1001
0110
1001
,
0101
0010
1100
0001
0010
0001
1010
0101
,
0110
1001
0010
1001
0010
0100
1010
0101
,
0110
0101
1000
0110
0001
0010
1001
1001
,
1001
0010
1101
0010
0001
1010
1100
0011
,
0110
1000
0101
1000
0100
0010
1100
0110
,
0011
1010
0001
0110
0001
1000
0101
1100
,
0011
0110
1000
0110
0001
0010
1100
1100
,
1100
0000
0001
0000
1110
0000
1000
0100
0001
0000
0011
0100
1001
0000
0110
0001
,
1010
0100
1000
0100
0011
0000
0100
0010
1000
0000
0010
0100
1001
0000
0101
0010
,
1001
0010
1100
0010
0001
0000
1010
0100
1000
0000
1000
0100
0011
0000
1010
0100
,
1001
0100
0011
0100
1000
0000
0110
0001
0010
0000
1000
0100
0011
0000
0011
0100
,
0011
0100
1000
0100
1011
0000
0100
0010
1000
0000
1001
0010
1100
0000
0011
0100
,
1001
0100
0010
0100
1001
0000
0010
1000
0010
0000
0100
1000
0110
0000
0011
0100
,
1010
0100
1001
0100
1000
0000
0101
0010
0001
0000
0100
0010
1001
0000
1010
0100
,
0011
0100
1010
0100
1000
0000
0110
0001
0100
0000
0010
0100
1000
0000
0010
0100
,
2002
0000
3003
0000
1100
1100
0110
0110
,
0011
0011
1010
0100
1010
0100
1010
0100
,
1010
0110
0011
0100
0011
0100
0011
0100
,
0011
0110
1001
0100
1001
0100
1001
0100
,
1001
0110
0101
0010
1100
1100
0011
0011
,
1100
0000
1110
0000
1110
0001
0010
0100
0010
0001
0010
0100
1000
0001
0010
0100
,
0010
0001
0010
0100
1001
0100
0010
0100
1000
0100
0010
0001
0010
0100
0010
0001
,
1000
0100
0011
0100
0011
0100
1000
0100
0010
0001
0010
0001
1010
0001
0010
0100
,
0010
0000
0001
0000
1010
0000
0100
0000
1010
0001
0010
0001
0010
0001
0010
0001
0010
0100
1000
0100
1000
0100
1000
0100
1000
0100
0010
0100
0010
0100
0010
0100
,
0010
0001
0010
0001
0010
0001
0010
0001
1010
0000
0000
0000
1000
0000
0000
0000
1010
0000
0000
0000
0010
0000
0000
0000
0011
0000
0000
0000
0001
0000
0000
0000
,
1001
0110
1001
1000
1010
0010
0011
0001
,
0101
1010
0101
0100
1100
1000
1100
0100
,
0101
1010
0101
0001
0011
0011
1100
1100
,
0101
0101
1010
1000
1100
0100
0110
0010
,
0011
1100
0011
0010
1010
1000
1001
0001
,
0101
1010
0101
0100
1100
1000
1001
0001
,
1001
0110
1001
0001
1001
1001
0110
0110
,
1010
1010
1001
0100
1010
0100
1001
0010
,
0101
1010
0101
1000
1001
0110
0101
1000
,
0110
0101
1010
0001
1100
0010
0101
1000
,
0110
1010
0110
1000
0101
0101
0110
0110
,
0011
0000
0011
0000
1100
0010
0001
0010
0100
0010
0100
1000
0100
0010
0100
1000
,
0100
0010
0001
1000
0100
0010
0001
0010
0100
1000
0100
0010
0001
0010
0100
1000
,
0100
0010
0001
0010
0001
0010
0100
0010
0001
0010
0100
1000
0001
0010
0001
0010
,
0100
0000
1000
0000
0100
0000
0010
0000
0100
1000
0100
1000
0100
1000
0100
1000
0100
0010
0100
0010
0100
0010
0100
0010
0001
0010
0001
0010
0001
0010
0001
0010
,
0100
1000
0100
1000
0100
1000
0100
1000
0101
0000
0000
0000
0010
0000
0000
0000
0101
0000
0000
0000
0010
0000
0000
0000
0101
0000
0000
0000
0010
0000
0000
0000
,
0101
0110
1001
0100
1001
0100
1001
0100
,
1001
1100
0011
0100
0011
0100
0011
0100
,
0011
0110
1010
0100
1010
1010
0101
0101
,
1001
1001
1010
0100
1010
0100
1010
0100
,
1010
0101
1100
0010
1100
0010
1100
0010
,
1100
0110
1001
0100
1001
0100
1001
0100
,
1001
1100
0011
1000
0101
0101
1010
1010
,
1001
0000
1001
0000
0101
0000
1000
0100
0010
0000
1001
0100
1010
0000
0101
0010
,
1100
0010
0001
0010
1100
0000
0001
0010
0100
0000
0010
0100
1010
0000
0101
0000
,
0110
1000
0101
0010
0001
0000
1010
0100
0010
0000
1001
0010
1100
0000
0001
0010
,
0101
1000
0010
0100
1001
0000
0100
0010
0001
0000
1000
0100
0011
0000
1010
0100
,
0011
0100
1000
0010
0101
0000
1000
0010
0100
0000
1010
0100
0011
0000
1001
0100
,
0011
0100
1000
0001
0110
0000
0001
0010
0100
0000
1010
0100
1001
0000
0110
1000
,
0101
0010
1001
0100
0010
0000
1001
0010
0100
0000
1010
0001
1100
0000
0010
0100
,
1001
0100
0010
1000
0101
0000
0001
0010
0100
0000
1000
0100
0020
0000
2030
0100
,
3002
0010
0203
0000
1001
0000
0320
0000
2030
0000
3200
0000
0320
0000
0000
0000
,
0230
2300
0110
0000
0000
0000
3002
0023
,
0032
2003
0011
3002
0203
2300
3002
0000
,
0203
2300
0101
0000
0000
0000
3020
0230
,
0320
2030
0110
3002
0000
0023
2030
0000
,
3200
2300
0101
0000
0000
3020
0032
2003
,
3020
0032
1100
0023
0000
2030
3002
0000
,
0203
0000
2302
0000
0000
0000
0000
3003
,
0000
0000
0000
0000
0000
0000
1100
1100
,
1100
0000
1101
0010
0100
1001
0110
0101
,
1010
0100
0011
1000
0100
0010
1001
0110
,
0101
0110
0001
1010
0100
0010
0101
1010
,
0101
0110
1000
0110
0001
0100
0011
0011
,
0011
1000
0111
0001
0010
0110
1001
0110
,
1010
0100
1001
0010
0100
1000
0101
1010
,
0101
1010
0001
1100
0001
0010
1100
0011
,
0110
1001
0100
1010
0100
1000
0011
0011
,
0011
0000
1010
0000
1011
0100
1000
0100
0010
0001
0010
0001
0010
0100
1000
0100
,
0010
0100
0010
0001
1000
0100
0010
0100
1000
0100
0010
0001
0010
0001
0010
0100
,
1000
0100
0011
0100
0011
0100
1000
0001
0010
0100
1000
0100
0010
0100
1000
0100
,
1000
0100
0010
0001
1010
0100
0010
0001
0010
0100
1000
0001
0010
0001
0010
0100
,
1000
0100
1001
0010
1001
0100
0010
0001
0010
0100
1000
0100
0011
0100
1000
0001
,
0010
0100
1001
0010
1100
0010
0001
0010
0100
1000
0100
0010
0101
1000
0100
0010
,
0100
0000
1000
0000
0101
0000
0010
0000
1001
0100
0010
0001
1000
0100
0010
0001
1000
0100
0010
0001
1000
0100
0010
0001
1000
0100
0010
0001
1000
0100
0010
0001
,
1000
0100
0010
0001
1000
0100
0010
0001
1000
0100
1000
0100
1000
0100
1000
0100
0010
0100
0010
0100
0010
0100
0010
0100
0010
0001
0010
0001
0010
0001
0010
0001
,
0010
0100
1000
0100
0010
0001
0010
0100
1000
0000
0000
0000
0000
0000
0000
0000
1100
0000
0000
0000
1100
0000
0000
0000
0011
0000
0000
0000
0011
0000
0000
0000
,
1100
1100
0101
0010
0101
0010
0101
0010
,
0101
0110
1100
0010
1100
0010
1100
0010
,
1100
0110
1001
0100
1001
0100
1001
0100
,
1001
0110
0011
0100
0011
0011
1100
1100
,
1010
1010
0101
0010
0101
0010
0101
0010
,
0101
1010
1001
0100
1001
0100
1001
0100
,
1001
0110
1100
0001
1100
0001
1100
0001
,
1100
1010
0101
1000
0110
0110
1001
1001
,
0110
0110
1001
0100
1010
0001
0110
0010
,
1100
0011
1001
0100
0101
0001
1010
0010
,
1100
0101
1010
1000
0110
1001
0101
1000
,
1010
0101
1010
0001
1100
1100
0011
0011
,
0110
0110
1001
0100
1010
0100
0011
1000
,
1010
0101
0011
1000
1010
0001
0110
1000
,
0011
0110
1001
0100
0011
0100
1010
0100
,
1001
0110
1100
0010
1100
1100
0011
0011
,
1100
1100
1001
0010
1001
0010
1001
0010
,
1001
0110
1100
0001
1100
0001
1100
0001
,
1100
0011
0101
1000
0101
1000
0101
1000
,
0101
1010
1100
0010
0011
0011
1100
1100
,
0011
0011
1100
0000
1100
0000
1100
0000
,
1100
0011
0110
0000
0110
0000
0110
0000
,
0110
0101
1010
0000
1010
0000
1010
0000
,
1010
0101
1001
0000
1100
1100
0011
0011
,
0110
0110
2002
0000
0000
0000
0000
0000
,
3003
0000
0000
0000
;

//---------------dance-single - Beginner ?----------------
#NOTES:
     dance-single:
     Beginner ?:
     Beginner:
     14:
     1.000,1.000,1.000,0.503,0.619,1129.000,596.000,109.000,0.000,172.000:
2000
3202
0000
0320
,
0230
2323
0000
0000
,
0032
3223
0000
2300
,
3200
2332
0000
0000
,
3200
2323
0000
0230
,
0320
3232
0000
0000
,
2300
3223
0000
0302
,
2003
3232
0000
0000
,
0023
2332
0000
0203
,
0320
3232
0000
0000
,
2300
3223
0000
0302
,
0203
2332
0000
0000
,
0203
3322
0230
2300
,
3020
2233
0000
0000
,
3002
2323
0230
0302
,
0203
3322
0000
0000
,
0000
0000
0033
0000
0000
0000
0011
0011
,
0011
0000
1011
0101
0110
1001
0110
1001
,
0101
1010
1101
0101
1010
1001
1010
0101
,
0110
1001
0111
1001
0110
0101
1010
0101
,
0110
0101
1011
0110
1001
0110
1001
1001
,
1001
0110
1101
1010
0101
1010
1100
0011
,
0110
1001
0111
1010
1100
0011
1100
0110
,
0011
1010
1101
0110
1001
1010
0101
1100
,
0011
1100
1011
0110
1001
0110
1100
1100
,
1100
0000
0011
0000
1110
0000
1010
0100
1001
0000
0011
0100
1001
0000
0110
0001
,
1010
0100
1001
0100
1011
0000
0101
0010
1100
0000
1010
0100
1001
0000
0101
0010
,
1001
0010
1100
0010
1101
0000
1010
0100
1001
0000
1010
0100
0011
0000
1010
0100
,
1001
0100
0011
0100
1011
0000
0110
0001
1010
0000
1001
0100
0011
0000
0011
0100
,
0011
0100
1001
0100
1011
0000
0101
0010
1100
0000
1001
0010
1100
0000
0011
0100
,
1001
0100
1010
0100
1011
0000
0110
1000
0011
0000
0101
1000
0110
0000
1001
0100
,
1010
0100
0011
0100
1011
0000
0101
0010
1001
0000
0101
0010
1001
0000
1010
0100
,
0011
0100
1010
0100
1011
0000
0110
0001
1100
0000
0011
0100
1010
0000
0011
0100
,
2002
0000
3003
0000
1100
1100
0110
0110
,
0011
0011
1010
0100
1010
0100
1010
0100
,
1010
0110
0011
0100
0011
0100
0011
0100
,
0011
0110
1001
0100
1001
0100
1001
0100
,
1001
0110
0101
0010
1100
1100
0011
0011
,
1100
0000
1110
0000
1110
0001
0010
0100
0010
0001
0010
0100
1000
0001
0010
0100
,
0010
0001
0010
0100
1011
0100
0010
0100
1000
0100
0010
0001
0010
0100
0010
0001
,
1000
0100
1011
0100
1011
0100
1000
0100
0010
0001
0010
0001
1110
0001
0010
0100
,
0010
0000
0001
0000
1110
0000
0001
0000
1110
0001
0010
0001
0010
0001
0010
0001
1010
0100
1000
0100
1000
0100
1000
0100
1010
0100
0010
0100
0010
0100
0010
0100
,
0011
0001
0010
0001
0010
0001
0010
0001
1010
0000
0000
0000
1000
0000
0000
0000
1010
0000
0000
0000
0010
0000
0000
0000
0011
0000
0000
0000
0001
0000
0000
0000
,
1001
0110
1001
1000
1010
0010
0011
0001
,
0101
1010
0101
0100
1100
1000
1100
0100
,
0101
1010
0101
0001
0011
0011
1100
1100
,
0101
0101
1010
1000
1101
0100
0110
0010
,
1011
1100
0011
0010
1110
1000
1001
0001
,
1101
1010
0101
0100
1101
1000
1001
0001
,
1101
0110
1001
0001
1001
1001
0110
0110
,
1010
1010
1001
0100
1010
0100
1001
0010
,
0101
1010
0101
1000
1001
0110
0101
1000
,
0110
0101
1010
0001
1100
0010
0101
1000
,
0110
1010
0110
1000
0101
0101
0110
0110
,
0011
0000
0011
0000
1100
0010
0001
0010
1100
0010
0100
1000
0101
0010
0100
1000
,
0101
0010
0101
1000
0101
0010
0001
0010
1100
0010
0100
0010
1001
0010
0100
1000
,
0101
0010
0101
0010
1001
0010
0100
0010
1001
0010
0100
1000
0101
0010
0001
0010
,
0101
0000
1000
0000
0101
0000
0010
0000
0101
1000
0100
1000
0100
1000
0100
1000
0101
0010
0100
0010
0101
0010
0100
0010
1001
0010
0001
0010
0101
0010
0001
0010
,
0101
1000
0100
1000
0110
1000
0100
1000
0101
0000
0000
0000
0010
0000
0000
0000
0101
0000
0000
0000
0010
0000
0000
0000
0101
0000
0000
0000
0010
0000
0000
0000
,
0101
0110
1001
0100
1001
0100
1001
0100
,
1001
1100
0011
0100
0011
0100
0011
0100
,
0011
0110
1010
0100
1010
1010
0101
0101
,
1001
1001
1010
0100
1010
0100
1010
0100
,
1010
0101
1100
0010
1100
0010
1100
0010
,
1100
0110
1001
0100
1001
0100
1001
0100
,
1001
1100
0011
1000
0101
0101
1010
1010
,
1001
0000
1001
0000
0111
0000
1000
0100
0010
0000
1001
0100
1010
0000
0101
0010
,
1100
0010
0001
0010
1101
0000
0001
0010
0100
0000
0010
0100
1010
0000
0101
0000
,
0110
1000
0101
0010
1101
0000
1010
0100
0010
0000
1001
0010
1100
0000
0001
0010
,
0101
1000
0010
0100
1011
0000
0100
0010
0001
0000
1000
0100
0011
0000
1010
0100
,
0011
0100
1000
0010
1101
0000
1000
0010
0100
0000
1010
0100
0011
0000
1001
0100
,
0011
0100
1000
0001
1110
0000
0001
0010
0100
0000
1010
0100
1001
0000
0110
1000
,
0101
0010
1001
0100
1011
0000
1001
0010
0100
0000
1010
0001
1100
0000
0010
0100
,
1001
0100
0010
1000
0111
0000
0001
0010
0100
0000
1000
0100
0020
0000
2030
0100
,
3002
0010
0203
0000
1002
0000
0320
0000
2030
0000
3200
0000
0320
0000
0000
0000
,
0230
2300
0213
0000
0000
0000
3002
0023
,
0032
2003
0321
3002
0203
2300
3002
0000
,
0203
2300
0132
0000
0000
0000
3020
0230
,
0320
2030
0213
3002
0000
0023
2030
0000
,
3020
2030
0321
0000
0000
3200
0302
2003
,
3200
0302
1230
0023
0000
2030
3002
0000
,
0023
0000
2332
0000
0000
0000
0000
3003
,
0000
0000
0000
0000
0000
0000
1100
1100
,
1100
0000
1101
0110
0101
1001
0110
0101
,
1010
0101
1011
1100
0101
1010
1001
0110
,
0101
0110
1101
1010
0101
1010
0101
1010
,
0101
0110
1101
0110
1001
0110
0011
0011
,
0011
1100
0111
1001
1010
0110
1001
0110
,
1010
0101
1011
0110
0101
1010
0101
1100
,
0011
1010
1101
1010
1001
0110
1100
0011
,
0110
1001
0111
1010
0101
1000
0011
0011
,
0011
0000
1010
0000
1011
0100
1000
0100
0010
0001
0010
0001
0010
0100
1000
0100
,
0010
0100
0010
0001
1110
0001
0010
0100
1000
0100
0010
0001
0010
0001
0010
0100
,
1000
0100
1011
0100
1011
0100
1000
0001
0010
0100
1000
0100
0010
0100
1000
0100
,
1000
0100
0010
0001
1110
0001
0010
0100
0010
0100
1000
0001
0010
0001
0010
0100
,
1000
0100
1011
0100
1011
0100
0010
0001
0010
0100
1000
0100
1011
0100
1000
0001
,
0010
0100
1011
0100
1011
0100
0010
0100
1000
0100
0010
0001
1110
0001
0010
0100
,
1000
0000
0100
0000
1011
0000
0100
0000
1011
0100
0010
0100
1010
0100
0010
0100
0011
0100
0010
0100
1010
0100
0010
0100
0011
0100
0010
0100
1010
0100
0010
0100
,
0011
0100
0010
0100
1010
0100
0010
0100
1001
0100
1000
0100
1001
0100
1000
0100
0011
0100
0010
0100
1010
0100
0010
0100
1010
0001
0010
0001
1010
0001
0010
0001
,
1010
0100
1000
0100
1010
0001
0010
0100
1001
0000
0000
0000
0000
0000
0000
0000
1100
0000
0000
0000
1100
0000
0000
0000
0011
0000
0000
0000
0011
0000
0000
0000
,
1100
1100
0101
0010
1101
0010
0101
0010
,
1101
0110
1100
0010
1101
0010
1100
0010
,
1101
0110
1001
0100
1011
0100
1001
0100
,
1011
0110
0011
0100
1011
0011
1100
1100
,
1011
1010
0101
0010
1101
0010
0101
0010
,
1101
1010
0101
0100
1011
0100
1001
0100
,
1011
0110
1100
0001
1110
0001
1100
0001
,
1110
1010
0101
1000
0110
0110
1001
1001
,
0110
0110
1001
0100
1110
0001
0110
0010
,
1101
0011
1001
0100
1101
0001
1010
0010
,
1101
0101
1010
1000
0111
1001
0101
1000
,
1110
0101
1010
0001
1110
1100
0011
0011
,
1110
0110
1001
0100
1011
0100
0011
1000
,
1110
0101
0011
1000
1110
0001
0110
1000
,
1011
0110
1001
0100
1011
0100
1010
0100
,
1011
0110
1100
0010
1101
1100
0011
0011
,
1101
1100
1001
0010
1001
0010
1001
0010
,
1001
0110
1100
0001
1100
0001
1100
0001
,
1100
0011
0101
1000
0101
1000
0101
1000
,
0101
1010
1100
0010
0011
0011
1100
1100
,
0011
0011
1100
0000
1100
0000
1100
0000
,
1100
0011
0110
0000
0110
0000
0110
0000
,
0110
0101
1010
0000
1010
0000
1010
0000
,
1010
0101
1001
0000
1100
1100
0011
0011
,
0110
0110
2002
0000
0000
0000
0000
0000
,
3003
0000
0000
0000
;

//---------------dance-single - Crazy----------------
#NOTES:
     dance-single:
     Crazy:
     Edit:
     15:
     1.000,1.000,1.000,0.332,0.619,1129.000,672.000,72.000,0.000,338.000:

2000
3202
0000
0320
,
0230
2323
0000
0000
,
0032
3223
0000
2300
,
3200
2332
0000
0000
,
3200
2323
0000
0230
,
0320
3232
0000
0000
,
2300
3223
0000
0302
,
2003
3232
0000
0000
,
0023
2332
0000
0203
,
0320
3232
0000
0000
,
2300
3223
0000
0302
,
0203
2332
0000
0000
,
0203
3322
0230
2300
,
3020
2233
0000
0000
,
3002
2323
0230
0302
,
0203
3322
0000
0000
,
0000
0000
0033
0000
0000
0000
0011
0011
,
0011
0000
1011
0101
0110
1001
0110
1001
,
0101
1010
1101
0101
1010
1001
1010
0101
,
0110
1001
0111
1001
0110
0101
1010
0101
,
0110
0101
1011
0110
1001
0110
1001
1001
,
1001
0110
1101
1010
0101
1010
1100
0011
,
0110
1001
0111
1010
1100
0011
1100
0110
,
0011
1010
1101
0110
1001
1010
0101
1100
,
0011
1100
1011
0110
1001
0110
1100
1100
,
1100
0000
0011
0000
1110
0000
1010
1000
1001
0000
0011
0001
1001
0000
0110
0010
,
1010
0010
1010
0010
1011
0000
0101
0100
1100
0000
1010
1000
1001
0000
0101
0001
,
1001
0001
1001
0001
1101
0000
1010
1000
1001
0000
1010
0010
0011
0000
1010
1000
,
1001
1000
1010
1000
1101
0000
0110
0010
1010
0000
1001
0001
0011
0000
0011
0010
,
0110
0010
1010
0010
1011
0000
0101
0100
1100
0000
1001
1000
1100
0000
0101
0001
,
0011
0001
0101
0001
1011
0000
0110
0010
0011
0000
0101
0100
0110
0000
1001
1000
,
1010
1000
1100
1000
1011
0000
0101
0001
1001
0000
0101
0100
0101
0000
1010
0010
,
0011
0010
0110
0010
1011
0000
0110
0100
1100
0000
0011
0010
1010
0000
0011
0001
,
2002
0000
3003
0000
1100
1100
0110
0110
,
0011
0011
1011
0100
1011
0100
1011
0100
,
1011
0111
1011
0100
1011
0100
1011
0100
,
1011
1110
1011
0100
1011
0100
1011
0100
,
1011
1110
0111
0010
1101
1101
1011
1011
,
1101
0000
1111
0000
1111
0001
0010
0100
1010
0001
0010
0100
1010
0001
0010
0100
,
1010
0001
1010
0100
1011
0100
0010
0100
1001
0100
0010
0100
1001
0100
0010
0100
,
1001
0100
1011
0100
1011
0100
1000
0100
1010
0001
0010
0001
1110
0001
0010
0100
,
1010
0000
0001
0000
1110
0000
0001
0000
1110
0001
0010
0001
0010
0001
0010
0001
1010
0100
1000
0100
1010
0100
1000
0100
0011
0100
0010
0100
0011
0100
0010
0100
,
1010
0001
0010
0001
1010
0001
0010
0001
1110
0000
0000
0000
1000
0000
0000
0000
1110
0000
0000
0000
0010
0000
0000
0000
0111
0000
0000
0000
0001
0000
0000
0000
,
1101
0111
1101
1000
1011
0010
1011
0001
,
0111
1110
1101
0100
1110
1000
1101
0100
,
0111
1110
1101
0001
0111
0111
1101
1101
,
1110
1110
0111
1000
1101
0100
1110
0010
,
1011
1110
1011
0010
1110
1000
1101
0001
,
1101
1011
1101
0100
1101
1000
1011
0001
,
1101
1110
1011
0001
1011
1011
0111
0111
,
1110
1110
1011
0100
1011
0100
1011
0010
,
1101
1110
0111
1000
1101
0010
0111
1000
,
1110
0111
1110
0001
1110
0010
1101
1000
,
0111
1011
0111
1000
0111
0111
1110
1110
,
1011
0000
1011
0000
1101
0010
0001
0010
1101
0010
0100
1000
0111
1000
0100
0010
,
1101
0010
1101
0010
1101
0010
0100
1000
0111
1000
0100
0010
1101
0010
0100
1000
,
0111
1000
0111
1000
0111
1000
0100
0010
1101
0010
0100
1000
0111
1000
0100
0010
,
1110
0000
0001
0000
1110
0000
0001
0000
1110
1000
0100
1000
0100
1000
0100
1000
0101
0010
0100
0010
0101
0010
0100
0010
1001
0010
0001
0010
0101
0010
0001
0010
,
0101
1000
0100
1000
0110
1000
0100
1000
0101
0000
0000
0000
0010
0000
0000
0000
0101
0000
0000
0000
0010
0000
0000
0000
0101
0000
0000
0000
0010
0000
0000
0000
,
0101
0110
1001
0100
1001
0100
1001
0100
,
1001
1100
0011
0100
0011
0100
0011
0100
,
0011
0110
1010
0100
1010
1010
0101
0101
,
1001
1001
1010
0100
1010
0100
1010
0100
,
1010
0101
1100
0010
1100
0010
1100
0010
,
1100
0110
1001
0100
1001
0100
1001
0100
,
1001
1100
0011
1000
0101
0101
1010
1010
,
1001
0000
1001
0000
0111
0000
1000
1000
1000
0000
1010
0010
0011
0000
0101
0100
,
1100
0100
0100
0100
1101
0000
0001
0001
0001
0000
0010
0010
1010
0000
0101
0000
,
0110
0100
0101
0100
1101
0000
1010
0010
0010
0000
1001
1000
1100
0000
0001
0001
,
0101
0001
0001
0001
1011
0000
0100
0100
0100
0000
1000
1000
1001
0000
1010
0010
,
0011
0010
0010
0010
1110
0000
1000
1000
1000
0000
1010
0010
0011
0000
1001
0001
,
0011
0001
0001
0001
1011
0000
0100
0100
0100
0000
1010
0010
0011
0000
0110
0100
,
0101
0100
0101
0100
1101
0000
1001
1000
1000
0000
1001
0001
1010
0000
0010
0010
,
1010
0010
0010
0010
0111
0000
0100
0100
0100
0000
0010
0010
0011
0000
1100
1000
,
1001
1000
1100
0000
1002
0000
0110
0000
1010
0000
1100
0000
0110
0000
0000
0000
,
0110
1100
0213
0000
0000
0000
1001
0011
,
1001
1010
0321
1001
0101
1100
1001
0000
,
0101
1100
0132
0000
0000
0000
0110
1100
,
0110
1100
0213
1001
0000
0011
1001
0000
,
1010
1001
0321
0000
0000
1100
0101
1001
,
1100
1001
1230
0011
0000
1010
1001
0000
,
0011
0000
2322
0000
0000
0000
0000
3033
,
0000
0000
0000
0000
0000
0000
1100
1100
,
1100
0000
1101
0110
0101
1001
0110
0101
,
1010
0101
1011
1100
0101
1010
1001
0110
,
0101
0110
1101
1010
0101
1010
0101
1010
,
0101
0110
1101
0110
1001
0110
0011
0011
,
0011
1100
0111
1001
1010
0110
1001
0110
,
1010
0101
1011
0110
0101
1010
0101
1100
,
0011
1010
1101
1010
1001
0110
1100
0011
,
0110
1001
0111
1010
0101
1100
0011
0011
,
0011
0000
1010
0000
1011
0100
1000
0100
0010
0001
1010
0001
1010
0100
1001
0100
,
1010
0100
0010
0001
1110
0001
0010
0100
1000
0100
0010
0001
1010
0001
1010
0100
,
1001
0100
1011
0100
1011
0100
1010
0001
0010
0100
1000
0100
0011
0100
1001
0100
,
1010
0100
1010
0001
1110
0001
1010
0100
0010
0100
1000
0001
1010
0001
1010
0100
,
1010
0100
1011
0100
1011
0100
0010
0001
0010
0100
1001
0100
1011
0100
1010
0001
,
1010
0100
1011
0100
1011
0100
0010
0100
1000
0100
0010
0001
1110
0001
1010
0100
,
1001
0000
0100
0000
1011
0000
0100
0000
1011
0100
0010
0100
1011
0100
0010
0100
1011
0100
0010
0100
1011
0100
0010
0100
1011
0100
0010
0100
1011
0100
0010
0100
,
1011
0100
0010
0100
1011
0100
0010
0100
1011
0100
1000
0100
1011
0100
1000
0100
1011
0100
0010
0100
1011
0100
0010
0100
1011
0001
0010
0001
1110
0001
0010
0001
,
1100
0011
1100
0011
1100
0011
1100
0011
1100
0000
0000
0000
0000
0000
0000
0000
1100
0000
0000
0000
1100
0000
0000
0000
0011
0000
0000
0000
0011
0000
0000
0000
,
1100
1100
0111
0010
1101
0010
1101
0010
,
1101
0111
1110
0010
1101
0010
1101
0010
,
1101
0111
1001
0100
1011
0100
1011
0100
,
1011
1110
1011
0100
0111
0111
1110
1110
,
1011
1011
1101
0010
1101
0010
1101
0010
,
1101
1110
1011
0100
1011
0100
1011
0100
,
1011
0111
1110
0001
1101
0100
1011
0001
,
1110
1011
1101
1000
0111
0111
1011
1011
,
1110
1110
1011
0100
1110
0001
1110
0010
,
1101
0111
1011
0100
1101
0001
1110
0010
,
1101
0111
1011
1000
0111
0010
1101
1000
,
1110
1101
1011
0100
1110
1110
0111
0111
,
1110
1110
1011
0100
1011
0100
0111
1000
,
1110
1101
0111
1000
1110
0001
1110
1000
,
1011
0111
1011
0100
1011
0100
1110
0001
,
1011
0111
1110
0010
1110
1110
0111
0111
,
1101
1101
1001
0010
1001
0010
1001
0010
,
1001
0110
1100
0001
1100
0001
1100
0001
,
1100
0011
0101
1000
0101
1000
0101
1000
,
0101
1010
1100
0010
0011
0011
1100
1100
,
0011
0011
1100
0000
1100
0000
1100
0000
,
1100
0011
0110
0000
0110
0000
0110
0000
,
0110
0101
1010
0000
1010
0000
1010
0000
,
1010
0101
1001
0000
1100
1100
0011
0011
,
0110
0110
2002
0000
0000
0000
0000
0000
,
3003
0000
0000
0000
;
