#TITLE:Back 2 You;
#SUBTITLE:;
#ARTIST:Pendulum ft. Lisa Lindt;
#TITLETRANSLIT:;
#SUBTITLETRANSLIT:;
#ARTISTTRANSLIT:;
#CREDIT:;
#BANNER:back2youbn.png;
#BACKGROUND:back2youbg.png;
#LYRICSPATH:;
#CDTITLE:;
#MUSIC:back2you.ogg;
#OFFSET:1.380;
#SAMPLESTART:109.715;
#SAMPLELENGTH:21.940;
#SELECTABLE:YES;
#DISPLAYBPM:175.000;
#BPMS:0.000=175.000;
#STOPS:;
#BGCHANGES:;
// cache tags:
#FIRSTBEAT:4.000;
#LASTBEAT:1103.000;
#SONGFILENAME:Songs/Pendulum/Back 2 You/back2you.sm;
#HASMUSIC:1;
#HASBANNER:1;
#MUSICLENGTH:382.000;
// end cache tags

//---------------dance-single - I. Pyles----------------
#NOTES:
     dance-single:
     I. Pyles:
     Beginner:
     1:
     0.024,0.036,0.000,0.000,0.000,63.000,0.000,0.000,0.000,0.000:
0000
0000
0000
0000
,
0001
0000
0000
0000
,
0000
0000
0000
0000
,
0000
0000
0000
0000
,
0000
0000
0000
0000
,
1000
0000
0000
0000
,
0000
0000
0000
0000
,
0000
0000
0000
0000
,
0000
0000
0000
0000
,
1000
0000
0000
0000
,
0000
0000
0000
0000
,
0000
0000
0000
0000
,
0000
0000
0000
0000
,
0010
0000
0000
0000
,
0000
0000
0000
0000
,
0000
0000
0000
0000
,
0000
0000
0000
0000
,
0100
0000
0000
0000
,
0000
0000
0000
0000
,
0000
0000
0000
0000
,
0000
0000
0000
0000
,
1000
0000
0000
0000
,
0000
0000
0000
0000
,
0000
0000
0000
0000
,
0000
0000
0000
0000
,
1000
0000
0000
0000
,
0000
0000
0000
0000
,
0000
0000
0000
0000
,
0000
0000
0000
0000
,
0001
0000
0000
0000
,
0000
0000
0000
0000
,
0000
0000
0000
0000
,
0000
0000
0000
0000
,
1000
0000
0000
0000
,
0000
0000
0000
0000
,
0000
0000
0000
0000
,
0000
0000
0000
0000
,
0100
0000
0000
0000
,
0000
0000
0000
0000
,
0000
0000
0000
0000
,
0000
0000
0000
0000
,
0010
0000
0000
0000
,
0000
0000
0000
0000
,
0000
0000
0000
0000
,
0000
0000
0000
0000
,
0001
0000
0000
0000
,
0000
0000
0000
0000
,
0000
0000
0000
0000
,
0000
0000
0000
0000
,
1000
0000
0000
0000
,
0000
0000
0000
0000
,
0000
0000
0000
0000
,
0000
0000
0000
0000
,
1000
0000
0000
0000
,
0000
0000
0000
0000
,
0000
0000
0000
0000
,
0000
0000
0000
0000
,
0100
0000
0000
0000
,
0000
0000
0000
0000
,
0000
0000
0000
0000
,
0000
0000
0000
0000
,
0001
0000
0000
0000
,
0000
0000
0000
0000
,
0000
0000
0000
0000
,
0000
0000
0000
0000
,
0010
0000
0000
0000
,
0000
0000
0000
0000
,
0000
0000
0000
0000
,
0000
0000
0000
0000
,
0000
0000
0000
0000
,
0000
0000
0000
0000
,
0000
0000
0000
0000
,
0000
0000
0000
0000
,
0000
0000
0000
0000
,
0000
0000
0000
0000
,
0000
0000
0000
0000
,
0000
0000
0000
0000
,
0000
0000
0000
0000
,
0000
0000
0000
0000
,
0000
0000
0000
0000
,
0000
0000
0000
0000
,
0010
0000
0000
0000
,
0000
0000
0000
0000
,
0000
0000
0000
0000
,
0000
0000
0000
0000
,
1000
0000
0000
0000
,
0000
0000
0000
0000
,
0000
0000
0000
0000
,
0000
0000
0000
0000
,
0010
0000
0000
0000
,
0000
0000
0000
0000
,
0000
0000
0000
0000
,
0000
0000
0000
0000
,
0001
0000
0000
0000
,
0000
0000
0000
0000
,
0000
0000
0000
0000
,
0000
0000
0000
0000
,
0010
0000
0000
0000
,
0000
0000
0000
0000
,
0000
0000
0000
0000
,
0000
0000
0000
0000
,
1000
0000
0000
0000
,
0000
0000
0000
0000
,
0000
0000
0000
0000
,
0000
0000
0000
0000
,
0010
0000
0000
0000
,
0000
0000
0000
0000
,
0000
0000
0000
0000
,
0000
0000
0000
0000
,
0001
0000
0000
0000
,
0000
0000
0000
0000
,
0000
0000
0000
0000
,
0000
0000
0000
0000
,
0010
0000
0000
0000
,
0000
0000
0000
0000
,
0000
0000
0000
0000
,
0000
0000
0000
0000
,
0010
0000
0000
0000
,
0000
0000
0000
0000
,
0000
0000
0000
0000
,
0000
0000
0000
0000
,
1000
0000
0000
0000
,
0000
0000
0000
0000
,
0000
0000
0000
0000
,
0000
0000
0000
0000
,
1000
0000
0000
0000
,
0000
0000
0000
0000
,
0000
0000
0000
0000
,
0000
0000
0000
0000
,
1000
0000
0000
0000
,
0000
0000
0000
0000
,
0000
0000
0000
0000
,
0000
0000
0000
0000
,
0010
0000
0000
0000
,
0000
0000
0000
0000
,
0000
0000
0000
0000
,
0000
0000
0000
0000
,
0100
0000
0000
0000
,
0000
0000
0000
0000
,
0000
0000
0000
0000
,
0000
0000
0000
0000
,
0010
0000
0000
0000
,
0000
0000
0000
0000
,
0000
0000
0000
0000
,
0000
0000
0000
0000
,
1000
0000
0000
0000
,
0000
0000
0000
0000
,
0000
0000
0000
0000
,
0000
0000
0000
0000
,
0001
0000
0000
0000
,
0000
0000
0000
0000
,
0000
0000
0000
0000
,
0000
0000
0000
0000
,
0001
0000
0000
0000
,
0000
0000
0000
0000
,
0000
0000
0000
0000
,
0000
0000
0000
0000
,
0010
0000
0000
0000
,
0000
0000
0000
0000
,
0000
0000
0000
0000
,
0000
0000
0000
0000
,
0001
0000
0000
0000
,
0000
0000
0000
0000
,
0000
0000
0000
0000
,
0000
0000
0000
0000
,
0100
0000
0000
0000
,
0000
0000
0000
0000
,
0000
0000
0000
0000
,
0000
0000
0000
0000
,
0010
0000
0000
0000
,
0000
0000
0000
0000
,
0000
0000
0000
0000
,
0000
0000
0000
0000
,
0100
0000
0000
0000
,
0000
0000
0000
0000
,
0000
0000
0000
0000
,
0000
0000
0000
0000
,
0100
0000
0000
0000
,
0000
0000
0000
0000
,
0000
0000
0000
0000
,
0000
0000
0000
0000
,
0000
0000
0000
0000
,
0000
0000
0000
0000
,
0000
0000
0000
0000
,
0000
0000
0000
0000
,
0000
0000
0000
0000
,
0000
0000
0000
0000
,
0000
0000
0000
0000
,
0000
0000
0000
0000
,
0000
0000
0000
0000
,
0000
0000
0000
0000
,
0000
0000
0000
0000
,
0000
0000
0000
0000
,
0100
0000
0000
0000
,
0000
0000
0000
0000
,
0000
0000
0000
0000
,
0000
0000
0000
0000
,
0100
0000
0000
0000
,
0000
0000
0000
0000
,
0000
0000
0000
0000
,
0000
0000
0000
0000
,
0010
0000
0000
0000
,
0000
0000
0000
0000
,
0000
0000
0000
0000
,
0000
0000
0000
0000
,
0100
0000
0000
0000
,
0000
0000
0000
0000
,
0000
0000
0000
0000
,
0000
0000
0000
0000
,
0100
0000
0000
0000
,
0000
0000
0000
0000
,
0000
0000
0000
0000
,
0000
0000
0000
0000
,
0001
0000
0000
0000
,
0000
0000
0000
0000
,
0000
0000
0000
0000
,
0000
0000
0000
0000
,
1000
0000
0000
0000
,
0000
0000
0000
0000
,
0000
0000
0000
0000
,
0000
0000
0000
0000
,
0010
0000
0000
0000
,
0000
0000
0000
0000
,
0000
0000
0000
0000
,
0000
0000
0000
0000
,
0100
0000
0000
0000
,
0000
0000
0000
0000
,
0000
0000
0000
0000
,
0000
0000
0000
0000
,
1000
0000
0000
0000
,
0000
0000
0000
0000
,
0000
0000
0000
0000
,
0000
0000
0000
0000
,
1000
0000
0000
0000
,
0000
0000
0000
0000
,
0000
0000
0000
0000
,
0000
0000
0000
0000
,
0001
0000
0000
0000
,
0000
0000
0000
0000
,
0000
0000
0000
0000
,
0000
0000
0000
0000
,
0100
0000
0000
0000
,
0000
0000
0000
0000
,
0000
0000
0000
0000
,
0000
0000
0000
0000
,
1000
0000
0000
0000
,
0000
0000
0000
0000
,
0000
0000
0000
0000
,
0000
0000
0000
0000
,
0100
0000
0000
0000
,
0000
0000
0000
0000
,
0000
0000
0000
0000
,
0000
0000
0000
0000
,
0010
0000
0000
0000
,
0000
0000
0000
0000
,
0000
0000
0000
0000
,
0000
0000
0000
0000
,
1000
0000
0000
0000
,
0000
0000
0000
0000
,
0000
0000
0000
0000
,
0000
0000
0000
0000
,
0001
0000
0000
0000
,
0000
0000
0000
0000
,
0000
0000
0000
0000
,
0000
0000
0000
0000
,
0100
0000
0000
0000
,
0000
0000
0000
0000
,
0000
0000
0000
0000
,
0000
0000
0000
0000
,
0100
0000
0000
0000
,
0000
0000
0000
0000
,
0000
0000
0000
0000
,
0000
0000
0000
0000
,
0001
0000
0000
0000
;

//---------------dance-single - I. Pyles----------------
#NOTES:
     dance-single:
     I. Pyles:
     Easy:
     13:
     1.000,1.000,0.204,0.003,1.000,2781.000,78.000,1.000,298.000,0.000:
0000
0000
0000
0000
,
1000
0000
0100
0000
0010
0000
0100
0010
0100
0010
0100
0000
0010
0000
0100
0010
,
0001
0000
0100
0000
0010
0000
0100
0010
0100
0010
0100
0000
0010
0000
0000
0000
,
1000
0000
0010
0000
0100
0000
0001
0100
0001
0100
0001
0000
0100
0000
0010
0100
,
0001
0000
0010
0000
0100
0000
1000
0100
1000
0100
1000
0000
0100
0000
0000
0000
,
0010
0000
0001
0000
1000
0000
0010
1000
0010
1000
0010
0000
1000
0000
0001
1000
,
0010
0000
1000
0000
0001
0000
0010
0001
0010
0001
0010
0000
0001
0000
0000
0000
,
0100
0000
0010
0000
1000
0000
0001
1000
0001
1000
0001
0000
1000
0000
0001
1000
,
0100
0000
0010
0000
0001
0000
1000
0001
1000
0001
1000
0000
0001
0000
0000
0000
,
1000
0000
0010
0000
0100
0000
0010
0100
0010
0100
0010
0000
0100
0000
0010
0100
,
0001
0000
0010
0000
0100
0000
0010
0100
0010
0100
0010
0000
0100
0000
0000
0000
,
1000
0000
0100
0000
0010
0000
0001
0010
0001
0010
0001
0000
0010
0000
0100
0010
,
0001
0000
0100
0000
0010
0000
1000
0010
1000
0010
1000
0000
0010
0000
0000
0000
,
0100
0000
0001
0000
1000
0000
0100
1000
0100
1000
0100
0000
1000
0000
0001
1000
,
0100
0000
1000
0000
0001
0000
0100
0001
0100
0001
0100
0000
0001
0000
0000
0000
,
0010
0000
0100
0000
1000
0000
0001
1000
0001
1000
0001
0000
1000
0000
0001
1000
,
0010
0000
0100
0000
0001
0000
1000
0001
1000
0001
1000
0000
0001
0000
0010
0000
,
0001
0000
0010
0000
0100
0000
0010
0100
0010
0100
0010
0000
0100
0000
0010
0100
,
1000
0000
0010
0000
0100
0000
0010
0100
0010
0100
0010
0000
0100
0000
0000
0000
,
0001
0000
0100
0000
0010
0000
1000
0010
1000
0010
1000
0000
0010
0000
0100
0010
,
1000
0000
0100
0000
0010
0000
0001
0010
0001
0010
0001
0000
0010
0000
0000
0000
,
0100
0000
1000
0000
0001
0000
0100
0001
0100
0001
0100
0000
0001
0000
1000
0001
,
0100
0000
0001
0000
1000
0000
0100
1000
0100
1000
0100
0000
1000
0000
0000
0000
,
0010
0000
0100
0000
0001
0000
1000
0001
1000
0001
1000
0000
0001
0000
1000
0001
,
0010
0000
0100
0000
1000
0000
0001
1000
0001
1000
0001
0000
1000
0000
0000
0000
,
0001
0000
0100
0000
0010
0000
0100
0010
0100
0010
0100
0000
0010
0000
0100
0010
,
1000
0000
0100
0000
0010
0000
0100
0010
0100
0010
0100
0000
0010
0000
0000
0000
,
0001
0000
0010
0000
0100
0000
1000
0100
1000
0100
1000
0000
0100
0000
0010
0100
,
1000
0000
0010
0000
0100
0000
0001
0100
0001
0100
0001
0000
0100
0000
0000
0000
,
0010
0000
1000
0000
0001
0000
0010
0001
0010
0001
0010
0000
0001
0000
1000
0001
,
0010
0000
0001
0000
1000
0000
0010
1000
0010
1000
0010
0000
1000
0000
0000
0000
,
0100
0000
0010
0000
0001
0000
1000
0001
1000
0001
1000
0000
0001
0000
1000
0001
,
0100
0000
0010
0000
1000
0000
0001
1000
0001
1000
0001
0000
1000
0000
0010
0000
,
1000
0000
0100
0000
1100
0000
0100
0010
0100
0010
0100
0000
1100
0000
0100
0010
,
0001
0000
0100
0000
0101
0000
0100
0010
0100
0010
0100
0000
0101
0000
0000
0000
,
1000
0000
0010
0000
0101
0000
0001
0100
0001
0100
0001
0000
0101
0000
0001
0010
,
0100
0000
1000
0000
1100
0000
1000
0100
1000
0100
1000
0000
1100
0000
0000
0000
,
1000
0000
0001
0000
1010
0000
0010
1000
0010
1000
0010
0000
1000
0000
0001
1000
,
0010
0000
1000
0000
0011
0000
0010
0001
0010
0001
0010
0000
0011
0000
0000
0000
,
1000
0000
0010
0000
1001
0000
0001
1000
0001
1000
0001
0000
1001
0000
0001
1000
,
0100
0000
0010
0000
1001
0000
1000
0001
1000
0001
1000
0000
1001
0000
0000
0000
,
1000
0000
0010
0000
1010
0000
0010
0100
0010
0100
0010
0000
1010
0000
0010
0100
,
0001
0000
0010
0000
0011
0000
0010
0100
0010
0100
0010
0000
0011
0000
0000
0000
,
1000
0000
0100
0000
0011
0000
0001
0010
0001
0010
0001
0000
0011
0000
0001
0100
,
0010
0000
1000
0000
1010
0000
1000
0010
1000
0010
1000
0000
1010
0000
0000
0000
,
1000
0000
0001
0000
1100
0000
0100
1000
0100
1000
0100
0000
1000
0000
0001
1000
,
0100
0000
1000
0000
0101
0000
0100
0001
0100
0001
0100
0000
0101
0000
0000
0000
,
1000
0000
0100
0000
1001
0000
0001
1000
0001
1000
0001
0000
1001
0000
0001
1000
,
0010
0000
0100
0000
1001
0000
1000
0001
1000
0001
1000
0000
1001
0000
0000
0000
,
0001
0000
0010
0000
0011
0000
0010
0100
0010
0100
0010
0000
0011
0000
0010
0100
,
1000
0000
0010
0000
1010
0000
0010
0100
0010
0100
0010
0000
1010
0000
0000
0000
,
0001
0000
0100
0000
1010
0000
1000
0010
1000
0010
1000
0000
1010
0000
1000
0100
,
0010
0000
0001
0000
0011
0000
0001
0010
0001
0010
0001
0000
0011
0000
0000
0000
,
0001
0000
1000
0000
0101
0000
0100
0001
0100
0001
0100
0000
0001
0000
1000
0001
,
0100
0000
0001
0000
1100
0000
0100
1000
0100
1000
0100
0000
1100
0000
0000
0000
,
0001
0000
0100
0000
1001
0000
1000
0001
1000
0001
1000
0000
1001
0000
1000
0001
,
0010
0000
0100
0000
1001
0000
0001
1000
0001
1000
0001
0000
1001
0000
0000
0000
,
0001
0000
0100
0000
0101
0000
0100
0010
0100
0010
0100
0000
0101
0000
0100
0010
,
1000
0000
0100
0000
1100
0000
0100
0010
0100
0010
0100
0000
1100
0000
0000
0000
,
0001
0000
0010
0000
1100
0000
1000
0100
1000
0100
1000
0000
1100
0000
1000
0010
,
0100
0000
0001
0000
0101
0000
0001
0100
0001
0100
0001
0000
0101
0000
0000
0000
,
0001
0000
1000
0000
0011
0000
0010
0001
0010
0001
0010
0000
0001
0000
1000
0001
,
0010
0000
0001
0000
1010
0000
0010
1000
0010
1000
0010
0000
1010
0000
0000
0000
,
0001
0000
0010
0000
1001
0000
1000
0001
1000
0001
1000
0000
1001
0000
1000
0001
,
0100
0000
0010
0000
1001
0000
0001
1000
0001
1000
0001
0000
1001
0000
0001
0010
,
0100
0000
0000
0000
,
0000
0000
0000
0000
,
0000
M000
000M
M000
,
000M
0000
0000
0000
M000
0000
0000
0000
000M
0000
0000
0000
0000
M000
0000
0000
,
0000
000M
0000
M000
0000
000M
0000
M000
,
0000
000M
0000
0000
0000
M000
0000
0000
0000
000M
0000
0000
0000
M000
0000
0000
,
000M
0000
0000
M000
0000
0000
0000
000M
0000
0000
M000
0000
0000
000M
0000
0000
,
M000
0000
0000
000M
0000
0000
M000
0000
0000
0000
000M
0000
0000
M000
0000
0000
,
000M
0000
0000
0000
0000
0000
M000
0000
0000
0000
000M
0000
0000
0000
0000
0000
M000
0000
0000
0000
0000
000M
0000
0000
0000
0000
M000
0000
0000
0000
0000
0000
,
000M
0000
0000
0000
0000
M000
0000
0000
0000
0000
000M
0000
0000
0000
M000
0000
0000
0000
000M
0000
0000
0000
M000
0000
0000
0000
000M
0000
0000
0000
M000
0000
,
0000
0000
000M
0000
0000
0000
M000
0000
0000
0000
000M
0000
0000
0000
M000
0000
0000
0000
000M
0000
0000
0000
M000
0000
0000
0000
000M
0000
0000
M000
0000
0000
,
000M
M000
000M
M000
000M
M000
000M
M000
000M
M000
000M
M000
000M
M000
000M
M000
,
000M
M000
000M
M000
000M
M000
000M
M000
000M
M000
000M
M000
000M
M000
000M
M000
000M
M000
000M
M000
000M
M000
000M
M000
,
000M
M000
000M
M000
000M
M000
000M
M000
000M
M000
000M
M000
000M
M000
000M
M000
000M
M000
000M
M000
000M
M000
000M
M000
000M
M000
000M
M000
000M
M000
000M
M000
,
000M
M000
000M
M000
000M
M000
000M
M000
000M
M000
000M
M000
000M
M000
000M
M000
0000
0000
0000
0000
0000
0000
0000
0000
0000
0000
0000
0000
0000
0000
0000
0000
,
1001
0000
0000
1000
0100
1000
0100
0000
0010
0100
1000
0001
1000
0000
0001
0000
,
1000
0100
1000
0000
0010
0000
1000
0100
1000
0000
0001
0000
1000
0100
1000
0000
,
0010
0000
1000
0100
1000
0000
0001
0000
1000
0100
1000
0000
0010
0000
0100
0000
,
0001
0010
0001
0000
0100
0000
0001
0010
0001
0000
1000
0000
0001
0010
0001
0000
,
0100
0000
0001
0010
0001
0000
1000
0000
0001
0010
0001
0000
0100
0000
0010
0000
,
1000
0000
0010
1000
0100
0000
0010
0001
1000
0000
0010
1000
0100
0000
1000
0001
,
0010
0000
0001
0100
0001
0000
1000
0000
0001
0100
0001
0000
0010
0000
0100
0000
,
1000
0010
1000
0000
0100
0000
1000
0010
1000
0000
0001
0000
1000
0010
1000
0000
,
0100
0000
1000
0010
1000
0000
0001
0000
1000
0010
1000
0000
0100
0000
0010
0000
,
0001
0010
0100
0010
0001
0000
1000
0001
1000
0010
0100
0010
1000
0000
0001
1000
,
0100
0010
0100
1000
0010
0000
1000
0001
0100
0010
0100
0001
0010
0000
0001
1000
,
0001
0100
0010
0100
0001
0000
1000
0001
1000
0100
0010
0100
1000
0000
0001
1000
,
0010
0100
0010
1000
0100
0000
1000
0001
0010
0100
0010
0001
0100
0000
0001
1000
,
0001
0100
0010
0100
0001
0000
1000
0001
1000
0100
0010
0100
1000
0000
0001
1000
,
0010
0100
0010
1000
0100
0000
1000
0001
0010
0100
0010
0001
0100
0000
0001
1000
,
0001
0010
0100
0010
0001
0000
1000
0001
1000
0010
0100
0010
1000
0100
1000
0001
,
0000
0000
0000
0000
1001
0000
1001
0000
0001
0000
1000
0010
1000
0100
0010
0001
,
1000
0100
0010
0000
0100
0000
1000
0001
0000
0001
0100
0001
1000
0000
0001
1000
,
0000
1000
0100
1000
0001
0000
0010
0001
0000
0001
0100
0001
1000
0000
0010
1000
,
0000
1000
0100
1000
0001
0000
0100
0001
0000
0001
1000
0010
1000
0000
0100
1000
,
0000
1000
0001
0010
0001
0000
1000
0001
0000
0001
0100
0001
1000
0000
0001
1000
,
0000
1000
0100
1000
0001
0000
0010
0001
0000
0001
0100
0001
1000
0000
0010
1000
,
0000
1000
0100
1000
0001
0000
0100
0001
0000
0001
1000
0010
1000
0000
0100
1000
,
0000
1000
0001
0010
0001
0000
1000
0001
0000
0001
0100
0001
1000
0000
0001
1000
,
0010
0000
0100
0001
0100
0001
0010
0000
0100
1000
0100
1000
0010
0000
0100
0001
,
1000
0010
0100
0000
0010
0000
1000
0001
0000
0001
0010
0001
1000
0000
0001
1000
,
0000
1000
0010
1000
0001
0000
0100
0001
0000
0001
0010
0001
1000
0000
0100
1000
,
0000
1000
0010
1000
0001
0000
0010
0001
0000
0001
1000
0100
1000
0000
0010
1000
,
0000
1000
0001
0100
0001
0000
1000
0001
0000
0001
0010
0001
1000
0000
0001
1000
,
0100
0000
0010
0001
0100
0000
0010
1000
0001
0000
0001
0000
1001
0000
1000
0000
,
0001
0100
0010
0100
0001
0000
1000
0001
1000
0100
0010
0100
1000
0000
0001
1000
,
0010
0000
1000
0001
0010
0000
0001
1000
0010
0000
0010
0000
1010
0000
0010
0000
,
1000
0001
0010
0000
0100
1000
0010
0100
0010
0100
0001
1000
0001
0010
0100
1000
,
0001
0010
0001
0000
0100
0000
0001
0010
0001
0000
1000
0000
0001
0010
0001
0000
,
0100
0000
0001
0010
0001
0000
1000
0000
0001
0010
0001
0000
0100
0000
0010
0000
,
1000
0100
1000
0000
0010
0000
1000
0100
1000
0000
0001
0000
1000
0100
1000
0000
,
0010
0000
1000
0100
1000
0000
0001
0000
1000
0100
1000
0000
0010
0000
0100
0000
,
0001
0000
0100
0001
0010
0000
0100
1000
0001
0000
0100
0001
0010
0000
0001
1000
,
0100
0000
1000
0010
1000
0000
0001
0000
1000
0010
1000
0000
0100
0000
0010
0000
,
0001
0100
0001
0000
0010
0000
0001
0100
0001
0000
1000
0000
0001
0100
0001
0000
,
0010
0000
0001
0100
0001
0000
1000
0000
0001
0100
0001
0000
0010
0000
0100
0000
,
1000
0100
0010
0100
1000
0000
0001
1000
0001
0100
0010
0100
0001
0000
1000
0001
,
0010
0100
0010
0001
0100
0000
0001
1000
0010
0100
0010
1000
0100
0000
1000
0001
,
1000
0010
0100
0010
1000
0000
0001
1000
0001
0010
0100
0010
0001
0000
1000
0001
,
0100
0010
0100
0001
0010
0000
0001
1000
0100
0010
0100
1000
0010
0000
1000
0001
,
1000
0010
0100
0010
1000
0000
0001
1000
0001
0010
0100
0010
0001
0000
1000
0001
,
0100
0010
0100
0001
0010
0000
0001
1000
0100
0010
0100
1000
0010
0000
1000
0001
,
1000
0100
0010
0100
1000
0000
0001
1000
0001
0100
0010
0100
0001
0000
1000
0001
,
0010
0100
0010
0001
0100
0000
0001
1000
0010
0100
0001
1000
0001
0010
0100
1000
,
0001
0010
0100
0000
0010
0000
0001
1000
0000
1000
0010
1000
0001
0000
1000
0001
,
0000
0001
0010
0001
1000
0000
0100
1000
0000
1000
0010
1000
0001
0000
0100
0001
,
0000
0001
0010
0001
1000
0000
0010
1000
0000
1000
0001
0100
0001
0000
0010
0001
,
0000
0001
1000
0100
1000
0000
0001
1000
0000
1000
0010
1000
0001
0000
1000
0001
,
0000
0001
0010
0001
1000
0000
0100
1000
0000
1000
0010
1000
0001
0000
0100
0001
,
0000
0001
0010
0001
1000
0000
0010
1000
0000
1000
0001
0100
0001
0000
0010
0001
,
0000
0001
1000
0100
1000
0000
0001
1000
0000
1000
0010
1000
0001
0000
0100
0001
,
0000
0001
0100
0010
0100
0000
0010
1000
0000
1000
0100
0010
0100
0000
1000
0001
,
0000
0001
0100
0001
1000
0000
0001
1000
0000
1000
0100
1000
0001
0000
1000
0001
,
0000
0001
0100
0001
1000
0000
0010
1000
0000
1000
0100
1000
0001
0000
0010
0001
,
0000
0001
0100
0001
1000
0000
0100
1000
0000
1000
0001
0010
0001
0000
0100
0001
,
0000
0001
1000
0010
1000
0000
0001
1000
0000
1000
0100
1000
0001
0000
1000
0001
,
0000
0001
0100
0001
1000
0000
0010
1000
0000
1000
0100
1000
0001
0000
0010
0001
,
1000
1000
1001
0000
0000
0001
0011
0000
,
0010
0010
0110
0000
0000
0010
0011
0000
,
0001
0000
0010
0001
0100
0000
0010
1000
0001
0000
0010
0001
0100
0001
1000
0001
,
0000
0000
00M0
0000
00M0
0000
0000
00M0
0000
0000
00M0
0000
0000
0000
0000
0000
,
0000
0000
00M0
0000
00M0
0000
0000
00M0
0000
0000
00M0
0000
0000
0000
0000
0000
,
0000
0000
00M0
0000
00M0
0000
0000
00M0
0000
0000
00M0
0000
0000
0000
0000
0000
,
0000
0000
00M0
0000
00M0
0000
0000
00M0
0000
0000
00M0
0000
0000
0000
0000
0000
,
1000
0000
0001
0000
1000
0000
0100
1000
0001
0000
0100
0001
0010
0000
0001
0000
,
1000
0000
0001
0000
1000
0000
0010
1000
0001
0000
0010
0001
1000
0010
1000
0100
,
1000
0000
0001
0000
1000
0000
0100
1000
0001
0000
0100
0001
0010
0000
0001
0000
,
1000
0000
0001
0000
1000
0000
0010
1000
0001
0000
0010
0001
1000
0010
1000
0100
,
1000
0000
0001
0100
0001
1000
0100
1000
0001
0100
0001
1000
0010
0000
1000
0001
,
0010
0000
0100
1000
0001
0100
0001
1000
0100
1000
0001
0100
0001
0010
0001
1000
,
0001
0000
1000
0010
1000
0001
0010
0001
1000
0010
1000
0001
0100
0000
0001
1000
,
0100
0000
0010
0001
1000
0010
1000
0001
0010
0001
1000
0010
1000
0100
1000
0001
,
1000
0000
0001
0100
0001
1000
0100
1000
0001
0100
0001
1000
0010
0000
1000
0001
,
0010
0000
0100
1000
0001
0100
0001
1000
0100
1000
0001
0100
0001
0010
0001
1000
,
0001
0000
1000
0010
0100
0001
0010
0100
0010
0001
1000
0001
0100
0000
0001
1000
,
0100
0000
0010
0001
1000
0100
0010
0001
0100
0010
0100
0001
1000
0001
0010
0100
,
1000
0000
0001
0100
0001
1000
0100
1000
0001
0100
0001
1000
0010
0000
1000
0001
,
0010
0000
0100
1000
0001
0100
0001
1000
0100
1000
0001
0100
0001
0010
0001
1000
,
0001
0000
1000
0100
1000
0001
0100
0001
1000
0100
1000
0001
0010
0000
0001
1000
,
0100
0000
0010
0001
1000
0010
1000
0001
0010
0001
1000
0010
1000
0100
1000
0001
,
1000
0000
0001
0010
0100
1000
0010
0100
0010
1000
0001
1000
0100
0000
1000
0001
,
0100
0000
0010
1000
0001
0100
0010
1000
0100
0010
0100
1000
0001
1000
0010
0100
,
0001
0000
1000
0100
0010
0001
0100
0010
0100
0001
1000
0001
0010
0000
0001
1000
,
0010
0000
0100
0001
1000
0010
0100
0001
0010
0100
0010
0001
1000
0001
0100
0010
,
1000
0000
0001
0100
0010
1000
0100
0010
0001
0100
0010
0100
0001
0000
1000
0001
,
0010
0000
0100
1000
0001
0010
0100
1000
0010
0100
0001
1000
0010
0100
0010
1000
,
0001
0000
1000
0100
0010
0001
0100
0010
1000
0100
0010
0100
1000
0000
0001
1000
,
0100
0000
0010
0001
1000
0100
0010
0001
0100
0010
1000
0001
0100
0010
0100
0001
,
1000
0000
0001
0010
0001
1000
0010
1000
0001
0010
0001
1000
0100
0000
1000
0001
,
0100
0000
0010
1000
0001
0010
0001
1000
0010
1000
0001
0010
0001
0100
0001
1000
,
0001
0000
1000
0100
1000
0001
0100
0001
1000
0100
1000
0001
0010
0000
0001
1000
,
0010
0000
0100
0001
1000
0100
1000
0001
0100
0001
1000
0100
1000
0010
1000
0001
,
0100
0000
0000
0000
,
0000
0000
0000
0000
,
0000
M000
000M
M000
,
000M
0000
0000
0000
M000
0000
0000
0000
000M
0000
0000
0000
0000
M000
0000
0000
,
0000
000M
0000
M000
0000
000M
0000
M000
,
0000
000M
0000
0000
0000
M000
0000
0000
0000
000M
0000
0000
0000
M000
0000
0000
,
000M
0000
0000
M000
0000
0000
0000
000M
0000
0000
M000
0000
0000
000M
0000
0000
,
M000
0000
0000
000M
0000
0000
M000
0000
0000
0000
000M
0000
0000
M000
0000
0000
,
000M
0000
0000
0000
0000
0000
M000
0000
0000
0000
000M
0000
0000
0000
0000
0000
M000
0000
0000
0000
0000
000M
0000
0000
0000
0000
M000
0000
0000
0000
0000
0000
,
000M
0000
0000
0000
0000
M000
0000
0000
0000
0000
000M
0000
0000
0000
M000
0000
0000
0000
000M
0000
0000
0000
M000
0000
0000
0000
000M
0000
0000
0000
M000
0000
,
0000
0000
000M
0000
0000
0000
M000
0000
0000
0000
000M
0000
0000
0000
M000
0000
0000
0000
000M
0000
0000
0000
M000
0000
0000
0000
000M
0000
0000
M000
0000
0000
,
000M
M000
000M
M000
000M
M000
000M
M000
000M
M000
000M
M000
000M
M000
000M
M000
,
000M
M000
000M
M000
000M
M000
000M
M000
000M
M000
000M
M000
000M
M000
000M
M000
000M
M000
000M
M000
000M
M000
000M
M000
,
000M
M000
000M
M000
000M
M000
000M
M000
000M
M000
000M
M000
000M
M000
000M
M000
000M
M000
000M
M000
000M
M000
000M
M000
000M
M000
000M
M000
000M
M000
000M
M000
,
000M
M000
000M
M000
000M
M000
000M
M000
000M
M000
000M
M000
000M
M000
000M
M000
0000
0000
0000
0000
0000
0000
0000
0000
0000
0000
0000
0000
0000
0000
0000
0000
,
1001
0000
0000
0001
0010
0001
0010
0000
0100
0010
0001
1000
0001
0000
1000
0000
,
0001
0010
0001
0000
0100
0000
0001
0010
0001
0000
1000
0000
0001
0010
0001
0000
,
0100
0000
0001
0010
0001
0000
1000
0000
0001
0010
0001
0000
0100
0000
0010
0000
,
1000
0100
1000
0000
0010
0000
1000
0100
1000
0000
0001
0000
1000
0100
1000
0000
,
0010
0000
1000
0100
1000
0000
0001
0000
1000
0100
1000
0000
0010
0000
0100
0000
,
0001
0000
0100
0001
0010
0000
0100
1000
0001
0000
0100
0001
0010
0000
0001
1000
,
0100
0000
1000
0010
1000
0000
0001
0000
1000
0010
1000
0000
0100
0000
0010
0000
,
0001
0100
0001
0000
0010
0000
0001
0100
0001
0000
1000
0000
0001
0100
0001
0000
,
0010
0000
0001
0100
0001
0000
1000
0000
0001
0100
0001
0000
0010
0000
0100
0000
,
1000
0100
0010
0100
1000
0000
0001
1000
0001
0100
0010
0100
0001
0000
1000
0001
,
0010
0100
0010
0001
0100
0000
0001
1000
0010
0100
0010
1000
0100
0000
1000
0001
,
1000
0010
0100
0010
1000
0000
0001
1000
0001
0010
0100
0010
0001
0000
1000
0001
,
0100
0010
0100
0001
0010
0000
0001
1000
0100
0010
0100
1000
0010
0000
1000
0001
,
1000
0010
0100
0010
1000
0000
0001
1000
0001
0010
0100
0010
0001
0000
1000
0001
,
0100
0010
0100
0001
0010
0000
0001
1000
0100
0010
0100
1000
0010
0000
1000
0001
,
1000
0100
0010
0100
1000
0000
0001
1000
0001
0100
0010
0100
0001
0010
0001
1000
,
0000
0000
0000
0000
1001
0000
1001
0000
1000
0000
0001
0100
0001
0010
0100
1000
,
0001
0010
0100
0000
0010
0000
0001
1000
0000
1000
0010
1000
0001
0000
1000
0001
,
0000
0001
0010
0001
1000
0000
0100
1000
0000
1000
0010
1000
0001
0000
0100
0001
,
0000
0001
0010
0001
1000
0000
0010
1000
0000
1000
0001
0100
0001
0000
0010
0001
,
0000
0001
1000
0100
1000
0000
0001
1000
0000
1000
0010
1000
0001
0000
1000
0001
,
0000
0001
0010
0001
1000
0000
0100
1000
0000
1000
0010
1000
0001
0000
0100
0001
,
0000
0001
0010
0001
1000
0000
0010
1000
0000
1000
0001
0100
0001
0000
0010
0001
,
0000
0001
1000
0100
1000
0000
0001
1000
0000
1000
0010
1000
0001
0000
1000
0001
,
0100
0000
0010
1000
0010
1000
0100
0000
0010
0001
0010
0001
0100
0000
0010
1000
,
0001
0100
0010
0000
0100
0000
0001
1000
0000
1000
0100
1000
0001
0000
1000
0001
,
0000
0001
0100
0001
1000
0000
0010
1000
0000
1000
0100
1000
0001
0000
0010
0001
,
0000
0001
0100
0001
1000
0000
0100
1000
0000
1000
0001
0010
0001
0000
0100
0001
,
0000
0001
1000
0010
1000
0000
0001
1000
0000
1000
0100
1000
0001
0000
1000
0001
,
0010
0000
0100
1000
0010
0000
0100
0001
1000
0000
1000
0000
1001
0000
0001
0000
,
1000
0010
0100
0010
1000
0000
0001
1000
0001
0010
0100
0010
0001
0000
1000
0001
,
0100
0000
0001
1000
0100
0000
1000
0001
0100
0000
0100
0000
0101
0000
0100
0000
,
0001
1000
0100
0000
0010
0001
0100
0010
0100
0010
1000
0001
1000
0100
0010
0001
,
1000
0100
1000
0000
0010
0000
1000
0100
1000
0000
0001
0000
1000
0100
1000
0000
,
0010
0000
1000
0100
1000
0000
0001
0000
1000
0100
1000
0000
0010
0000
0100
0000
,
0001
0010
0001
0000
0100
0000
0001
0010
0001
0000
1000
0000
0001
0010
0001
0000
,
0100
0000
0001
0010
0001
0000
1000
0000
0001
0010
0001
0000
0100
0000
0010
0000
,
1000
0000
0010
1000
0100
0000
0010
0001
1000
0000
0010
1000
0100
0000
1000
0001
,
0010
0000
0001
0100
0001
0000
1000
0000
0001
0100
0001
0000
0010
0000
0100
0000
,
1000
0010
1000
0000
0100
0000
1000
0010
1000
0000
0001
0000
1000
0010
1000
0000
,
0100
0000
1000
0010
1000
0000
0001
0000
1000
0010
1000
0000
0100
0000
0010
0000
,
0001
0010
0100
0010
0001
0000
1000
0001
1000
0010
0100
0010
1000
0000
0001
1000
,
0100
0010
0100
1000
0010
0000
1000
0001
0100
0010
0100
0001
0010
0000
0001
1000
,
0001
0100
0010
0100
0001
0000
1000
0001
1000
0100
0010
0100
1000
0000
0001
1000
,
0010
0100
0010
1000
0100
0000
1000
0001
0010
0100
0010
0001
0100
0000
0001
1000
,
0001
0100
0010
0100
0001
0000
1000
0001
1000
0100
0010
0100
1000
0000
0001
1000
,
0010
0100
0010
1000
0100
0000
1000
0001
0010
0100
0010
0001
0100
0000
0001
1000
,
0001
0010
0100
0010
0001
0000
1000
0001
1000
0010
0100
0010
1000
0000
0001
1000
,
0100
0010
0100
1000
0010
0000
1000
0001
0100
0010
1000
0001
1000
0100
0010
0001
,
1000
0100
0010
0000
0100
0000
1000
0001
0000
0001
0100
0001
1000
0000
0001
1000
,
0000
1000
0100
1000
0001
0000
0010
0001
0000
0001
0100
0001
1000
0000
0010
1000
,
0000
1000
0100
1000
0001
0000
0100
0001
0000
0001
1000
0010
1000
0000
0100
1000
,
0000
1000
0001
0010
0001
0000
1000
0001
0000
0001
0100
0001
1000
0000
0001
1000
,
0000
1000
0100
1000
0001
0000
0010
0001
0000
0001
0100
0001
1000
0000
0010
1000
,
0000
1000
0100
1000
0001
0000
0100
0001
0000
0001
1000
0010
1000
0000
0100
1000
,
0000
1000
0001
0010
0001
0000
1000
0001
0000
0001
0100
0001
1000
0000
0010
1000
,
0000
1000
0010
0100
0010
0000
0100
0001
0000
0001
0010
0100
0010
0000
0001
1000
,
0000
1000
0010
1000
0001
0000
1000
0001
0000
0001
0010
0001
1000
0000
0001
1000
,
0000
1000
0010
1000
0001
0000
0100
0001
0000
0001
0010
0001
1000
0000
0100
1000
,
0000
1000
0010
1000
0001
0000
0010
0001
0000
0001
1000
0100
1000
0000
0010
1000
,
0000
1000
0001
0100
0001
0000
1000
0001
0000
0001
0010
0001
1000
0000
0001
1000
,
0000
1000
0010
1000
0001
0000
0100
0001
0000
0001
0010
0001
1000
0000
0100
1000
,
0001
0001
1001
0000
0000
1000
1100
0000
,
0100
0100
0110
0000
0000
0100
1100
0000
,
1000
0000
0100
1000
0010
0000
0100
0001
1000
0000
0100
1000
0010
0000
0100
0001
,
1000
0100
0010
0000
0100
0000
1000
0001
0000
0001
0100
0001
1000
0000
0001
1000
,
0000
1000
0100
1000
0001
0000
0010
0001
0000
0001
0100
0001
1000
0000
0010
1000
,
0000
1000
0100
1000
0001
0000
0100
0001
0000
0001
1000
0010
1000
0000
0100
1000
,
0000
1000
0001
0010
0001
0000
1000
0001
0000
0001
0100
0001
1000
0000
0001
1000
,
0001
0010
0100
0000
0010
0000
0001
1000
0000
1000
0010
1000
0001
0000
1000
0001
,
0000
0001
0010
0001
1000
0000
0100
1000
0000
1000
0010
1000
0001
0000
0100
0001
,
0000
0001
0010
0001
1000
0000
0010
1000
0000
1000
0001
0100
0001
0000
0010
0001
,
0000
0001
1000
0100
1000
0000
0001
1000
0000
1000
0010
1000
0001
0000
1000
0001
,
1000
0100
0010
0000
0100
0000
1000
0001
0000
0001
0100
0001
1000
0000
0001
1000
,
0000
1000
0100
1000
0001
0000
0010
0001
0000
0001
0100
0001
1000
0000
0010
1000
,
0000
1000
0100
1000
0001
0000
0100
0001
0000
0001
1000
0010
1000
0000
0100
1000
,
0000
1000
0001
0010
0001
0000
1000
0001
0000
0001
0100
0001
1000
0000
0001
1000
,
0001
0010
0100
0000
0010
0000
0001
1000
0000
1000
0010
1000
0001
0000
1000
0001
,
0000
0001
0010
0001
1000
0000
0100
1000
0000
1000
0010
1000
0001
0000
0100
0001
,
0000
0001
0010
0001
1000
0000
0010
1000
0000
1000
0001
0100
0001
0000
0010
0001
,
0000
0001
1000
0100
1000
0000
0001
1000
0000
1000
0010
1000
0001
0000
1000
0001
,
0020
M031
0M00
0000
0000
0M00
M000
0000
,
0000
M000
0M00
0000
0000
0M00
M000
0000
,
0000
M000
0M00
0000
0000
0M00
M000
0000
;

//---------------dance-single - I. Pyles----------------
#NOTES:
     dance-single:
     I. Pyles:
     Medium:
     14:
     1.000,1.000,0.047,0.003,1.000,3130.000,18.000,1.000,298.000,0.000:
0000
0000
0000
0000
,
1000
0000
0100
0000
0010
0000
0100
0010
0100
0010
0100
0000
0010
0000
0100
0010
,
0001
0000
0100
0000
0010
0000
0100
0010
0100
0010
0100
0000
0010
0000
0000
0000
,
1000
0000
0010
0000
0100
0000
0001
0100
0001
0100
0001
0000
0100
0000
0010
0100
,
0001
0000
0010
0000
0100
0000
1000
0100
1000
0100
1000
0000
0100
0000
0000
0000
,
0010
0000
0001
0000
1000
0000
0010
1000
0010
1000
0010
0000
1000
0000
0001
1000
,
0010
0000
1000
0000
0001
0000
0010
0001
0010
0001
0010
0000
0001
0000
0000
0000
,
0100
0000
0010
0000
1000
0000
0001
1000
0001
1000
0001
0000
1000
0000
0001
1000
,
0100
0000
0010
0000
0001
0000
1000
0001
1000
0001
1000
0000
0001
0000
0000
0000
,
1000
0000
0010
0000
0100
0000
0010
0100
0010
0100
0010
0000
0100
0000
0010
0100
,
0001
0000
0010
0000
0100
0000
0010
0100
0010
0100
0010
0000
0100
0000
0000
0000
,
1000
0000
0100
0000
0010
0000
0001
0010
0001
0010
0001
0000
0010
0000
0100
0010
,
0001
0000
0100
0000
0010
0000
1000
0010
1000
0010
1000
0000
0010
0000
0000
0000
,
0100
0000
0001
0000
1000
0000
0100
1000
0100
1000
0100
0000
1000
0000
0001
1000
,
0100
0000
1000
0000
0001
0000
0100
0001
0100
0001
0100
0000
0001
0000
0000
0000
,
0010
0000
0100
0000
1000
0000
0001
1000
0001
1000
0001
0000
1000
0000
0001
1000
,
0010
0000
0100
0000
0001
0000
1000
0001
1000
0001
1000
0000
0001
0000
0010
0000
,
0100
1000
0001
1000
0001
1000
0100
0010
0100
1000
0001
0100
0010
1000
0100
0010
,
0100
1000
0001
1000
0001
1000
0100
0010
0100
1000
0001
0010
0100
1000
0010
0100
,
0010
1000
0001
1000
0001
1000
0010
0100
0010
1000
0001
0100
0010
1000
0100
0010
,
0100
1000
0001
1000
0001
1000
0100
0010
0100
1000
0001
0100
0010
1000
0100
0010
,
0001
0100
0010
0100
0010
0100
0001
1000
0001
0100
0010
0100
0001
0010
0100
1000
,
0001
0100
0010
0100
0010
0100
0001
1000
0001
0100
0010
0100
0001
0010
0100
1000
,
0001
0100
0010
0100
0010
0100
0001
1000
0001
0010
0100
0010
0001
0100
0010
1000
,
0001
0010
0100
0010
0100
0010
0001
1000
0001
0010
0100
0010
0001
0100
0010
1000
,
0100
1000
0001
1000
0001
1000
0100
0010
0100
1000
0001
0100
0010
1000
0100
0010
,
0100
1000
0001
1000
0001
1000
0100
0010
0100
1000
0001
0010
0100
1000
0010
0100
,
0010
1000
0001
1000
0001
1000
0010
0100
0010
1000
0001
0100
0010
1000
0100
0010
,
0100
1000
0001
1000
0001
1000
0100
0010
0100
1000
0001
0100
0010
1000
0100
0010
,
0001
0100
0010
0100
0010
0100
0001
1000
0001
0100
0010
0100
0001
0010
0100
1000
,
0001
0100
0010
0100
0010
0100
0001
1000
0001
0100
0010
0100
0001
0010
0100
1000
,
0001
0100
0010
0100
0010
0100
0001
1000
0001
0100
0010
0100
0001
0010
0100
1000
,
0001
0100
0010
0100
0010
0100
0001
1000
0001
0010
0100
0010
0001
0100
0010
1000
,
0100
0010
0100
1000
0010
0100
0001
1000
0001
0010
0100
1000
0010
0100
0001
1000
,
0100
0010
0100
1000
0010
0100
0001
1000
0001
0010
0100
1000
0010
0100
0001
1000
,
0010
0100
0010
1000
0100
0010
0001
1000
0001
0100
0010
1000
0100
0010
0001
1000
,
0100
0010
0100
1000
0010
0100
0001
1000
0001
0010
0100
1000
0010
0100
0001
1000
,
0010
1000
0010
1000
0100
0010
0001
1000
0001
1000
0010
1000
0100
0010
0001
1000
,
0010
1000
0010
1000
0100
0010
0001
1000
0001
1000
0010
1000
0100
0010
0001
1000
,
0010
1000
0010
1000
0100
0010
0001
1000
0001
1000
0010
1000
0100
0010
0001
1000
,
0100
1000
0100
1000
0010
0100
0001
1000
0001
1000
0100
1000
0010
0100
0001
1000
,
0010
0100
0010
1000
0100
0010
0001
1000
0001
0100
0010
1000
0100
0010
0001
1000
,
0010
0100
0010
1000
0100
0010
0001
1000
0001
0100
0010
1000
0100
0010
0001
1000
,
0100
0010
0100
1000
0010
0100
0001
1000
0001
0010
0100
1000
0010
0100
0001
1000
,
0010
0100
0010
1000
0100
0010
0001
1000
0001
0100
0010
1000
0100
0010
0001
1000
,
0100
1000
0100
1000
0010
0100
0001
1000
0001
1000
0100
1000
0010
0100
0001
1000
,
0100
1000
0100
1000
0010
0100
0001
1000
0001
1000
0100
1000
0010
0100
0001
1000
,
0100
1000
0100
1000
0010
0100
0001
1000
0001
1000
0100
1000
0010
0100
0001
1000
,
0100
1000
0100
1000
0010
0100
0001
1000
0001
1000
0100
1000
0010
0100
0001
0010
,
0001
1000
0100
1000
0100
0010
0001
0100
0001
1000
0100
1000
0010
0100
0010
1000
,
0001
1000
0100
1000
0100
0010
0001
0100
0001
1000
0100
1000
0010
0100
0010
1000
,
0001
1000
0010
1000
0010
0100
0001
0010
0001
1000
0010
1000
0100
0010
0100
1000
,
0001
1000
0100
1000
0100
0010
0001
0100
0001
1000
0100
1000
0010
0100
0010
1000
,
0001
1000
0010
0100
0010
1000
0001
0010
0001
1000
0010
1000
0100
0010
0100
1000
,
0001
1000
0010
0100
0010
1000
0001
0010
0001
1000
0010
1000
0100
0010
0100
1000
,
0001
1000
0010
0100
0010
1000
0001
0010
0001
1000
0010
1000
0100
0010
0100
1000
,
0001
1000
0100
0010
0100
1000
0001
0100
0001
1000
0100
1000
0010
0100
0010
1000
,
0001
1000
0010
1000
0010
0100
0001
0010
0001
1000
0010
1000
0100
0010
0100
1000
,
0001
1000
0010
1000
0010
0100
0001
0010
0001
1000
0010
1000
0100
0010
0100
1000
,
0001
1000
0100
1000
0100
0010
0001
0100
0001
1000
0100
1000
0010
0100
0010
1000
,
0001
1000
0010
1000
0010
0100
0001
0010
0001
1000
0010
1000
0100
0010
0100
1000
,
0001
1000
0100
0010
0100
1000
0001
0100
0001
1000
0100
1000
0010
0100
0010
1000
,
0001
1000
0100
0010
0100
1000
0001
0100
0001
1000
0100
1000
0010
0100
0010
1000
,
0001
1000
0100
0010
0100
1000
0001
0100
0001
1000
0100
1000
0010
0100
0010
1000
,
0001
1000
0100
0010
0100
1000
0001
0100
0001
1000
0100
1000
0010
0100
0010
1000
,
0001
0000
0000
0000
,
0000
0000
0000
0000
,
0000
M000
000M
M000
,
000M
0000
0000
0000
M000
0000
0000
0000
000M
0000
0000
0000
0000
M000
0000
0000
,
0000
000M
0000
M000
0000
000M
0000
M000
,
0000
000M
0000
0000
0000
M000
0000
0000
0000
000M
0000
0000
0000
M000
0000
0000
,
000M
0000
0000
M000
0000
0000
0000
000M
0000
0000
M000
0000
0000
000M
0000
0000
,
M000
0000
0000
000M
0000
0000
M000
0000
0000
0000
000M
0000
0000
M000
0000
0000
,
000M
0000
0000
0000
0000
0000
M000
0000
0000
0000
000M
0000
0000
0000
0000
0000
M000
0000
0000
0000
0000
000M
0000
0000
0000
0000
M000
0000
0000
0000
0000
0000
,
000M
0000
0000
0000
0000
M000
0000
0000
0000
0000
000M
0000
0000
0000
M000
0000
0000
0000
000M
0000
0000
0000
M000
0000
0000
0000
000M
0000
0000
0000
M000
0000
,
0000
0000
000M
0000
0000
0000
M000
0000
0000
0000
000M
0000
0000
0000
M000
0000
0000
0000
000M
0000
0000
0000
M000
0000
0000
0000
000M
0000
0000
M000
0000
0000
,
000M
M000
000M
M000
000M
M000
000M
M000
000M
M000
000M
M000
000M
M000
000M
M000
,
000M
M000
000M
M000
000M
M000
000M
M000
000M
M000
000M
M000
000M
M000
000M
M000
000M
M000
000M
M000
000M
M000
000M
M000
,
000M
M000
000M
M000
000M
M000
000M
M000
000M
M000
000M
M000
000M
M000
000M
M000
000M
M000
000M
M000
000M
M000
000M
M000
000M
M000
000M
M000
000M
M000
000M
M000
,
000M
M000
000M
M000
000M
M000
000M
M000
000M
M000
000M
M000
000M
M000
000M
M000
0000
0000
0000
0000
0000
0000
0000
0000
0000
0000
0000
0000
0000
0000
0000
0000
,
1001
0000
0000
1000
0100
1000
0100
0000
0010
0100
1000
0001
1000
0000
0001
0000
,
1000
0100
1000
0000
0010
0000
1000
0100
1000
0000
0001
0000
1000
0100
1000
0000
,
0010
0000
1000
0100
1000
0000
0001
0000
1000
0100
1000
0000
0010
0000
0100
0000
,
0001
0010
0001
0000
0100
0000
0001
0010
0001
0000
1000
0000
0001
0010
0001
0000
,
0100
0000
0001
0010
0001
0000
1000
0000
0001
0010
0001
0000
0100
0000
0010
0000
,
1000
0000
0010
1000
0100
0000
0010
0001
1000
0000
0010
1000
0100
0000
1000
0001
,
0010
0000
0001
0100
0001
0000
1000
0000
0001
0100
0001
0000
0010
0000
0100
0000
,
1000
0010
1000
0000
0100
0000
1000
0010
1000
0000
0001
0000
1000
0010
1000
0000
,
0100
0000
1000
0010
1000
0000
0001
0000
1000
0010
1000
0000
0100
0000
0010
0000
,
0001
0010
0100
0010
0001
0000
1000
0001
1000
0010
0100
0010
1000
0000
0001
1000
,
0100
0010
0100
1000
0010
0000
1000
0001
0100
0010
0100
0001
0010
0000
0001
1000
,
0001
0100
0010
0100
0001
0000
1000
0001
1000
0100
0010
0100
1000
0000
0001
1000
,
0010
0100
0010
1000
0100
0000
1000
0001
0010
0100
0010
0001
0100
0000
0001
1000
,
0001
0100
0010
0100
0001
0000
1000
0001
1000
0100
0010
0100
1000
0000
0001
1000
,
0010
0100
0010
1000
0100
0000
1000
0001
0010
0100
0010
0001
0100
0000
0001
1000
,
0001
0010
0100
0010
0001
0000
1000
0001
1000
0010
0100
0010
1000
0100
1000
0001
,
0000
0000
0000
0000
1001
0000
1001
0000
0001
0000
1000
0010
1000
0100
0010
0001
,
1000
0100
0010
0000
0100
0000
1000
0001
0000
0001
0100
0001
1000
0000
0001
1000
,
0000
1000
0100
1000
0001
0000
0010
0001
0000
0001
0100
0001
1000
0000
0010
1000
,
0000
1000
0100
1000
0001
0000
0100
0001
0000
0001
1000
0010
1000
0000
0100
1000
,
0000
1000
0001
0010
0001
0000
1000
0001
0000
0001
0100
0001
1000
0000
0001
1000
,
0000
1000
0100
1000
0001
0000
0010
0001
0000
0001
0100
0001
1000
0000
0010
1000
,
0000
1000
0100
1000
0001
0000
0100
0001
0000
0001
1000
0010
1000
0000
0100
1000
,
0000
1000
0001
0010
0001
0000
1000
0001
0000
0001
0100
0001
1000
0000
0001
1000
,
0010
0000
0100
0001
0100
0001
0010
0000
0100
1000
0100
1000
0010
0000
0100
0001
,
1000
0010
0100
0000
0010
0000
1000
0001
0000
0001
0010
0001
1000
0000
0001
1000
,
0000
1000
0010
1000
0001
0000
0100
0001
0000
0001
0010
0001
1000
0000
0100
1000
,
0000
1000
0010
1000
0001
0000
0010
0001
0000
0001
1000
0100
1000
0000
0010
1000
,
0000
1000
0001
0100
0001
0000
1000
0001
0000
0001
0010
0001
1000
0000
0001
1000
,
0100
0000
0010
0001
0100
0000
0010
1000
0001
0000
0001
0000
1001
0000
1000
0000
,
0001
0100
0010
0100
0001
0000
1000
0001
1000
0100
0010
0100
1000
0000
0001
1000
,
0010
0000
1000
0001
0010
0000
0001
1000
0010
0000
0010
0000
1010
0000
0010
0000
,
1000
0001
0010
0000
0100
1000
0010
0100
0010
0100
0001
1000
0001
0010
0100
1000
,
0001
0010
0001
0000
0100
0000
0001
0010
0001
0000
1000
0000
0001
0010
0001
0000
,
0100
0000
0001
0010
0001
0000
1000
0000
0001
0010
0001
0000
0100
0000
0010
0000
,
1000
0100
1000
0000
0010
0000
1000
0100
1000
0000
0001
0000
1000
0100
1000
0000
,
0010
0000
1000
0100
1000
0000
0001
0000
1000
0100
1000
0000
0010
0000
0100
0000
,
0001
0000
0100
0001
0010
0000
0100
1000
0001
0000
0100
0001
0010
0000
0001
1000
,
0100
0000
1000
0010
1000
0000
0001
0000
1000
0010
1000
0000
0100
0000
0010
0000
,
0001
0100
0001
0000
0010
0000
0001
0100
0001
0000
1000
0000
0001
0100
0001
0000
,
0010
0000
0001
0100
0001
0000
1000
0000
0001
0100
0001
0000
0010
0000
0100
0000
,
1000
0100
0010
0100
1000
0000
0001
1000
0001
0100
0010
0100
0001
0000
1000
0001
,
0010
0100
0010
0001
0100
0000
0001
1000
0010
0100
0010
1000
0100
0000
1000
0001
,
1000
0010
0100
0010
1000
0000
0001
1000
0001
0010
0100
0010
0001
0000
1000
0001
,
0100
0010
0100
0001
0010
0000
0001
1000
0100
0010
0100
1000
0010
0000
1000
0001
,
1000
0010
0100
0010
1000
0000
0001
1000
0001
0010
0100
0010
0001
0000
1000
0001
,
0100
0010
0100
0001
0010
0000
0001
1000
0100
0010
0100
1000
0010
0000
1000
0001
,
1000
0100
0010
0100
1000
0000
0001
1000
0001
0100
0010
0100
0001
0000
1000
0001
,
0010
0100
0010
0001
0100
0000
0001
1000
0010
0100
0001
1000
0001
0010
0100
1000
,
0001
0010
0100
0000
0010
0000
0001
1000
0000
1000
0010
1000
0001
0000
1000
0001
,
0000
0001
0010
0001
1000
0000
0100
1000
0000
1000
0010
1000
0001
0000
0100
0001
,
0000
0001
0010
0001
1000
0000
0010
1000
0000
1000
0001
0100
0001
0000
0010
0001
,
0000
0001
1000
0100
1000
0000
0001
1000
0000
1000
0010
1000
0001
0000
1000
0001
,
0000
0001
0010
0001
1000
0000
0100
1000
0000
1000
0010
1000
0001
0000
0100
0001
,
0000
0001
0010
0001
1000
0000
0010
1000
0000
1000
0001
0100
0001
0000
0010
0001
,
0000
0001
1000
0100
1000
0000
0001
1000
0000
1000
0010
1000
0001
0000
0100
0001
,
0000
0001
0100
0010
0100
0000
0010
1000
0000
1000
0100
0010
0100
0000
1000
0001
,
0000
0001
0100
0001
1000
0000
0001
1000
0000
1000
0100
1000
0001
0000
1000
0001
,
0000
0001
0100
0001
1000
0000
0010
1000
0000
1000
0100
1000
0001
0000
0010
0001
,
0000
0001
0100
0001
1000
0000
0100
1000
0000
1000
0001
0010
0001
0000
0100
0001
,
0000
0001
1000
0010
1000
0000
0001
1000
0000
1000
0100
1000
0001
0000
1000
0001
,
0000
0001
0100
0001
1000
0000
0010
1000
0000
1000
0100
1000
0001
0000
0010
0001
,
1000
1000
1001
0000
0000
0001
0011
0000
,
0010
0010
0110
0000
0000
0010
0011
0000
,
0001
0000
0010
0001
0100
0000
0010
1000
0001
0000
0010
0001
0100
0001
1000
0001
,
0000
0000
00M0
0000
00M0
0000
0000
00M0
0000
0000
00M0
0000
0000
0000
0000
0000
,
0000
0000
00M0
0000
00M0
0000
0000
00M0
0000
0000
00M0
0000
0000
0000
0000
0000
,
0000
0000
00M0
0000
00M0
0000
0000
00M0
0000
0000
00M0
0000
0000
0000
0000
0000
,
0000
0000
00M0
0000
00M0
0000
0000
00M0
0000
0000
00M0
0000
0000
0000
0000
0000
,
1000
0000
0001
0000
1000
0000
0100
1000
0001
0000
0100
0001
0010
0000
0001
0000
,
1000
0000
0001
0000
1000
0000
0010
1000
0001
0000
0010
0001
1000
0010
1000
0100
,
1000
0000
0001
0000
1000
0000
0100
1000
0001
0000
0100
0001
0010
0000
0001
0000
,
1000
0000
0001
0000
1000
0000
0010
1000
0001
0000
0010
0001
1000
0010
1000
0100
,
1000
0000
0001
0100
0001
1000
0100
1000
0001
0100
0001
1000
0010
0000
1000
0001
,
0010
0000
0100
1000
0001
0100
0001
1000
0100
1000
0001
0100
0001
0010
0001
1000
,
0001
0000
1000
0010
1000
0001
0010
0001
1000
0010
1000
0001
0100
0000
0001
1000
,
0100
0000
0010
0001
1000
0010
1000
0001
0010
0001
1000
0010
1000
0100
1000
0001
,
1000
0000
0001
0100
0001
1000
0100
1000
0001
0100
0001
1000
0010
0000
1000
0001
,
0010
0000
0100
1000
0001
0100
0001
1000
0100
1000
0001
0100
0001
0010
0001
1000
,
0001
0000
1000
0010
0100
0001
0010
0100
0010
0001
1000
0001
0100
0000
0001
1000
,
0100
0000
0010
0001
1000
0100
0010
0001
0100
0010
0100
0001
1000
0001
0010
0100
,
1000
0000
0001
0100
0001
1000
0100
1000
0001
0100
0001
1000
0010
0000
1000
0001
,
0010
0000
0100
1000
0001
0100
0001
1000
0100
1000
0001
0100
0001
0010
0001
1000
,
0001
0000
1000
0100
1000
0001
0100
0001
1000
0100
1000
0001
0010
0000
0001
1000
,
0100
0000
0010
0001
1000
0010
1000
0001
0010
0001
1000
0010
1000
0100
1000
0001
,
1000
0000
0001
0010
0100
1000
0010
0100
0010
1000
0001
1000
0100
0000
1000
0001
,
0100
0000
0010
1000
0001
0100
0010
1000
0100
0010
0100
1000
0001
1000
0010
0100
,
0001
0000
1000
0100
0010
0001
0100
0010
0100
0001
1000
0001
0010
0000
0001
1000
,
0010
0000
0100
0001
1000
0010
0100
0001
0010
0100
0010
0001
1000
0001
0100
0010
,
1000
0000
0001
0100
0010
1000
0100
0010
0001
0100
0010
0100
0001
0000
1000
0001
,
0010
0000
0100
1000
0001
0010
0100
1000
0010
0100
0001
1000
0010
0100
0010
1000
,
0001
0000
1000
0100
0010
0001
0100
0010
1000
0100
0010
0100
1000
0000
0001
1000
,
0100
0000
0010
0001
1000
0100
0010
0001
0100
0010
1000
0001
0100
0010
0100
0001
,
1000
0000
0001
0010
0001
1000
0010
1000
0001
0010
0001
1000
0100
0000
1000
0001
,
0100
0000
0010
1000
0001
0010
0001
1000
0010
1000
0001
0010
0001
0100
0001
1000
,
0001
0000
1000
0100
1000
0001
0100
0001
1000
0100
1000
0001
0010
0000
0001
1000
,
0010
0000
0100
0001
1000
0100
1000
0001
0100
0001
1000
0100
1000
0010
1000
0001
,
0100
0000
0000
0000
,
0000
0000
0000
0000
,
0000
M000
000M
M000
,
000M
0000
0000
0000
M000
0000
0000
0000
000M
0000
0000
0000
0000
M000
0000
0000
,
0000
000M
0000
M000
0000
000M
0000
M000
,
0000
000M
0000
0000
0000
M000
0000
0000
0000
000M
0000
0000
0000
M000
0000
0000
,
000M
0000
0000
M000
0000
0000
0000
000M
0000
0000
M000
0000
0000
000M
0000
0000
,
M000
0000
0000
000M
0000
0000
M000
0000
0000
0000
000M
0000
0000
M000
0000
0000
,
000M
0000
0000
0000
0000
0000
M000
0000
0000
0000
000M
0000
0000
0000
0000
0000
M000
0000
0000
0000
0000
000M
0000
0000
0000
0000
M000
0000
0000
0000
0000
0000
,
000M
0000
0000
0000
0000
M000
0000
0000
0000
0000
000M
0000
0000
0000
M000
0000
0000
0000
000M
0000
0000
0000
M000
0000
0000
0000
000M
0000
0000
0000
M000
0000
,
0000
0000
000M
0000
0000
0000
M000
0000
0000
0000
000M
0000
0000
0000
M000
0000
0000
0000
000M
0000
0000
0000
M000
0000
0000
0000
000M
0000
0000
M000
0000
0000
,
000M
M000
000M
M000
000M
M000
000M
M000
000M
M000
000M
M000
000M
M000
000M
M000
,
000M
M000
000M
M000
000M
M000
000M
M000
000M
M000
000M
M000
000M
M000
000M
M000
000M
M000
000M
M000
000M
M000
000M
M000
,
000M
M000
000M
M000
000M
M000
000M
M000
000M
M000
000M
M000
000M
M000
000M
M000
000M
M000
000M
M000
000M
M000
000M
M000
000M
M000
000M
M000
000M
M000
000M
M000
,
000M
M000
000M
M000
000M
M000
000M
M000
000M
M000
000M
M000
000M
M000
000M
M000
0000
0000
0000
0000
0000
0000
0000
0000
0000
0000
0000
0000
0000
0000
0000
0000
,
1001
0000
0000
0001
0010
0001
0010
0000
0100
0010
0001
1000
0001
0000
1000
0000
,
0001
0010
0001
0000
0100
0000
0001
0010
0001
0000
1000
0000
0001
0010
0001
0000
,
0100
0000
0001
0010
0001
0000
1000
0000
0001
0010
0001
0000
0100
0000
0010
0000
,
1000
0100
1000
0000
0010
0000
1000
0100
1000
0000
0001
0000
1000
0100
1000
0000
,
0010
0000
1000
0100
1000
0000
0001
0000
1000
0100
1000
0000
0010
0000
0100
0000
,
0001
0000
0100
0001
0010
0000
0100
1000
0001
0000
0100
0001
0010
0000
0001
1000
,
0100
0000
1000
0010
1000
0000
0001
0000
1000
0010
1000
0000
0100
0000
0010
0000
,
0001
0100
0001
0000
0010
0000
0001
0100
0001
0000
1000
0000
0001
0100
0001
0000
,
0010
0000
0001
0100
0001
0000
1000
0000
0001
0100
0001
0000
0010
0000
0100
0000
,
1000
0100
0010
0100
1000
0000
0001
1000
0001
0100
0010
0100
0001
0000
1000
0001
,
0010
0100
0010
0001
0100
0000
0001
1000
0010
0100
0010
1000
0100
0000
1000
0001
,
1000
0010
0100
0010
1000
0000
0001
1000
0001
0010
0100
0010
0001
0000
1000
0001
,
0100
0010
0100
0001
0010
0000
0001
1000
0100
0010
0100
1000
0010
0000
1000
0001
,
1000
0010
0100
0010
1000
0000
0001
1000
0001
0010
0100
0010
0001
0000
1000
0001
,
0100
0010
0100
0001
0010
0000
0001
1000
0100
0010
0100
1000
0010
0000
1000
0001
,
1000
0100
0010
0100
1000
0000
0001
1000
0001
0100
0010
0100
0001
0010
0001
1000
,
0000
0000
0000
0000
1001
0000
1001
0000
1000
0000
0001
0100
0001
0010
0100
1000
,
0001
0010
0100
0000
0010
0000
0001
1000
0000
1000
0010
1000
0001
0000
1000
0001
,
0000
0001
0010
0001
1000
0000
0100
1000
0000
1000
0010
1000
0001
0000
0100
0001
,
0000
0001
0010
0001
1000
0000
0010
1000
0000
1000
0001
0100
0001
0000
0010
0001
,
0000
0001
1000
0100
1000
0000
0001
1000
0000
1000
0010
1000
0001
0000
1000
0001
,
0000
0001
0010
0001
1000
0000
0100
1000
0000
1000
0010
1000
0001
0000
0100
0001
,
0000
0001
0010
0001
1000
0000
0010
1000
0000
1000
0001
0100
0001
0000
0010
0001
,
0000
0001
1000
0100
1000
0000
0001
1000
0000
1000
0010
1000
0001
0000
1000
0001
,
0100
0000
0010
1000
0010
1000
0100
0000
0010
0001
0010
0001
0100
0000
0010
1000
,
0001
0100
0010
0000
0100
0000
0001
1000
0000
1000
0100
1000
0001
0000
1000
0001
,
0000
0001
0100
0001
1000
0000
0010
1000
0000
1000
0100
1000
0001
0000
0010
0001
,
0000
0001
0100
0001
1000
0000
0100
1000
0000
1000
0001
0010
0001
0000
0100
0001
,
0000
0001
1000
0010
1000
0000
0001
1000
0000
1000
0100
1000
0001
0000
1000
0001
,
0010
0000
0100
1000
0010
0000
0100
0001
1000
0000
1000
0000
1001
0000
0001
0000
,
1000
0010
0100
0010
1000
0000
0001
1000
0001
0010
0100
0010
0001
0000
1000
0001
,
0100
0000
0001
1000
0100
0000
1000
0001
0100
0000
0100
0000
0101
0000
0100
0000
,
0001
1000
0100
0000
0010
0001
0100
0010
0100
0010
1000
0001
1000
0100
0010
0001
,
1000
0100
1000
0000
0010
0000
1000
0100
1000
0000
0001
0000
1000
0100
1000
0000
,
0010
0000
1000
0100
1000
0000
0001
0000
1000
0100
1000
0000
0010
0000
0100
0000
,
0001
0010
0001
0000
0100
0000
0001
0010
0001
0000
1000
0000
0001
0010
0001
0000
,
0100
0000
0001
0010
0001
0000
1000
0000
0001
0010
0001
0000
0100
0000
0010
0000
,
1000
0000
0010
1000
0100
0000
0010
0001
1000
0000
0010
1000
0100
0000
1000
0001
,
0010
0000
0001
0100
0001
0000
1000
0000
0001
0100
0001
0000
0010
0000
0100
0000
,
1000
0010
1000
0000
0100
0000
1000
0010
1000
0000
0001
0000
1000
0010
1000
0000
,
0100
0000
1000
0010
1000
0000
0001
0000
1000
0010
1000
0000
0100
0000
0010
0000
,
0001
0010
0100
0010
0001
0000
1000
0001
1000
0010
0100
0010
1000
0000
0001
1000
,
0100
0010
0100
1000
0010
0000
1000
0001
0100
0010
0100
0001
0010
0000
0001
1000
,
0001
0100
0010
0100
0001
0000
1000
0001
1000
0100
0010
0100
1000
0000
0001
1000
,
0010
0100
0010
1000
0100
0000
1000
0001
0010
0100
0010
0001
0100
0000
0001
1000
,
0001
0100
0010
0100
0001
0000
1000
0001
1000
0100
0010
0100
1000
0000
0001
1000
,
0010
0100
0010
1000
0100
0000
1000
0001
0010
0100
0010
0001
0100
0000
0001
1000
,
0001
0010
0100
0010
0001
0000
1000
0001
1000
0010
0100
0010
1000
0000
0001
1000
,
0100
0010
0100
1000
0010
0000
1000
0001
0100
0010
1000
0001
1000
0100
0010
0001
,
1000
0100
0010
0000
0100
0000
1000
0001
0000
0001
0100
0001
1000
0000
0001
1000
,
0000
1000
0100
1000
0001
0000
0010
0001
0000
0001
0100
0001
1000
0000
0010
1000
,
0000
1000
0100
1000
0001
0000
0100
0001
0000
0001
1000
0010
1000
0000
0100
1000
,
0000
1000
0001
0010
0001
0000
1000
0001
0000
0001
0100
0001
1000
0000
0001
1000
,
0000
1000
0100
1000
0001
0000
0010
0001
0000
0001
0100
0001
1000
0000
0010
1000
,
0000
1000
0100
1000
0001
0000
0100
0001
0000
0001
1000
0010
1000
0000
0100
1000
,
0000
1000
0001
0010
0001
0000
1000
0001
0000
0001
0100
0001
1000
0000
0010
1000
,
0000
1000
0010
0100
0010
0000
0100
0001
0000
0001
0010
0100
0010
0000
0001
1000
,
0000
1000
0010
1000
0001
0000
1000
0001
0000
0001
0010
0001
1000
0000
0001
1000
,
0000
1000
0010
1000
0001
0000
0100
0001
0000
0001
0010
0001
1000
0000
0100
1000
,
0000
1000
0010
1000
0001
0000
0010
0001
0000
0001
1000
0100
1000
0000
0010
1000
,
0000
1000
0001
0100
0001
0000
1000
0001
0000
0001
0010
0001
1000
0000
0001
1000
,
0000
1000
0010
1000
0001
0000
0100
0001
0000
0001
0010
0001
1000
0000
0100
1000
,
0001
0001
1001
0000
0000
1000
1100
0000
,
0100
0100
0110
0000
0000
0100
1100
0000
,
1000
0000
0100
1000
0010
0000
0100
0001
1000
0000
0100
1000
0010
0000
0100
0001
,
1000
0001
0100
0010
1000
0010
1000
0001
0010
0100
1000
0100
1000
0010
0100
0001
,
0010
0001
1000
0001
1000
0100
0010
0001
0100
0010
1000
0010
1000
0100
0010
0001
,
0100
0001
1000
0001
1000
0010
0100
0001
0010
0001
1000
0001
1000
0010
0100
0001
,
0010
0100
1000
0100
1000
0010
0100
0001
0010
0001
1000
0001
1000
0100
0010
0001
,
1000
0001
0010
0100
1000
0100
1000
0001
0100
0010
1000
0010
1000
0100
0010
0001
,
0100
0001
1000
0001
1000
0010
0100
0001
0010
0100
1000
0100
1000
0010
0100
0001
,
0010
0001
1000
0001
1000
0100
0010
0001
0100
0001
1000
0001
1000
0100
0010
0001
,
0100
0010
1000
0010
1000
0100
0010
0001
0100
0001
1000
0001
1000
0010
0100
0001
,
1000
0001
0100
0010
1000
0010
1000
0001
0010
0100
1000
0100
1000
0010
0100
0001
,
0010
0001
1000
0001
1000
0100
0010
0001
0100
0010
1000
0010
1000
0100
0010
0001
,
0100
0001
1000
0001
1000
0010
0100
0001
0010
0001
1000
0001
1000
0010
0100
0001
,
0010
0100
1000
0100
1000
0010
0100
0001
0010
0001
1000
0001
1000
0100
0010
0001
,
1000
0001
0010
0100
1000
0100
1000
0001
0100
0010
1000
0010
1000
0100
0010
0001
,
0100
0001
1000
0001
1000
0010
0100
0001
0010
0100
1000
0100
1000
0010
0100
0001
,
0010
0001
1000
0001
1000
0100
0010
0001
0100
0001
1000
0001
1000
0100
0010
0001
,
1000
0100
0010
0100
1000
0010
1000
0001
1000
0010
0100
0010
1000
0100
1000
0001
,
0020
M031
0M00
0000
0000
0M00
M000
0000
,
0000
M000
0M00
0000
0000
0M00
M000
0000
,
0000
M000
0M00
0000
0000
0M00
M000
0000
;

//---------------dance-single - I. Pyles----------------
#NOTES:
     dance-single:
     I. Pyles:
     Hard:
     15:
     1.000,1.000,0.031,0.003,1.000,3384.000,12.000,1.000,298.000,0.000:
0000
0000
0000
0000
,
1000
0000
0100
0000
0010
0000
0100
0010
0100
0010
0100
0000
0010
0000
0100
0010
,
0001
0000
0100
0000
0010
0000
0100
0010
0100
0010
0100
0000
0010
0000
0000
0000
,
1000
0000
0010
0000
0100
0000
0001
0100
0001
0100
0001
0000
0100
0000
0010
0100
,
0001
0000
0010
0000
0100
0000
1000
0100
1000
0100
1000
0000
0100
0000
0000
0000
,
0010
0000
0001
0000
1000
0000
0010
1000
0010
1000
0010
0000
1000
0000
0001
1000
,
0010
0000
1000
0000
0001
0000
0010
0001
0010
0001
0010
0000
0001
0000
0000
0000
,
0100
0000
0010
0000
1000
0000
0001
1000
0001
1000
0001
0000
1000
0000
0001
1000
,
0100
0000
0010
0000
0001
0000
1000
0001
1000
0001
1000
0000
0001
0000
0000
0000
,
1000
0000
0010
0000
0100
0000
0010
0100
0010
0100
0010
0000
0100
0000
0010
0100
,
0001
0000
0010
0000
0100
0000
0010
0100
0010
0100
0010
0000
0100
0000
0000
0000
,
1000
0000
0100
0000
0010
0000
0001
0010
0001
0010
0001
0000
0010
0000
0100
0010
,
0001
0000
0100
0000
0010
0000
1000
0010
1000
0010
1000
0000
0010
0000
0000
0000
,
0100
0000
0001
0000
1000
0000
0100
1000
0100
1000
0100
0000
1000
0000
0001
1000
,
0100
0000
1000
0000
0001
0000
0100
0001
0100
0001
0100
0000
0001
0000
0000
0000
,
0010
0000
0100
0000
1000
0000
0001
1000
0001
1000
0001
0000
1000
0000
0001
1000
,
0010
0000
0100
0000
0001
0000
1000
0001
1000
0001
1000
0000
0001
0000
0010
0000
,
0100
1000
0001
1000
0001
1000
0100
0010
0100
1000
0001
0100
0010
1000
0100
0010
,
0100
1000
0001
1000
0001
1000
0100
0010
0100
1000
0001
0010
0100
1000
0010
0100
,
0010
1000
0001
1000
0001
1000
0010
0100
0010
1000
0001
0100
0010
1000
0100
0010
,
0100
1000
0001
1000
0001
1000
0100
0010
0100
1000
0001
0100
0010
1000
0100
0010
,
0001
0100
0010
0100
0010
0100
0001
1000
0001
0100
0010
0100
0001
0010
0100
1000
,
0001
0100
0010
0100
0010
0100
0001
1000
0001
0100
0010
0100
0001
0010
0100
1000
,
0001
0100
0010
0100
0010
0100
0001
1000
0001
0010
0100
0010
0001
0100
0010
1000
,
0001
0010
0100
0010
0100
0010
0001
1000
0001
0010
0100
0010
0001
0100
0010
1000
,
0100
1000
0001
1000
0001
1000
0100
0010
0100
1000
0001
0100
0010
1000
0100
0010
,
0100
1000
0001
1000
0001
1000
0100
0010
0100
1000
0001
0010
0100
1000
0010
0100
,
0010
1000
0001
1000
0001
1000
0010
0100
0010
1000
0001
0100
0010
1000
0100
0010
,
0100
1000
0001
1000
0001
1000
0100
0010
0100
1000
0001
0100
0010
1000
0100
0010
,
0001
0100
0010
0100
0010
0100
0001
1000
0001
0100
0010
0100
0001
0010
0100
1000
,
0001
0100
0010
0100
0010
0100
0001
1000
0001
0100
0010
0100
0001
0010
0100
1000
,
0001
0100
0010
0100
0010
0100
0001
1000
0001
0100
0010
0100
0001
0010
0100
1000
,
0001
0100
0010
0100
0010
0100
0001
1000
0001
0010
0100
0010
0001
0100
0010
1000
,
0100
0010
0100
1000
0010
0100
0001
1000
0001
0010
0100
1000
0010
0100
0001
1000
,
0100
0010
0100
1000
0010
0100
0001
1000
0001
0010
0100
1000
0010
0100
0001
1000
,
0010
0100
0010
1000
0100
0010
0001
1000
0001
0100
0010
1000
0100
0010
0001
1000
,
0100
0010
0100
1000
0010
0100
0001
1000
0001
0010
0100
1000
0010
0100
0001
1000
,
0010
1000
0010
1000
0100
0010
0001
1000
0001
1000
0010
1000
0100
0010
0001
1000
,
0010
1000
0010
1000
0100
0010
0001
1000
0001
1000
0010
1000
0100
0010
0001
1000
,
0010
1000
0010
1000
0100
0010
0001
1000
0001
1000
0010
1000
0100
0010
0001
1000
,
0100
1000
0100
1000
0010
0100
0001
1000
0001
1000
0100
1000
0010
0100
0001
1000
,
0010
0100
0010
1000
0100
0010
0001
1000
0001
0100
0010
1000
0100
0010
0001
1000
,
0010
0100
0010
1000
0100
0010
0001
1000
0001
0100
0010
1000
0100
0010
0001
1000
,
0100
0010
0100
1000
0010
0100
0001
1000
0001
0010
0100
1000
0010
0100
0001
1000
,
0010
0100
0010
1000
0100
0010
0001
1000
0001
0100
0010
1000
0100
0010
0001
1000
,
0100
1000
0100
1000
0010
0100
0001
1000
0001
1000
0100
1000
0010
0100
0001
1000
,
0100
1000
0100
1000
0010
0100
0001
1000
0001
1000
0100
1000
0010
0100
0001
1000
,
0100
1000
0100
1000
0010
0100
0001
1000
0001
1000
0100
1000
0010
0100
0001
1000
,
0100
1000
0100
1000
0010
0100
0001
1000
0001
1000
0100
1000
0010
0100
0001
0010
,
0001
1000
0100
1000
0100
0010
0001
0100
0001
1000
0100
1000
0010
0100
0010
1000
,
0001
1000
0100
1000
0100
0010
0001
0100
0001
1000
0100
1000
0010
0100
0010
1000
,
0001
1000
0010
1000
0010
0100
0001
0010
0001
1000
0010
1000
0100
0010
0100
1000
,
0001
1000
0100
1000
0100
0010
0001
0100
0001
1000
0100
1000
0010
0100
0010
1000
,
0001
1000
0010
0100
0010
1000
0001
0010
0001
1000
0010
1000
0100
0010
0100
1000
,
0001
1000
0010
0100
0010
1000
0001
0010
0001
1000
0010
1000
0100
0010
0100
1000
,
0001
1000
0010
0100
0010
1000
0001
0010
0001
1000
0010
1000
0100
0010
0100
1000
,
0001
1000
0100
0010
0100
1000
0001
0100
0001
1000
0100
1000
0010
0100
0010
1000
,
0001
1000
0010
1000
0010
0100
0001
0010
0001
1000
0010
1000
0100
0010
0100
1000
,
0001
1000
0010
1000
0010
0100
0001
0010
0001
1000
0010
1000
0100
0010
0100
1000
,
0001
1000
0100
1000
0100
0010
0001
0100
0001
1000
0100
1000
0010
0100
0010
1000
,
0001
1000
0010
1000
0010
0100
0001
0010
0001
1000
0010
1000
0100
0010
0100
1000
,
0001
1000
0100
0010
0100
1000
0001
0100
0001
1000
0100
1000
0010
0100
0010
1000
,
0001
1000
0100
0010
0100
1000
0001
0100
0001
1000
0100
1000
0010
0100
0010
1000
,
0001
1000
0100
0010
0100
1000
0001
0100
0001
1000
0100
1000
0010
0100
0010
1000
,
0001
1000
0100
0010
0100
1000
0001
0100
0001
1000
0100
1000
0010
0100
0010
1000
,
0001
0000
0000
0000
,
0000
0000
0000
0000
,
0000
M000
000M
M000
,
000M
0000
0000
0000
M000
0000
0000
0000
000M
0000
0000
0000
0000
M000
0000
0000
,
0000
000M
0000
M000
0000
000M
0000
M000
,
0000
000M
0000
0000
0000
M000
0000
0000
0000
000M
0000
0000
0000
M000
0000
0000
,
000M
0000
0000
M000
0000
0000
0000
000M
0000
0000
M000
0000
0000
000M
0000
0000
,
M000
0000
0000
000M
0000
0000
M000
0000
0000
0000
000M
0000
0000
M000
0000
0000
,
000M
0000
0000
0000
0000
0000
M000
0000
0000
0000
000M
0000
0000
0000
0000
0000
M000
0000
0000
0000
0000
000M
0000
0000
0000
0000
M000
0000
0000
0000
0000
0000
,
000M
0000
0000
0000
0000
M000
0000
0000
0000
0000
000M
0000
0000
0000
M000
0000
0000
0000
000M
0000
0000
0000
M000
0000
0000
0000
000M
0000
0000
0000
M000
0000
,
0000
0000
000M
0000
0000
0000
M000
0000
0000
0000
000M
0000
0000
0000
M000
0000
0000
0000
000M
0000
0000
0000
M000
0000
0000
0000
000M
0000
0000
M000
0000
0000
,
000M
M000
000M
M000
000M
M000
000M
M000
000M
M000
000M
M000
000M
M000
000M
M000
,
000M
M000
000M
M000
000M
M000
000M
M000
000M
M000
000M
M000
000M
M000
000M
M000
000M
M000
000M
M000
000M
M000
000M
M000
,
000M
M000
000M
M000
000M
M000
000M
M000
000M
M000
000M
M000
000M
M000
000M
M000
000M
M000
000M
M000
000M
M000
000M
M000
000M
M000
000M
M000
000M
M000
000M
M000
,
000M
M000
000M
M000
000M
M000
000M
M000
000M
M000
000M
M000
000M
M000
000M
M000
0000
0000
0000
0000
0000
0000
0000
0000
0000
0000
0000
0000
0000
0000
0000
0000
,
1001
0000
0000
1000
0100
1000
0100
0000
0010
0100
1000
0001
1000
0000
0001
0000
,
1000
0100
1000
0000
0010
0000
1000
0100
1000
0000
0001
0000
1000
0100
1000
0000
,
0010
0000
1000
0100
1000
0000
0001
0000
1000
0100
1000
0000
0010
0000
0100
0000
,
0001
0010
0001
0000
0100
0000
0001
0010
0001
0000
1000
0000
0001
0010
0001
0000
,
0100
0000
0001
0010
0001
0000
1000
0000
0001
0010
0001
0000
0100
0000
0010
0000
,
1000
0000
0010
1000
0100
0000
0010
0001
1000
0000
0010
1000
0100
0000
1000
0001
,
0010
0000
0001
0100
0001
0000
1000
0000
0001
0100
0001
0000
0010
0000
0100
0000
,
1000
0010
1000
0000
0100
0000
1000
0010
1000
0000
0001
0000
1000
0010
1000
0000
,
0100
0000
1000
0010
1000
0000
0001
0000
1000
0010
1000
0000
0100
0000
0010
0000
,
0001
0010
0100
0010
0001
0000
1000
0001
1000
0010
0100
0010
1000
0000
0001
1000
,
0100
0010
0100
1000
0010
0000
1000
0001
0100
0010
0100
0001
0010
0000
0001
1000
,
0001
0100
0010
0100
0001
0000
1000
0001
1000
0100
0010
0100
1000
0000
0001
1000
,
0010
0100
0010
1000
0100
0000
1000
0001
0010
0100
0010
0001
0100
0000
0001
1000
,
0001
0100
0010
0100
0001
0000
1000
0001
1000
0100
0010
0100
1000
0000
0001
1000
,
0010
0100
0010
1000
0100
0000
1000
0001
0010
0100
0010
0001
0100
0000
0001
1000
,
0001
0010
0100
0010
0001
0000
1000
0001
1000
0010
0100
0010
1000
0100
1000
0001
,
0000
0000
0000
0000
1001
0000
1001
0000
0001
0000
1000
0010
1000
0100
0010
0001
,
1000
0100
0010
0000
0100
0000
1000
0001
0000
0001
0100
0001
1000
0000
0001
1000
,
0000
1000
0100
1000
0001
0000
0010
0001
0000
0001
0100
0001
1000
0000
0010
1000
,
0000
1000
0100
1000
0001
0000
0100
0001
0000
0001
1000
0010
1000
0000
0100
1000
,
0000
1000
0001
0010
0001
0000
1000
0001
0000
0001
0100
0001
1000
0000
0001
1000
,
0000
1000
0100
1000
0001
0000
0010
0001
0000
0001
0100
0001
1000
0000
0010
1000
,
0000
1000
0100
1000
0001
0000
0100
0001
0000
0001
1000
0010
1000
0000
0100
1000
,
0000
1000
0001
0010
0001
0000
1000
0001
0000
0001
0100
0001
1000
0000
0001
1000
,
0010
0000
0100
0001
0100
0001
0010
0000
0100
1000
0100
1000
0010
0000
0100
0001
,
1000
0010
0100
0000
0010
0000
1000
0001
0000
0001
0010
0001
1000
0000
0001
1000
,
0000
1000
0010
1000
0001
0000
0100
0001
0000
0001
0010
0001
1000
0000
0100
1000
,
0000
1000
0010
1000
0001
0000
0010
0001
0000
0001
1000
0100
1000
0000
0010
1000
,
0000
1000
0001
0100
0001
0000
1000
0001
0000
0001
0010
0001
1000
0000
0001
1000
,
0100
0000
0010
0001
0100
0000
0010
1000
0001
0000
0001
0000
1001
0000
1000
0000
,
0001
0100
0010
0100
0001
0000
1000
0001
1000
0100
0010
0100
1000
0000
0001
1000
,
0010
0000
1000
0001
0010
0000
0001
1000
0010
0000
0010
0000
1010
0000
0010
0000
,
1000
0001
0010
0000
0100
1000
0010
0100
0010
0100
0001
1000
0001
0010
0100
1000
,
0001
0010
0001
0000
0100
0000
0001
0010
0001
0000
1000
0000
0001
0010
0001
0000
,
0100
0000
0001
0010
0001
0000
1000
0000
0001
0010
0001
0000
0100
0000
0010
0000
,
1000
0100
1000
0000
0010
0000
1000
0100
1000
0000
0001
0000
1000
0100
1000
0000
,
0010
0000
1000
0100
1000
0000
0001
0000
1000
0100
1000
0000
0010
0000
0100
0000
,
0001
0000
0100
0001
0010
0000
0100
1000
0001
0000
0100
0001
0010
0000
0001
1000
,
0100
0000
1000
0010
1000
0000
0001
0000
1000
0010
1000
0000
0100
0000
0010
0000
,
0001
0100
0001
0000
0010
0000
0001
0100
0001
0000
1000
0000
0001
0100
0001
0000
,
0010
0000
0001
0100
0001
0000
1000
0000
0001
0100
0001
0000
0010
0000
0100
0000
,
1000
0100
0010
0100
1000
0000
0001
1000
0001
0100
0010
0100
0001
0000
1000
0001
,
0010
0100
0010
0001
0100
0000
0001
1000
0010
0100
0010
1000
0100
0000
1000
0001
,
1000
0010
0100
0010
1000
0000
0001
1000
0001
0010
0100
0010
0001
0000
1000
0001
,
0100
0010
0100
0001
0010
0000
0001
1000
0100
0010
0100
1000
0010
0000
1000
0001
,
1000
0010
0100
0010
1000
0000
0001
1000
0001
0010
0100
0010
0001
0000
1000
0001
,
0100
0010
0100
0001
0010
0000
0001
1000
0100
0010
0100
1000
0010
0000
1000
0001
,
1000
0100
0010
0100
1000
0000
0001
1000
0001
0100
0010
0100
0001
0000
1000
0001
,
0010
0100
0010
0001
0100
0000
0001
1000
0010
0100
0001
1000
0001
0010
0100
1000
,
0001
0010
0100
0000
0010
0000
0001
1000
0000
1000
0010
1000
0001
0000
1000
0001
,
0000
0001
0010
0001
1000
0000
0100
1000
0000
1000
0010
1000
0001
0000
0100
0001
,
0000
0001
0010
0001
1000
0000
0010
1000
0000
1000
0001
0100
0001
0000
0010
0001
,
0000
0001
1000
0100
1000
0000
0001
1000
0000
1000
0010
1000
0001
0000
1000
0001
,
0000
0001
0010
0001
1000
0000
0100
1000
0000
1000
0010
1000
0001
0000
0100
0001
,
0000
0001
0010
0001
1000
0000
0010
1000
0000
1000
0001
0100
0001
0000
0010
0001
,
0000
0001
1000
0100
1000
0000
0001
1000
0000
1000
0010
1000
0001
0000
0100
0001
,
0000
0001
0100
0010
0100
0000
0010
1000
0000
1000
0100
0010
0100
0000
1000
0001
,
0000
0001
0100
0001
1000
0000
0001
1000
0000
1000
0100
1000
0001
0000
1000
0001
,
0000
0001
0100
0001
1000
0000
0010
1000
0000
1000
0100
1000
0001
0000
0010
0001
,
0000
0001
0100
0001
1000
0000
0100
1000
0000
1000
0001
0010
0001
0000
0100
0001
,
0000
0001
1000
0010
1000
0000
0001
1000
0000
1000
0100
1000
0001
0000
1000
0001
,
0000
0001
0100
0001
1000
0000
0010
1000
0000
1000
0100
1000
0001
0000
0010
0001
,
1000
1000
1001
0000
0000
0001
0011
0000
,
0010
0010
0110
0000
0000
0010
0011
0000
,
0001
0000
0010
0001
0100
0000
0010
1000
0001
0000
0010
0001
0100
0001
1000
0001
,
0000
0000
00M0
0000
00M0
0000
0000
00M0
0000
0000
00M0
0000
0000
0000
0000
0000
,
0000
0000
00M0
0000
00M0
0000
0000
00M0
0000
0000
00M0
0000
0000
0000
0000
0000
,
0000
0000
00M0
0000
00M0
0000
0000
00M0
0000
0000
00M0
0000
0000
0000
0000
0000
,
0000
0000
00M0
0000
00M0
0000
0000
00M0
0000
0000
00M0
0000
0000
0000
0000
0000
,
1000
0000
0001
0000
1000
0000
0100
1000
0001
0000
0100
0001
0010
0000
0001
0000
,
1000
0000
0001
0000
1000
0000
0010
1000
0001
0000
0010
0001
1000
0010
1000
0100
,
1000
0000
0001
0000
1000
0000
0100
1000
0001
0000
0100
0001
0010
0000
0001
0000
,
1000
0000
0001
0000
1000
0000
0010
1000
0001
0000
0010
0001
1000
0010
1000
0100
,
1000
0000
0001
0100
0001
1000
0100
1000
0001
0100
0001
1000
0010
0000
1000
0001
,
0010
0000
0100
1000
0001
0100
0001
1000
0100
1000
0001
0100
0001
0010
0001
1000
,
0001
0000
1000
0010
1000
0001
0010
0001
1000
0010
1000
0001
0100
0000
0001
1000
,
0100
0000
0010
0001
1000
0010
1000
0001
0010
0001
1000
0010
1000
0100
1000
0001
,
1000
0000
0001
0100
0001
1000
0100
1000
0001
0100
0001
1000
0010
0000
1000
0001
,
0010
0000
0100
1000
0001
0100
0001
1000
0100
1000
0001
0100
0001
0010
0001
1000
,
0001
0000
1000
0010
0100
0001
0010
0100
0010
0001
1000
0001
0100
0000
0001
1000
,
0100
0000
0010
0001
1000
0100
0010
0001
0100
0010
0100
0001
1000
0001
0010
0100
,
1000
0000
0001
0100
0001
1000
0100
1000
0001
0100
0001
1000
0010
0000
1000
0001
,
0010
0000
0100
1000
0001
0100
0001
1000
0100
1000
0001
0100
0001
0010
0001
1000
,
0001
0000
1000
0100
1000
0001
0100
0001
1000
0100
1000
0001
0010
0000
0001
1000
,
0100
0000
0010
0001
1000
0010
1000
0001
0010
0001
1000
0010
1000
0100
1000
0001
,
1000
0000
0001
0010
0100
1000
0010
0100
0010
1000
0001
1000
0100
0000
1000
0001
,
0100
0000
0010
1000
0001
0100
0010
1000
0100
0010
0100
1000
0001
1000
0010
0100
,
0001
0000
1000
0100
0010
0001
0100
0010
0100
0001
1000
0001
0010
0000
0001
1000
,
0010
0000
0100
0001
1000
0010
0100
0001
0010
0100
0010
0001
1000
0001
0100
0010
,
1000
0000
0001
0100
0010
1000
0100
0010
0001
0100
0010
0100
0001
0000
1000
0001
,
0010
0000
0100
1000
0001
0010
0100
1000
0010
0100
0001
1000
0010
0100
0010
1000
,
0001
0000
1000
0100
0010
0001
0100
0010
1000
0100
0010
0100
1000
0000
0001
1000
,
0100
0000
0010
0001
1000
0100
0010
0001
0100
0010
1000
0001
0100
0010
0100
0001
,
1000
0000
0001
0010
0001
1000
0010
1000
0001
0010
0001
1000
0100
0000
1000
0001
,
0100
0000
0010
1000
0001
0010
0001
1000
0010
1000
0001
0010
0001
0100
0001
1000
,
0001
0000
1000
0100
1000
0001
0100
0001
1000
0100
1000
0001
0010
0000
0001
1000
,
0010
0000
0100
0001
1000
0100
1000
0001
0100
0001
1000
0100
1000
0010
1000
0001
,
0100
0000
0000
0000
,
0000
0000
0000
0000
,
0000
M000
000M
M000
,
000M
0000
0000
0000
M000
0000
0000
0000
000M
0000
0000
0000
0000
M000
0000
0000
,
0000
000M
0000
M000
0000
000M
0000
M000
,
0000
000M
0000
0000
0000
M000
0000
0000
0000
000M
0000
0000
0000
M000
0000
0000
,
000M
0000
0000
M000
0000
0000
0000
000M
0000
0000
M000
0000
0000
000M
0000
0000
,
M000
0000
0000
000M
0000
0000
M000
0000
0000
0000
000M
0000
0000
M000
0000
0000
,
000M
0000
0000
0000
0000
0000
M000
0000
0000
0000
000M
0000
0000
0000
0000
0000
M000
0000
0000
0000
0000
000M
0000
0000
0000
0000
M000
0000
0000
0000
0000
0000
,
000M
0000
0000
0000
0000
M000
0000
0000
0000
0000
000M
0000
0000
0000
M000
0000
0000
0000
000M
0000
0000
0000
M000
0000
0000
0000
000M
0000
0000
0000
M000
0000
,
0000
0000
000M
0000
0000
0000
M000
0000
0000
0000
000M
0000
0000
0000
M000
0000
0000
0000
000M
0000
0000
0000
M000
0000
0000
0000
000M
0000
0000
M000
0000
0000
,
000M
M000
000M
M000
000M
M000
000M
M000
000M
M000
000M
M000
000M
M000
000M
M000
,
000M
M000
000M
M000
000M
M000
000M
M000
000M
M000
000M
M000
000M
M000
000M
M000
000M
M000
000M
M000
000M
M000
000M
M000
,
000M
M000
000M
M000
000M
M000
000M
M000
000M
M000
000M
M000
000M
M000
000M
M000
000M
M000
000M
M000
000M
M000
000M
M000
000M
M000
000M
M000
000M
M000
000M
M000
,
000M
M000
000M
M000
000M
M000
000M
M000
000M
M000
000M
M000
000M
M000
000M
M000
0000
0000
0000
0000
0000
0000
0000
0000
0000
0000
0000
0000
0000
0000
0000
0000
,
1001
0000
0000
0001
0010
0001
0010
0000
0100
0010
0001
1000
0001
0000
1000
0000
,
0001
0100
0001
0010
0100
1000
0001
1000
0010
1000
0100
1000
0001
0010
0001
1000
,
0100
0010
0001
0010
0001
1000
0010
0100
0001
0100
0001
1000
0100
0010
0001
1000
,
0001
0100
0001
0010
0100
1000
0001
1000
0010
1000
0100
1000
0001
0010
0001
1000
,
0100
0010
0001
0100
0001
1000
0010
0100
0001
0010
0001
1000
0100
0010
0001
1000
,
0001
0010
0100
0010
0001
0100
0010
0100
0001
0010
0100
0010
0001
0100
0010
1000
,
0100
0010
0001
0010
0001
1000
0010
0100
0001
0010
0001
1000
0010
0100
0001
1000
,
0001
0010
0001
1000
0100
0010
0001
1000
0100
1000
0010
1000
0100
0010
0001
1000
,
0100
0010
0001
1000
0010
1000
0100
0010
0001
1000
0010
1000
0100
0010
0001
1000
,
0001
0010
0100
0010
0001
0100
0001
1000
0001
0100
0010
0100
0001
0010
0001
1000
,
0100
0010
0100
1000
0010
0100
0001
1000
0010
0100
0010
1000
0100
0010
0001
1000
,
0001
0100
0010
0100
0001
0010
0001
1000
0001
0010
0100
0010
0001
0100
0001
1000
,
0010
0100
0010
1000
0100
0010
0001
1000
0100
0010
0100
1000
0010
0100
0001
1000
,
0001
0100
0010
0100
0001
0010
0001
1000
0001
0010
0100
0010
0001
0100
0001
1000
,
0010
0100
0010
1000
0100
0010
0001
1000
0100
0010
0100
1000
0010
0100
0001
1000
,
0001
0010
0100
0010
0001
0100
0001
1000
0001
0100
0010
0100
0001
0010
0001
1000
,
0000
0000
0000
0000
1001
0000
1001
0000
1000
0000
0001
0100
0001
0010
0100
1000
,
0001
1000
0010
0100
0001
0100
0010
1000
0100
0010
0001
0010
0001
0100
0010
1000
,
0100
1000
0001
1000
0001
0010
0100
1000
0010
0100
0001
0100
0001
0010
0100
1000
,
0010
1000
0001
1000
0001
0100
0010
1000
0100
1000
0001
1000
0001
0100
0010
1000
,
0100
0010
0001
0010
0001
0100
0010
1000
0100
1000
0001
1000
0001
0010
0100
1000
,
0010
0100
0001
0100
0001
0010
0100
1000
0010
0100
0001
0100
0001
0010
0100
1000
,
0001
0010
0100
0010
0001
0100
0001
1000
0001
0100
0010
0100
0001
0010
0001
1000
,
0100
0010
0100
1000
0010
0100
0001
1000
0100
0010
0001
0010
0001
0100
0010
1000
,
0100
0010
0001
1000
0010
1000
0100
0010
0001
1000
0010
1000
0100
0010
0001
1000
,
0001
1000
0010
0100
0001
0100
0010
1000
0100
0010
0001
0010
0001
0100
0010
1000
,
0100
1000
0001
1000
0001
0010
0100
1000
0010
0100
0001
0100
0001
0010
0100
1000
,
0010
1000
0001
1000
0001
0100
0010
1000
0100
1000
0001
1000
0001
0100
0010
1000
,
0100
0010
0001
0010
0001
0100
0010
1000
0100
1000
0001
1000
0001
0010
0100
1000
,
0010
0100
0001
1000
0010
1000
0001
0100
0010
1000
0010
0100
0001
1000
0010
0100
,
0001
0010
0100
0010
0001
0100
0001
1000
0001
0100
0010
0100
0001
0010
0001
1000
,
0100
0010
0100
1000
0010
0100
0001
1000
0010
0100
0010
1000
0100
0010
0001
1000
,
0010
0100
0001
1000
0010
0100
0010
1000
0100
0010
0100
1000
0001
0100
0010
1000
,
0001
0100
0001
0010
0100
1000
0001
1000
0010
1000
0100
1000
0001
0010
0001
1000
,
0100
0010
0001
0010
0001
1000
0010
0100
0001
0100
0001
1000
0100
0010
0001
1000
,
0001
0100
0001
0010
0100
1000
0001
1000
0010
1000
0100
1000
0001
0010
0001
1000
,
0100
0010
0001
0100
0001
1000
0010
0100
0001
0010
0001
1000
0100
0010
0001
1000
,
0001
0010
0100
0010
0001
0100
0010
0100
0001
0010
0100
0010
0001
0100
0010
1000
,
0100
0010
0001
0010
0001
1000
0010
0100
0001
0010
0001
1000
0010
0100
0001
1000
,
0001
0010
0001
1000
0100
0010
0001
1000
0100
1000
0010
1000
0100
0010
0001
1000
,
0100
0010
0001
1000
0010
1000
0100
0010
0001
1000
0010
1000
0100
0010
0001
1000
,
0001
0010
0100
0010
0001
0100
0001
1000
0001
0100
0010
0100
0001
0010
0001
1000
,
0100
0010
0100
1000
0010
0100
0001
1000
0010
0100
0010
1000
0100
0010
0001
1000
,
0001
0100
0010
0100
0001
0010
0001
1000
0001
0010
0100
0010
0001
0100
0001
1000
,
0010
0100
0010
1000
0100
0010
0001
1000
0100
0010
0100
1000
0010
0100
0001
1000
,
0001
0100
0010
0100
0001
0010
0001
1000
0001
0010
0100
0010
0001
0100
0001
1000
,
0010
0100
0010
1000
0100
0010
0001
1000
0100
0010
0100
1000
0010
0100
0001
1000
,
0001
0010
0100
0010
0001
0100
0001
1000
0001
0100
0010
0100
0001
0010
0001
1000
,
0100
0010
0100
1000
0010
0100
0001
1000
0010
0100
0010
1000
0100
0010
0001
1000
,
0001
1000
0010
0100
0001
0100
0010
1000
0100
0010
0001
0010
0001
0100
0010
1000
,
0100
1000
0001
1000
0001
0010
0100
1000
0010
0100
0001
0100
0001
0010
0100
1000
,
0010
1000
0001
1000
0001
0100
0010
1000
0100
1000
0001
1000
0001
0100
0010
1000
,
0100
0010
0001
0010
0001
0100
0010
1000
0100
1000
0001
1000
0001
0010
0100
1000
,
0010
0100
0001
0100
0001
0010
0100
1000
0010
0100
0001
0100
0001
0010
0100
1000
,
0001
0010
0100
0010
0001
0100
0001
1000
0001
0100
0010
0100
0001
0010
0001
1000
,
0100
0010
0100
1000
0010
0100
0001
1000
0100
0010
0001
0010
0001
0100
0010
1000
,
0100
0010
0100
1000
0001
1000
0100
0010
0001
1000
0100
1000
0010
0100
0001
1000
,
0001
1000
0010
0100
0001
0100
0010
1000
0100
0010
0001
0010
0001
0100
0010
1000
,
0100
1000
0001
1000
0001
0010
0100
1000
0010
0100
0001
0100
0001
0010
0100
1000
,
0010
1000
0001
1000
0001
0100
0010
1000
0100
1000
0001
1000
0001
0100
0010
1000
,
0100
0010
0001
0010
0001
0100
0010
1000
0100
1000
0001
1000
0001
0010
0100
1000
,
0010
0100
0001
1000
0010
1000
0001
0100
0010
1000
0010
0100
0001
1000
0010
0100
,
0001
0010
0100
0010
0001
0100
0001
1000
0001
0100
0010
0100
0001
0010
0001
1000
,
0100
0010
0100
1000
0010
0100
0001
1000
0010
0100
0010
1000
0100
0010
0001
1000
,
0010
1000
0001
1000
0010
1000
0001
1000
0010
1000
0010
1000
0100
0010
0001
1000
,
0001
1000
0010
0100
0001
0100
0001
1000
0100
0010
0001
0010
0001
0100
0010
1000
,
0100
1000
0001
1000
0001
0010
0100
1000
0010
0100
0001
0100
0001
0010
0100
1000
,
0010
1000
0001
1000
0001
0100
0010
1000
0100
1000
0001
1000
0001
0100
0010
1000
,
0100
0010
0001
0010
0001
0100
0010
1000
0100
1000
0001
1000
0001
0010
0100
1000
,
0001
1000
0100
0010
0001
0010
0001
1000
0010
0100
0001
0100
0001
0010
0100
1000
,
0010
1000
0001
1000
0001
0100
0010
1000
0100
0010
0001
0010
0001
0100
0010
1000
,
0100
1000
0001
1000
0001
0010
0100
1000
0010
1000
0001
1000
0001
0010
0100
1000
,
0010
0100
0001
0100
0001
0010
0100
1000
0010
1000
0001
1000
0001
0100
0010
1000
,
0001
1000
0010
0100
0001
0100
0001
1000
0100
0010
0001
0010
0001
0100
0010
1000
,
0100
1000
0001
1000
0001
0010
0100
1000
0010
0100
0001
0100
0001
0010
0100
1000
,
0010
1000
0001
1000
0001
0100
0010
1000
0100
1000
0001
1000
0001
0100
0010
1000
,
0100
0010
0001
0010
0001
0100
0010
1000
0100
1000
0001
1000
0001
0010
0100
1000
,
0001
1000
0100
0010
0001
0010
0001
1000
0010
0100
0001
0100
0001
0010
0100
1000
,
0010
1000
0001
1000
0001
0100
0010
1000
0100
0010
0001
0010
0001
0100
0010
1000
,
0100
1000
0001
1000
0001
0010
0100
1000
0010
1000
0001
1000
0001
0010
0100
1000
,
0001
0010
0100
0010
0001
0100
0001
1000
0001
0100
0010
0100
0001
0010
0001
1000
,
0200
130M
00M0
0000
0000
00M0
000M
0000
,
0000
000M
00M0
0000
0000
00M0
000M
0000
,
0000
000M
00M0
0000
0000
00M0
000M
0000
;

//---------------dance-single - I. Pyles----------------
#NOTES:
     dance-single:
     I. Pyles:
     Challenge:
     16:
     1.000,1.000,0.016,0.003,1.000,3637.000,6.000,1.000,298.000,0.000:

0000
0000
0000
0000
,
1000
0000
0100
0000
0010
0000
0100
0010
0100
0010
0100
0000
0010
0000
0100
0010
,
0001
0000
0100
0000
0010
0000
0100
0010
0100
0010
0100
0000
0010
0000
0000
0000
,
1000
0000
0010
0000
0100
0000
0001
0100
0001
0100
0001
0000
0100
0000
0010
0100
,
0001
0000
0010
0000
0100
0000
1000
0100
1000
0100
1000
0000
0100
0000
0000
0000
,
0010
0000
0001
0000
1000
0000
0010
1000
0010
1000
0010
0000
1000
0000
0001
1000
,
0010
0000
1000
0000
0001
0000
0010
0001
0010
0001
0010
0000
0001
0000
0000
0000
,
0100
0000
0010
0000
1000
0000
0001
1000
0001
1000
0001
0000
1000
0000
0001
1000
,
0100
0000
0010
0000
0001
0000
1000
0001
1000
0001
1000
0000
0001
0000
0000
0000
,
1000
0000
0010
0000
0100
0000
0010
0100
0010
0100
0010
0000
0100
0000
0010
0100
,
0001
0000
0010
0000
0100
0000
0010
0100
0010
0100
0010
0000
0100
0000
0000
0000
,
1000
0000
0100
0000
0010
0000
0001
0010
0001
0010
0001
0000
0010
0000
0100
0010
,
0001
0000
0100
0000
0010
0000
1000
0010
1000
0010
1000
0000
0010
0000
0000
0000
,
0100
0000
0001
0000
1000
0000
0100
1000
0100
1000
0100
0000
1000
0000
0001
1000
,
0100
0000
1000
0000
0001
0000
0100
0001
0100
0001
0100
0000
0001
0000
0000
0000
,
0010
0000
0100
0000
1000
0000
0001
1000
0001
1000
0001
0000
1000
0000
0001
1000
,
0010
0000
0100
0000
0001
0000
1000
0001
1000
0001
1000
0000
0001
0000
0010
0000
,
0100
1000
0001
1000
0001
1000
0100
0010
0100
1000
0001
0100
0010
1000
0100
0010
,
0100
1000
0001
1000
0001
1000
0100
0010
0100
1000
0001
0010
0100
1000
0010
0100
,
0010
1000
0001
1000
0001
1000
0010
0100
0010
1000
0001
0100
0010
1000
0100
0010
,
0100
1000
0001
1000
0001
1000
0100
0010
0100
1000
0001
0100
0010
1000
0100
0010
,
0001
0100
0010
0100
0010
0100
0001
1000
0001
0100
0010
0100
0001
0010
0100
1000
,
0001
0100
0010
0100
0010
0100
0001
1000
0001
0100
0010
0100
0001
0010
0100
1000
,
0001
0100
0010
0100
0010
0100
0001
1000
0001
0010
0100
0010
0001
0100
0010
1000
,
0001
0010
0100
0010
0100
0010
0001
1000
0001
0010
0100
0010
0001
0100
0010
1000
,
0100
1000
0001
1000
0001
1000
0100
0010
0100
1000
0001
0100
0010
1000
0100
0010
,
0100
1000
0001
1000
0001
1000
0100
0010
0100
1000
0001
0010
0100
1000
0010
0100
,
0010
1000
0001
1000
0001
1000
0010
0100
0010
1000
0001
0100
0010
1000
0100
0010
,
0100
1000
0001
1000
0001
1000
0100
0010
0100
1000
0001
0100
0010
1000
0100
0010
,
0001
0100
0010
0100
0010
0100
0001
1000
0001
0100
0010
0100
0001
0010
0100
1000
,
0001
0100
0010
0100
0010
0100
0001
1000
0001
0100
0010
0100
0001
0010
0100
1000
,
0001
0100
0010
0100
0010
0100
0001
1000
0001
0100
0010
0100
0001
0010
0100
1000
,
0001
0100
0010
0100
0010
0100
0001
1000
0001
0010
0100
0010
0001
0100
0010
1000
,
0100
0010
0100
1000
0010
0100
0001
1000
0001
0010
0100
1000
0010
0100
0001
1000
,
0100
0010
0100
1000
0010
0100
0001
1000
0001
0010
0100
1000
0010
0100
0001
1000
,
0010
0100
0010
1000
0100
0010
0001
1000
0001
0100
0010
1000
0100
0010
0001
1000
,
0100
0010
0100
1000
0010
0100
0001
1000
0001
0010
0100
1000
0010
0100
0001
1000
,
0010
1000
0010
1000
0100
0010
0001
1000
0001
1000
0010
1000
0100
0010
0001
1000
,
0010
1000
0010
1000
0100
0010
0001
1000
0001
1000
0010
1000
0100
0010
0001
1000
,
0010
1000
0010
1000
0100
0010
0001
1000
0001
1000
0010
1000
0100
0010
0001
1000
,
0100
1000
0100
1000
0010
0100
0001
1000
0001
1000
0100
1000
0010
0100
0001
1000
,
0010
0100
0010
1000
0100
0010
0001
1000
0001
0100
0010
1000
0100
0010
0001
1000
,
0010
0100
0010
1000
0100
0010
0001
1000
0001
0100
0010
1000
0100
0010
0001
1000
,
0100
0010
0100
1000
0010
0100
0001
1000
0001
0010
0100
1000
0010
0100
0001
1000
,
0010
0100
0010
1000
0100
0010
0001
1000
0001
0100
0010
1000
0100
0010
0001
1000
,
0100
1000
0100
1000
0010
0100
0001
1000
0001
1000
0100
1000
0010
0100
0001
1000
,
0100
1000
0100
1000
0010
0100
0001
1000
0001
1000
0100
1000
0010
0100
0001
1000
,
0100
1000
0100
1000
0010
0100
0001
1000
0001
1000
0100
1000
0010
0100
0001
1000
,
0100
1000
0100
1000
0010
0100
0001
1000
0001
1000
0100
1000
0010
0100
0001
0010
,
0001
1000
0100
1000
0100
0010
0001
0100
0001
1000
0100
1000
0010
0100
0010
1000
,
0001
1000
0100
1000
0100
0010
0001
0100
0001
1000
0100
1000
0010
0100
0010
1000
,
0001
1000
0010
1000
0010
0100
0001
0010
0001
1000
0010
1000
0100
0010
0100
1000
,
0001
1000
0100
1000
0100
0010
0001
0100
0001
1000
0100
1000
0010
0100
0010
1000
,
0001
1000
0010
0100
0010
1000
0001
0010
0001
1000
0010
1000
0100
0010
0100
1000
,
0001
1000
0010
0100
0010
1000
0001
0010
0001
1000
0010
1000
0100
0010
0100
1000
,
0001
1000
0010
0100
0010
1000
0001
0010
0001
1000
0010
1000
0100
0010
0100
1000
,
0001
1000
0100
0010
0100
1000
0001
0100
0001
1000
0100
1000
0010
0100
0010
1000
,
0001
1000
0010
1000
0010
0100
0001
0010
0001
1000
0010
1000
0100
0010
0100
1000
,
0001
1000
0010
1000
0010
0100
0001
0010
0001
1000
0010
1000
0100
0010
0100
1000
,
0001
1000
0100
1000
0100
0010
0001
0100
0001
1000
0100
1000
0010
0100
0010
1000
,
0001
1000
0010
1000
0010
0100
0001
0010
0001
1000
0010
1000
0100
0010
0100
1000
,
0001
1000
0100
0010
0100
1000
0001
0100
0001
1000
0100
1000
0010
0100
0010
1000
,
0001
1000
0100
0010
0100
1000
0001
0100
0001
1000
0100
1000
0010
0100
0010
1000
,
0001
1000
0100
0010
0100
1000
0001
0100
0001
1000
0100
1000
0010
0100
0010
1000
,
0001
1000
0100
0010
0100
1000
0001
0100
0001
1000
0100
1000
0010
0100
0010
1000
,
0001
0000
0000
0000
,
0000
0000
0000
0000
,
0000
M000
000M
M000
,
000M
0000
0000
0000
M000
0000
0000
0000
000M
0000
0000
0000
0000
M000
0000
0000
,
0000
000M
0000
M000
0000
000M
0000
M000
,
0000
000M
0000
0000
0000
M000
0000
0000
0000
000M
0000
0000
0000
M000
0000
0000
,
000M
0000
0000
M000
0000
0000
0000
000M
0000
0000
M000
0000
0000
000M
0000
0000
,
M000
0000
0000
000M
0000
0000
M000
0000
0000
0000
000M
0000
0000
M000
0000
0000
,
000M
0000
0000
0000
0000
0000
M000
0000
0000
0000
000M
0000
0000
0000
0000
0000
M000
0000
0000
0000
0000
000M
0000
0000
0000
0000
M000
0000
0000
0000
0000
0000
,
000M
0000
0000
0000
0000
M000
0000
0000
0000
0000
000M
0000
0000
0000
M000
0000
0000
0000
000M
0000
0000
0000
M000
0000
0000
0000
000M
0000
0000
0000
M000
0000
,
0000
0000
000M
0000
0000
0000
M000
0000
0000
0000
000M
0000
0000
0000
M000
0000
0000
0000
000M
0000
0000
0000
M000
0000
0000
0000
000M
0000
0000
M000
0000
0000
,
000M
M000
000M
M000
000M
M000
000M
M000
000M
M000
000M
M000
000M
M000
000M
M000
,
000M
M000
000M
M000
000M
M000
000M
M000
000M
M000
000M
M000
000M
M000
000M
M000
000M
M000
000M
M000
000M
M000
000M
M000
,
000M
M000
000M
M000
000M
M000
000M
M000
000M
M000
000M
M000
000M
M000
000M
M000
000M
M000
000M
M000
000M
M000
000M
M000
000M
M000
000M
M000
000M
M000
000M
M000
,
000M
M000
000M
M000
000M
M000
000M
M000
000M
M000
000M
M000
000M
M000
000M
M000
0000
0000
0000
0000
0000
0000
0000
0000
0000
0000
0000
0000
0000
0000
0000
0000
,
1001
0000
0000
1000
0100
1000
0100
0000
0010
0100
1000
0001
1000
0000
0001
0000
,
1000
0010
1000
0100
0010
0001
1000
0001
0100
0001
0010
0001
1000
0100
1000
0001
,
0010
0100
1000
0100
1000
0001
0100
0010
1000
0010
1000
0001
0010
0100
1000
0001
,
1000
0010
1000
0100
0010
0001
1000
0001
0100
0001
0010
0001
1000
0100
1000
0001
,
0010
0100
1000
0010
1000
0001
0100
0010
1000
0100
1000
0001
0010
0100
1000
0001
,
1000
0100
0010
0100
1000
0010
0100
0010
1000
0100
0010
0100
1000
0010
0100
0001
,
0010
0100
1000
0100
1000
0001
0100
0010
1000
0100
1000
0001
0100
0010
1000
0001
,
1000
0100
1000
0001
0010
0100
1000
0001
0010
0001
0100
0001
0010
0100
1000
0001
,
0010
0100
1000
0001
0100
0001
0010
0100
1000
0001
0100
0001
0010
0100
1000
0001
,
1000
0100
0010
0100
1000
0010
1000
0001
1000
0010
0100
0010
1000
0100
1000
0001
,
0010
0100
0010
0001
0100
0010
1000
0001
0100
0010
0100
0001
0010
0100
1000
0001
,
1000
0010
0100
0010
1000
0100
1000
0001
1000
0100
0010
0100
1000
0010
1000
0001
,
0100
0010
0100
0001
0010
0100
1000
0001
0010
0100
0010
0001
0100
0010
1000
0001
,
1000
0010
0100
0010
1000
0100
1000
0001
1000
0100
0010
0100
1000
0010
1000
0001
,
0100
0010
0100
0001
0010
0100
1000
0001
0010
0100
0010
0001
0100
0010
1000
0001
,
1000
0100
0010
0100
1000
0010
1000
0001
1000
0010
0100
0010
1000
0100
1000
0001
,
0000
0000
0000
0000
1001
0000
1001
0000
0001
0000
1000
0010
1000
0100
0010
0001
,
1000
0001
0100
0010
1000
0010
0100
0001
0010
0100
1000
0100
1000
0010
0100
0001
,
0010
0001
1000
0001
1000
0100
0010
0001
0100
0010
1000
0010
1000
0100
0010
0001
,
0100
0001
1000
0001
1000
0010
0100
0001
0010
0001
1000
0001
1000
0010
0100
0001
,
0010
0100
1000
0100
1000
0010
0100
0001
0010
0001
1000
0001
1000
0100
0010
0001
,
0100
0010
1000
0010
1000
0100
0010
0001
0100
0010
1000
0010
1000
0100
0010
0001
,
1000
0100
0010
0100
1000
0010
1000
0001
1000
0010
0100
0010
1000
0100
1000
0001
,
0010
0100
0010
0001
0100
0010
1000
0001
0010
0100
1000
0100
1000
0010
0100
0001
,
0010
0100
1000
0001
0100
0001
0010
0100
1000
0001
0100
0001
0010
0100
1000
0001
,
1000
0001
0100
0010
1000
0010
0100
0001
0010
0100
1000
0100
1000
0010
0100
0001
,
0010
0001
1000
0001
1000
0100
0010
0001
0100
0010
1000
0010
1000
0100
0010
0001
,
0100
0001
1000
0001
1000
0010
0100
0001
0010
0001
1000
0001
1000
0010
0100
0001
,
0010
0100
1000
0100
1000
0010
0100
0001
0010
0001
1000
0001
1000
0100
0010
0001
,
0100
0010
1000
0001
0100
0001
1000
0010
0100
0001
0100
0010
1000
0001
0100
0010
,
1000
0100
0010
0100
1000
0010
1000
0001
1000
0010
0100
0010
1000
0100
1000
0001
,
0010
0100
0010
0001
0100
0010
1000
0001
0100
0010
0100
0001
0010
0100
1000
0001
,
0100
0010
1000
0001
0100
0010
0100
0001
0010
0100
0010
0001
1000
0010
0100
0001
,
1000
0010
1000
0100
0010
0001
1000
0001
0100
0001
0010
0001
1000
0100
1000
0001
,
0010
0100
1000
0100
1000
0001
0100
0010
1000
0010
1000
0001
0010
0100
1000
0001
,
1000
0010
1000
0100
0010
0001
1000
0001
0100
0001
0010
0001
1000
0100
1000
0001
,
0010
0100
1000
0010
1000
0001
0100
0010
1000
0100
1000
0001
0010
0100
1000
0001
,
1000
0100
0010
0100
1000
0010
0100
0010
1000
0100
0010
0100
1000
0010
0100
0001
,
0010
0100
1000
0100
1000
0001
0100
0010
1000
0100
1000
0001
0100
0010
1000
0001
,
1000
0100
1000
0001
0010
0100
1000
0001
0010
0001
0100
0001
0010
0100
1000
0001
,
0010
0100
1000
0001
0100
0001
0010
0100
1000
0001
0100
0001
0010
0100
1000
0001
,
1000
0100
0010
0100
1000
0010
1000
0001
1000
0010
0100
0010
1000
0100
1000
0001
,
0010
0100
0010
0001
0100
0010
1000
0001
0100
0010
0100
0001
0010
0100
1000
0001
,
1000
0010
0100
0010
1000
0100
1000
0001
1000
0100
0010
0100
1000
0010
1000
0001
,
0100
0010
0100
0001
0010
0100
1000
0001
0010
0100
0010
0001
0100
0010
1000
0001
,
1000
0010
0100
0010
1000
0100
1000
0001
1000
0100
0010
0100
1000
0010
1000
0001
,
0100
0010
0100
0001
0010
0100
1000
0001
0010
0100
0010
0001
0100
0010
1000
0001
,
1000
0100
0010
0100
1000
0010
1000
0001
1000
0010
0100
0010
1000
0100
1000
0001
,
0010
0100
0010
0001
0100
0010
1000
0001
0100
0010
0100
0001
0010
0100
1000
0001
,
1000
0001
0100
0010
1000
0010
0100
0001
0010
0100
1000
0100
1000
0010
0100
0001
,
0010
0001
1000
0001
1000
0100
0010
0001
0100
0010
1000
0010
1000
0100
0010
0001
,
0100
0001
1000
0001
1000
0010
0100
0001
0010
0001
1000
0001
1000
0010
0100
0001
,
0010
0100
1000
0100
1000
0010
0100
0001
0010
0001
1000
0001
1000
0100
0010
0001
,
0100
0010
1000
0010
1000
0100
0010
0001
0100
0010
1000
0010
1000
0100
0010
0001
,
1000
0100
0010
0100
1000
0010
1000
0001
1000
0010
0100
0010
1000
0100
1000
0001
,
0010
0100
0010
0001
0100
0010
1000
0001
0010
0100
1000
0100
1000
0010
0100
0001
,
0010
0100
0010
0001
1000
0001
0010
0100
1000
0001
0010
0001
0100
0010
1000
0001
,
1000
0001
0100
0010
1000
0010
0100
0001
0010
0100
1000
0100
1000
0010
0100
0001
,
0010
0001
1000
0001
1000
0100
0010
0001
0100
0010
1000
0010
1000
0100
0010
0001
,
0100
0001
1000
0001
1000
0010
0100
0001
0010
0001
1000
0001
1000
0010
0100
0001
,
0010
0100
1000
0100
1000
0010
0100
0001
0010
0001
1000
0001
1000
0100
0010
0001
,
0100
0010
1000
0001
0100
0001
1000
0010
0100
0001
0100
0010
1000
0001
0100
0010
,
1000
0100
0010
0100
1000
0010
1000
0001
1000
0010
0100
0010
1000
0100
1000
0001
,
0010
0100
0010
0001
0100
0010
1000
0001
0100
0010
0100
0001
0010
0100
1000
0001
,
0100
0001
1000
0001
0100
0001
1000
0001
0100
0001
0100
0001
0010
0100
1000
0001
,
0000
0000
00M0
0000
00M0
0000
0000
00M0
0000
0000
00M0
0000
0000
0000
0000
0000
,
0000
0000
00M0
0000
00M0
0000
0000
00M0
0000
0000
00M0
0000
0000
0000
0000
0000
,
0000
0000
00M0
0000
00M0
0000
0000
00M0
0000
0000
00M0
0000
0000
0000
0000
0000
,
0000
0000
00M0
0000
00M0
0000
0000
00M0
0000
0000
00M0
0000
0000
0000
0000
0000
,
1000
0000
0001
0000
1000
0000
0100
1000
0001
0000
0100
0001
0010
0000
0001
0000
,
1000
0000
0001
0000
1000
0000
0010
1000
0001
0000
0010
0001
1000
0010
1000
0100
,
1000
0000
0001
0000
1000
0000
0100
1000
0001
0000
0100
0001
0010
0000
0001
0000
,
1000
0000
0001
0000
1000
0000
0010
1000
0001
0000
0010
0001
1000
0010
1000
0100
,
1000
0000
0001
0100
0001
1000
0100
1000
0001
0100
0001
1000
0010
0000
1000
0001
,
0010
0000
0100
1000
0001
0100
0001
1000
0100
1000
0001
0100
0001
0010
0001
1000
,
0001
0000
1000
0010
1000
0001
0010
0001
1000
0010
1000
0001
0100
0000
0001
1000
,
0100
0000
0010
0001
1000
0010
1000
0001
0010
0001
1000
0010
1000
0100
1000
0001
,
1000
0000
0001
0100
0001
1000
0100
1000
0001
0100
0001
1000
0010
0000
1000
0001
,
0010
0000
0100
1000
0001
0100
0001
1000
0100
1000
0001
0100
0001
0010
0001
1000
,
0001
0000
1000
0010
0100
0001
0010
0100
0010
0001
1000
0001
0100
0000
0001
1000
,
0100
0000
0010
0001
1000
0100
0010
0001
0100
0010
0100
0001
1000
0001
0010
0100
,
1000
0000
0001
0100
0001
1000
0100
1000
0001
0100
0001
1000
0010
0000
1000
0001
,
0010
0000
0100
1000
0001
0100
0001
1000
0100
1000
0001
0100
0001
0010
0001
1000
,
0001
0000
1000
0100
1000
0001
0100
0001
1000
0100
1000
0001
0010
0000
0001
1000
,
0100
0000
0010
0001
1000
0010
1000
0001
0010
0001
1000
0010
1000
0100
1000
0001
,
1000
0000
0001
0010
0100
1000
0010
0100
0010
1000
0001
1000
0100
0000
1000
0001
,
0100
0000
0010
1000
0001
0100
0010
1000
0100
0010
0100
1000
0001
1000
0010
0100
,
0001
0000
1000
0100
0010
0001
0100
0010
0100
0001
1000
0001
0010
0000
0001
1000
,
0010
0000
0100
0001
1000
0010
0100
0001
0010
0100
0010
0001
1000
0001
0100
0010
,
1000
0000
0001
0100
0010
1000
0100
0010
0001
0100
0010
0100
0001
0000
1000
0001
,
0010
0000
0100
1000
0001
0010
0100
1000
0010
0100
0001
1000
0010
0100
0010
1000
,
0001
0000
1000
0100
0010
0001
0100
0010
1000
0100
0010
0100
1000
0000
0001
1000
,
0100
0000
0010
0001
1000
0100
0010
0001
0100
0010
1000
0001
0100
0010
0100
0001
,
1000
0000
0001
0010
0001
1000
0010
1000
0001
0010
0001
1000
0100
0000
1000
0001
,
0100
0000
0010
1000
0001
0010
0001
1000
0010
1000
0001
0010
0001
0100
0001
1000
,
0001
0000
1000
0100
1000
0001
0100
0001
1000
0100
1000
0001
0010
0000
0001
1000
,
0010
0000
0100
0001
1000
0100
1000
0001
0100
0001
1000
0100
1000
0010
1000
0001
,
0100
0000
0000
0000
,
0000
0000
0000
0000
,
0000
M000
000M
M000
,
000M
0000
0000
0000
M000
0000
0000
0000
000M
0000
0000
0000
0000
M000
0000
0000
,
0000
000M
0000
M000
0000
000M
0000
M000
,
0000
000M
0000
0000
0000
M000
0000
0000
0000
000M
0000
0000
0000
M000
0000
0000
,
000M
0000
0000
M000
0000
0000
0000
000M
0000
0000
M000
0000
0000
000M
0000
0000
,
M000
0000
0000
000M
0000
0000
M000
0000
0000
0000
000M
0000
0000
M000
0000
0000
,
000M
0000
0000
0000
0000
0000
M000
0000
0000
0000
000M
0000
0000
0000
0000
0000
M000
0000
0000
0000
0000
000M
0000
0000
0000
0000
M000
0000
0000
0000
0000
0000
,
000M
0000
0000
0000
0000
M000
0000
0000
0000
0000
000M
0000
0000
0000
M000
0000
0000
0000
000M
0000
0000
0000
M000
0000
0000
0000
000M
0000
0000
0000
M000
0000
,
0000
0000
000M
0000
0000
0000
M000
0000
0000
0000
000M
0000
0000
0000
M000
0000
0000
0000
000M
0000
0000
0000
M000
0000
0000
0000
000M
0000
0000
M000
0000
0000
,
000M
M000
000M
M000
000M
M000
000M
M000
000M
M000
000M
M000
000M
M000
000M
M000
,
000M
M000
000M
M000
000M
M000
000M
M000
000M
M000
000M
M000
000M
M000
000M
M000
000M
M000
000M
M000
000M
M000
000M
M000
,
000M
M000
000M
M000
000M
M000
000M
M000
000M
M000
000M
M000
000M
M000
000M
M000
000M
M000
000M
M000
000M
M000
000M
M000
000M
M000
000M
M000
000M
M000
000M
M000
,
000M
M000
000M
M000
000M
M000
000M
M000
000M
M000
000M
M000
000M
M000
000M
M000
0000
0000
0000
0000
0000
0000
0000
0000
0000
0000
0000
0000
0000
0000
0000
0000
,
1001
0000
0000
0001
0010
0001
0010
0000
0100
0010
0001
1000
0001
0000
1000
0000
,
0001
0100
0001
0010
0100
1000
0001
1000
0010
1000
0100
1000
0001
0010
0001
1000
,
0100
0010
0001
0010
0001
1000
0010
0100
0001
0100
0001
1000
0100
0010
0001
1000
,
0001
0100
0001
0010
0100
1000
0001
1000
0010
1000
0100
1000
0001
0010
0001
1000
,
0100
0010
0001
0100
0001
1000
0010
0100
0001
0010
0001
1000
0100
0010
0001
1000
,
0001
0010
0100
0010
0001
0100
0010
0100
0001
0010
0100
0010
0001
0100
0010
1000
,
0100
0010
0001
0010
0001
1000
0010
0100
0001
0010
0001
1000
0010
0100
0001
1000
,
0001
0010
0001
1000
0100
0010
0001
1000
0100
1000
0010
1000
0100
0010
0001
1000
,
0100
0010
0001
1000
0010
1000
0100
0010
0001
1000
0010
1000
0100
0010
0001
1000
,
0001
0010
0100
0010
0001
0100
0001
1000
0001
0100
0010
0100
0001
0010
0001
1000
,
0100
0010
0100
1000
0010
0100
0001
1000
0010
0100
0010
1000
0100
0010
0001
1000
,
0001
0100
0010
0100
0001
0010
0001
1000
0001
0010
0100
0010
0001
0100
0001
1000
,
0010
0100
0010
1000
0100
0010
0001
1000
0100
0010
0100
1000
0010
0100
0001
1000
,
0001
0100
0010
0100
0001
0010
0001
1000
0001
0010
0100
0010
0001
0100
0001
1000
,
0010
0100
0010
1000
0100
0010
0001
1000
0100
0010
0100
1000
0010
0100
0001
1000
,
0001
0010
0100
0010
0001
0100
0001
1000
0001
0100
0010
0100
0001
0010
0001
1000
,
0000
0000
0000
0000
1001
0000
1001
0000
1000
0000
0001
0100
0001
0010
0100
1000
,
0001
1000
0010
0100
0001
0100
0010
1000
0100
0010
0001
0010
0001
0100
0010
1000
,
0100
1000
0001
1000
0001
0010
0100
1000
0010
0100
0001
0100
0001
0010
0100
1000
,
0010
1000
0001
1000
0001
0100
0010
1000
0100
1000
0001
1000
0001
0100
0010
1000
,
0100
0010
0001
0010
0001
0100
0010
1000
0100
1000
0001
1000
0001
0010
0100
1000
,
0010
0100
0001
0100
0001
0010
0100
1000
0010
0100
0001
0100
0001
0010
0100
1000
,
0001
0010
0100
0010
0001
0100
0001
1000
0001
0100
0010
0100
0001
0010
0001
1000
,
0100
0010
0100
1000
0010
0100
0001
1000
0100
0010
0001
0010
0001
0100
0010
1000
,
0100
0010
0001
1000
0010
1000
0100
0010
0001
1000
0010
1000
0100
0010
0001
1000
,
0001
1000
0010
0100
0001
0100
0010
1000
0100
0010
0001
0010
0001
0100
0010
1000
,
0100
1000
0001
1000
0001
0010
0100
1000
0010
0100
0001
0100
0001
0010
0100
1000
,
0010
1000
0001
1000
0001
0100
0010
1000
0100
1000
0001
1000
0001
0100
0010
1000
,
0100
0010
0001
0010
0001
0100
0010
1000
0100
1000
0001
1000
0001
0010
0100
1000
,
0010
0100
0001
1000
0010
1000
0001
0100
0010
1000
0010
0100
0001
1000
0010
0100
,
0001
0010
0100
0010
0001
0100
0001
1000
0001
0100
0010
0100
0001
0010
0001
1000
,
0100
0010
0100
1000
0010
0100
0001
1000
0010
0100
0010
1000
0100
0010
0001
1000
,
0010
0100
0001
1000
0010
0100
0010
1000
0100
0010
0100
1000
0001
0100
0010
1000
,
0001
0100
0001
0010
0100
1000
0001
1000
0010
1000
0100
1000
0001
0010
0001
1000
,
0100
0010
0001
0010
0001
1000
0010
0100
0001
0100
0001
1000
0100
0010
0001
1000
,
0001
0100
0001
0010
0100
1000
0001
1000
0010
1000
0100
1000
0001
0010
0001
1000
,
0100
0010
0001
0100
0001
1000
0010
0100
0001
0010
0001
1000
0100
0010
0001
1000
,
0001
0010
0100
0010
0001
0100
0010
0100
0001
0010
0100
0010
0001
0100
0010
1000
,
0100
0010
0001
0010
0001
1000
0010
0100
0001
0010
0001
1000
0010
0100
0001
1000
,
0001
0010
0001
1000
0100
0010
0001
1000
0100
1000
0010
1000
0100
0010
0001
1000
,
0100
0010
0001
1000
0010
1000
0100
0010
0001
1000
0010
1000
0100
0010
0001
1000
,
0001
0010
0100
0010
0001
0100
0001
1000
0001
0100
0010
0100
0001
0010
0001
1000
,
0100
0010
0100
1000
0010
0100
0001
1000
0010
0100
0010
1000
0100
0010
0001
1000
,
0001
0100
0010
0100
0001
0010
0001
1000
0001
0010
0100
0010
0001
0100
0001
1000
,
0010
0100
0010
1000
0100
0010
0001
1000
0100
0010
0100
1000
0010
0100
0001
1000
,
0001
0100
0010
0100
0001
0010
0001
1000
0001
0010
0100
0010
0001
0100
0001
1000
,
0010
0100
0010
1000
0100
0010
0001
1000
0100
0010
0100
1000
0010
0100
0001
1000
,
0001
0010
0100
0010
0001
0100
0001
1000
0001
0100
0010
0100
0001
0010
0001
1000
,
0100
0010
0100
1000
0010
0100
0001
1000
0010
0100
0010
1000
0100
0010
0001
1000
,
0001
1000
0010
0100
0001
0100
0010
1000
0100
0010
0001
0010
0001
0100
0010
1000
,
0100
1000
0001
1000
0001
0010
0100
1000
0010
0100
0001
0100
0001
0010
0100
1000
,
0010
1000
0001
1000
0001
0100
0010
1000
0100
1000
0001
1000
0001
0100
0010
1000
,
0100
0010
0001
0010
0001
0100
0010
1000
0100
1000
0001
1000
0001
0010
0100
1000
,
0010
0100
0001
0100
0001
0010
0100
1000
0010
0100
0001
0100
0001
0010
0100
1000
,
0001
0010
0100
0010
0001
0100
0001
1000
0001
0100
0010
0100
0001
0010
0001
1000
,
0100
0010
0100
1000
0010
0100
0001
1000
0100
0010
0001
0010
0001
0100
0010
1000
,
0100
0010
0100
1000
0001
1000
0100
0010
0001
1000
0100
1000
0010
0100
0001
1000
,
0001
1000
0010
0100
0001
0100
0010
1000
0100
0010
0001
0010
0001
0100
0010
1000
,
0100
1000
0001
1000
0001
0010
0100
1000
0010
0100
0001
0100
0001
0010
0100
1000
,
0010
1000
0001
1000
0001
0100
0010
1000
0100
1000
0001
1000
0001
0100
0010
1000
,
0100
0010
0001
0010
0001
0100
0010
1000
0100
1000
0001
1000
0001
0010
0100
1000
,
0010
0100
0001
1000
0010
1000
0001
0100
0010
1000
0010
0100
0001
1000
0010
0100
,
0001
0010
0100
0010
0001
0100
0001
1000
0001
0100
0010
0100
0001
0010
0001
1000
,
0100
0010
0100
1000
0010
0100
0001
1000
0010
0100
0010
1000
0100
0010
0001
1000
,
0010
1000
0001
1000
0010
1000
0001
1000
0010
1000
0010
1000
0100
0010
0001
1000
,
0001
1000
0010
0100
0001
0100
0001
1000
0100
0010
0001
0010
0001
0100
0010
1000
,
0100
1000
0001
1000
0001
0010
0100
1000
0010
0100
0001
0100
0001
0010
0100
1000
,
0010
1000
0001
1000
0001
0100
0010
1000
0100
1000
0001
1000
0001
0100
0010
1000
,
0100
0010
0001
0010
0001
0100
0010
1000
0100
1000
0001
1000
0001
0010
0100
1000
,
0001
1000
0100
0010
0001
0010
0001
1000
0010
0100
0001
0100
0001
0010
0100
1000
,
0010
1000
0001
1000
0001
0100
0010
1000
0100
0010
0001
0010
0001
0100
0010
1000
,
0100
1000
0001
1000
0001
0010
0100
1000
0010
1000
0001
1000
0001
0010
0100
1000
,
0010
0100
0001
0100
0001
0010
0100
1000
0010
1000
0001
1000
0001
0100
0010
1000
,
0001
1000
0010
0100
0001
0100
0001
1000
0100
0010
0001
0010
0001
0100
0010
1000
,
0100
1000
0001
1000
0001
0010
0100
1000
0010
0100
0001
0100
0001
0010
0100
1000
,
0010
1000
0001
1000
0001
0100
0010
1000
0100
1000
0001
1000
0001
0100
0010
1000
,
0100
0010
0001
0010
0001
0100
0010
1000
0100
1000
0001
1000
0001
0010
0100
1000
,
0001
1000
0100
0010
0001
0010
0001
1000
0010
0100
0001
0100
0001
0010
0100
1000
,
0010
1000
0001
1000
0001
0100
0010
1000
0100
0010
0001
0010
0001
0100
0010
1000
,
0100
1000
0001
1000
0001
0010
0100
1000
0010
1000
0001
1000
0001
0010
0100
1000
,
0001
0010
0100
0010
0001
0100
0001
1000
0001
0100
0010
0100
0001
0010
0001
1000
,
0200
130M
00M0
0000
0000
00M0
000M
0000
,
0000
000M
00M0
0000
0000
00M0
000M
0000
,
0000
000M
00M0
0000
0000
00M0
000M
0000
;
