#TITLE:Nonaggression (Extra Boss);
#SUBTITLE:Sonic Advance 3;
#ARTIST:Sonic Team;
#TITLETRANSLIT:;
#SUBTITLETRANSLIT:;
#ARTISTTRANSLIT:;
#CREDIT:owenviau1;
#BANNER:../banner.png;
#BACKGROUND:../BG.png;
#LYRICSPATH:;
#CDTITLE:../CDTitleOV1.png;
#MUSIC:Sonic Team - Nonaggression.ogg;
#OFFSET:-0.099;
#SAMPLESTART:121.503;
#SAMPLELENGTH:29.999;
#SELECTABLE:YES;
#BPMS:0.000=169.030;
#STOPS:;
#BGCHANGES:;
// cache tags:
#FIRSTBEAT:0.000;
#LASTBEAT:566.250;
#SONGFILENAME:Songs/Index Fusion - Part 2/Nonaggression - [Owen]/Nonaggression (Extra Boss).sm;
#HASMUSIC:1;
#HASBANNER:1;
#MUSICLENGTH:205.008;
// end cache tags

//---------------dance-single - owenviau1----------------
#NOTES:
     dance-single:
     owenviau1:
     Challenge:
     15:
     1.000,1.000,0.010,0.356,1.000,1869.000,2.000,73.000,8.000,0.000:
1000
0100
2000
0000
0000
3010
0000
0100
0004
0000
0000
0003
0100
0010
2000
0000
,
0000
3010
0000
0100
0004
0000
0000
0003
1000
0100
0020
0000
0000
0031
0000
1000
,
0004
0000
0000
0003
0100
0010
2000
0000
0000
3100
0000
0010
0004
0000
0000
0003
,
1000
0000
0000
0000
0000
0000
0400
0000
0000
0300
0000
0000
0040
0000
0000
0030
0000
0000
0001
0000
0000
0000
0000
0000
0200
0000
0000
0000
0000
0000
0040
0000
0000
0030
0000
0000
0000
0000
0000
0000
0000
0000
0340
0000
0000
0030
0000
0000
4000
0000
0000
3000
0001
0000
0000
0000
1000
0000
0000
0000
0100
0000
0000
0000
0010
0000
0000
0000
0001
0000
0000
0000
0100
0000
0000
0000
0000
0000
0040
0000
0000
0030
0000
0000
4000
0000
0000
3000
0000
0000
0010
0000
0000
0000
0000
0000
,
0200
0000
0000
0000
0000
0000
0004
0000
0000
0003
0000
0000
0000
0000
0000
0000
0000
0000
0304
0000
0000
0003
0000
0000
4000
0000
0000
3000
0010
0000
0000
0000
0100
0000
0000
0000
0010
0000
0000
0000
1000
0000
0000
0000
0001
0000
0000
0000
0010
0000
0000
0000
0000
0000
0400
0000
0000
0300
0000
0000
4000
0000
0000
3000
0000
0000
0001
0000
0000
0000
0000
0000
0200
0000
0000
0000
0000
0000
0340
0000
0000
0030
0000
0000
4000
0000
0000
3000
0000
0000
0000
0000
0000
0000
0000
0000
,
0001
0000
0000
0000
0100
0000
0000
0000
0001
0000
0000
0000
0010
0000
0000
0000
0100
0000
0000
0000
1000
0000
0000
0000
0010
0000
0000
0000
0000
0000
0400
0000
0000
0300
0000
0000
0040
0000
0000
0030
0000
0000
1000
0000
0000
0000
0000
0000
0002
0000
0000
0000
0000
0000
0403
0000
0000
0300
0000
0000
0040
0000
0000
0030
0000
0000
0000
0000
0000
0000
0000
0000
1000
0000
0000
0000
0000
0000
0100
0000
0000
0000
0000
0000
0010
0000
0000
0000
0000
0000
0001
0000
0000
0000
0000
0000
,
1M00
0010
0100
0001
0100
0010
1000
0001
1000
0100
0010
0001
1000
0100
1000
0010
,
0100
0001
1000
0001
0100
0010
0100
0001
1000
0100
0010
0100
1000
0001
1000
0010
,
0100
0001
1000
0001
0010
0100
1000
0001
0010
0001
0100
0010
1000
0010
0100
0001
,
1000
0100
1000
0001
0010
0100
1000
0001
0100
0010
1000
0010
0100
0001
1000
0001
,
0010
0100
1000
0010
0100
0001
0100
0010
1000
0001
1000
0100
0010
0001
1000
0100
,
1000
0001
0100
0010
0100
0001
1000
0010
1000
0001
0100
0000
0010
0100
0000
0001
,
10M0
0001
0100
0010
1000
0010
0100
0001
1000
0001
0100
0010
0100
0001
1000
0100
,
1000
0010
0100
0001
1000
0001
0010
0100
1000
0001
0010
0001
0100
0010
1000
0001
,
1000
0100
0010
0001
1000
0100
1000
0001
0100
0010
0100
0001
1000
0010
1000
0001
,
0100
0001
0010
0100
1000
0001
0010
0001
0100
0010
0100
0001
1000
0010
1000
0001
,
0100
0010
1000
0001
0100
0001
1000
0100
0010
0001
1000
0100
1000
0010
0100
0001
,
0100
0010
1000
0001
1000
0100
0010
0001
1000
0010
0100
0000
0001
0100
0000
0010
,
100M
0100
1000
0001
0100
0010
0100
0001
1000
0100
1000
0001
0010
0100
1000
0001
,
0100
0010
1000
0010
0100
0001
1000
0001
0100
0010
0100
0001
1000
0010
1000
0100
,
0010
0001
1000
0100
1000
0001
0100
0010
0100
0001
1000
0100
0010
0100
1000
0001
,
0100
0010
1000
0001
1000
0100
0010
0001
1000
0010
1000
0001
0100
0010
0100
0001
,
1000
0100
1000
0001
0010
0100
1000
0001
0100
0010
0100
0001
1000
0100
1000
0001
,
0100
0010
0100
0001
1000
0010
1000
0001
0100
0010
0100
0001
1000
0100
1000
0001
,
0010
0001
1000
0100
1000
0010
0100
0001
1000
0001
0100
0010
0100
0001
1000
0010
,
1000
0100
0010
0001
1000
0100
1000
0001
0100
0010
1000
0010
0100
0001
1000
0001
,
0010
0100
1000
0001
0100
0010
1000
0010
0100
0001
1000
0001
0100
0010
1000
0001
,
0010
0100
1000
0001
1000
0010
0100
0001
0100
0010
1000
0001
0010
0100
1000
0001
,
0100
0001
1000
0010
1000
0100
0010
0001
1000
0100
1000
0001
0100
0010
1000
0010
,
0100
0001
1000
0100
1000
0001
0010
0001
1000
0100
0010
0001
0010
0100
1000
0001
,
0100
0001
1000
0010
0100
0001
0100
0010
1000
0001
1000
0100
1000
0001
0010
0001
,
0100
0010
1000
0010
0100
0001
1000
0001
0100
0010
0100
0001
1000
0100
0010
0001
,
1000
0100
1000
0001
0010
0001
0100
0010
0100
0001
1000
0010
1000
0001
0100
0010
,
0100
0001
1000
0100
1000
0001
0010
0100
1000
0001
0010
0001
0100
0010
0100
0001
,
1000
0100
0010
0001
1000
0100
1000
0001
0100
0010
0100
0001
1000
0010
1000
0001
,
0100
0001
0010
0100
1000
0001
0010
0001
0100
0010
0100
0001
1000
0010
1000
0001
,
0100
0010
0100
0001
1000
0100
1000
0010
0100
0001
1000
0100
1000
0001
0010
0100
,
1000
0001
0010
0001
0100
0010
0100
0001
1000
0010
1000
0100
0010
0001
1000
0001
,
0100
0010
0100
0001
1000
0010
1000
0001
0100
0001
1000
0100
0010
0001
1000
0100
,
1000
0001
0100
0010
0100
0001
1000
0010
1000
0001
0010
0001
0100
0010
1000
0010
,
0100
0001
1000
0100
1000
0001
0100
0010
1000
0001
1000
0100
0010
0001
1000
0100
,
1000
0010
0100
0001
0100
0010
1000
0001
0010
0100
1000
0001
1000
0100
0010
0001
,
1000
0010
1000
0001
0100
0010
0100
0001
1000
0100
1000
0001
0100
0010
0100
0001
,
1000
0100
0010
0001
1000
0001
0100
0010
0200
0000
0001
0000
0000
0000
0302
0000
,
1003
0000
0000
0000
0010
0000
0000
0000
0100
0000
0020
0030
2000
3000
0000
0000
0002
0000
0000
0000
0000
0000
0000
0000
1000
0000
0000
0000
0000
0000
0000
0000
,
0203
0300
0020
0030
2000
3000
0000
0000
0000
0000
0000
0000
0002
0000
0000
0000
0103
0000
0000
0000
0010
0000
0000
0000
2000
3000
0002
0003
0200
0300
0000
0000
,
0000
0010
0000
1000
0100
1000
0010
0000
0100
0001
1000
0000
0000
0000
0100
0000
,
0010
0000
0001
0000
0100
0010
1000
0000
0000
0000
0001
0000
0100
0000
0010
0000
,
1000
0001
0100
0000
0000
0000
0010
0000
0100
0000
0001
0000
0100
0010
1000
0000
,
0000
0001
0000
1000
0001
1000
0010
0000
0210
0000
0000
0000
0302
0000
0000
0000
,
2003
3200
0320
0032
,
2003
0000
0000
3020
,
0000
0000
0000
0000
0000
0000
0000
0030
2000
0000
0000
0000
0000
0000
0000
0000
,
0000
3002
0000
0000
,
0203
0000
0000
0320
,
0000
1030
0000
0001
0100
0010
0100
0001
10M0
0001
0100
0010
1000
0010
0100
0001
,
1000
0100
1000
0001
0010
0001
0100
0010
1000
0001
0100
0001
0010
0100
1000
0001
,
0010
0001
0100
0010
1000
0001
1000
0100
0010
0001
1000
0100
1000
0001
0100
0010
,
0100
0001
1000
0010
1000
0100
0010
0001
0100
0010
1000
0010
0100
0001
1000
0001
,
0010
0100
1000
0001
0010
0001
1000
0100
1000
0001
0100
0010
0100
0001
1000
0100
,
0010
0100
1000
0001
0100
0010
1000
0010
0100
0001
1000
0001
0010
0100
1000
0001
,
0010
0001
0100
0010
1000
0010
0100
0001
1000
0001
0100
0010
0100
0001
1000
0100
,
1000
0001
0010
0001
0100
0010
0100
0001
1000
0010
1000
0100
0010
0001
1000
0001
,
0100
0010
0100
0001
1000
0010
1000
0100
0010
0001
1000
0001
0100
0010
0100
0001
,
1000
0010
1000
0100
0010
0001
1000
0100
1000
0001
0010
0100
1000
0001
0010
0001
,
0100
0010
0100
0001
1000
0010
1000
0001
0100
0010
1000
0010
0100
0001
1000
0001
,
0100
0010
0100
0001
1000
0010
1000
0100
0010
0001
1000
0100
1000
0001
0100
0010
,
0100
0001
1000
0001
0010
0100
1000
0001
0100
0010
0200
0000
0000
0310
0000
1000
,
0004
0000
0000
0003
1000
0010
0200
0000
0000
0310
0000
1000
0004
0000
0000
0003
,
1000
0100
0020
0000
0000
0031
0000
1000
0004
0000
0000
0003
0100
0010
2000
0000
,
0000
0000
3100
0000
0000
0000
0010
0000
0004
0000
0000
0000
0000
0000
0003
0000
1000
0000
0400
0300
0040
0030
0001
0000
0200
0000
0040
0030
0000
0000
0340
0030
,
4000
0000
0000
3000
0001
0000
0000
0000
1000
0000
0000
0000
0100
0000
0000
0000
0010
0000
0000
0000
0001
0000
0000
0000
0100
0000
0000
0000
0000
0000
0040
0000
0000
0030
0000
0000
4000
0000
0000
3000
0000
0000
0010
0000
0000
0000
0000
0000
0200
0000
0000
0000
0000
0000
0004
0000
0000
0003
0000
0000
0000
0000
0000
0000
0000
0000
0304
0000
0000
0003
0000
0000
4000
0000
0000
3000
0010
0000
0000
0000
0100
0000
0000
0000
0010
0000
0000
0000
1000
0000
0000
0000
0001
0000
0000
0000
,
0010
0000
0000
0000
0000
0000
0400
0000
0000
0300
0000
0000
4000
0000
0000
3000
0000
0000
0001
0000
0000
0000
0000
0000
0200
0000
0000
0000
0000
0000
0340
0000
0000
0030
0000
0000
4000
0000
0000
3000
0000
0000
0000
0000
0000
0000
0000
0000
0001
0000
0000
0000
0100
0000
0000
0000
0001
0000
0000
0000
0010
0000
0000
0000
0100
0000
0000
0000
1000
0000
0000
0000
0010
0000
0000
0000
0000
0000
0400
0000
0000
0300
0000
0000
0040
0000
0000
0030
0000
0000
1000
0000
0000
0000
0000
0000
,
0002
0000
0403
0300
0040
0030
0000
0000
1000
0000
0100
0000
0010
0000
0001
0000
1M00
0000
0010
0000
0100
0000
0001
0000
0100
0000
0010
0000
1000
0000
0001
0000
,
1000
0100
0010
0001
1000
0100
1000
0010
0100
0001
1000
0001
0100
0010
0100
0001
,
1000
0100
0010
0100
1000
0001
1000
0010
0100
0001
1000
0001
0010
0100
1000
0001
,
0010
0001
0100
0010
1000
0010
0100
0001
1000
0100
1000
0001
0010
0100
1000
0001
,
0100
0010
1000
0010
0100
0001
1000
0001
0010
0100
1000
0010
0100
0001
0100
0010
,
1000
0001
1000
0100
0010
0001
1000
0100
1000
0001
0100
0010
0100
0001
1000
0010
,
1000
0001
0100
0000
0010
0100
0000
0001
10M0
0001
0100
0010
1000
0010
0100
0001
,
1000
0001
0100
0010
0100
0001
1000
0100
1000
0010
0100
0001
1000
0001
0010
0100
,
1000
0001
0010
0001
0100
0010
1000
0001
1000
0100
0010
0001
1000
0100
1000
0001
,
0100
0010
0100
0001
1000
0010
1000
0001
0100
0001
0010
0100
1000
0001
0010
0001
,
0100
0010
0100
0001
1000
0010
1000
0001
0100
0010
1000
0001
0100
0001
1000
0100
,
0010
0001
1000
0100
1000
0010
0100
0001
0100
0010
1000
0001
1000
0100
0010
0001
,
1000
0010
0100
0000
0001
0100
0000
0010
100M
0100
1000
0001
0100
0010
0100
0001
,
1000
0100
1000
0001
0010
0100
1000
0001
0100
0010
1000
0010
0100
0001
1000
0001
,
0100
0010
0100
0001
1000
0010
1000
0100
0010
0001
1000
0100
1000
0001
0100
0010
,
0100
0001
1000
0100
0010
0100
1000
0001
0100
0010
1000
0001
1000
0100
0010
0001
,
1000
0010
1000
0001
0100
0010
0100
0001
1000
0100
1000
0001
0010
0100
1000
0001
,
0100
0010
0100
0001
1000
0100
1000
0001
0100
0010
0100
0001
1000
0010
1000
0001
,
0100
0010
0100
0001
1000
0100
1000
0001
0010
0001
1000
0100
1000
0010
0100
0001
,
1000
0001
0100
0010
0100
0001
1000
0010
1000
0100
0010
0001
1000
0100
1000
0001
,
0100
0010
1000
0010
0100
0001
1000
0001
0010
0100
1000
0001
0100
0010
1000
0010
,
0100
0001
1000
0001
0100
0010
1000
0001
0010
0100
1000
0001
1000
0010
0100
0001
,
0100
0010
1000
0001
0010
0100
1000
0001
0100
0001
1000
0010
1000
0100
0010
0001
,
1000
0100
1000
0001
0100
0010
1000
0010
0100
0001
1000
0100
1000
0001
0010
0001
,
1000
0100
0010
0001
0010
0100
1000
0001
0100
0001
1000
0010
0100
0001
0100
0010
,
1000
0001
1000
0100
1000
0001
0010
0001
0100
0010
1000
0010
0100
0001
1000
0001
,
0100
0010
0100
0001
1000
0100
0010
0001
1000
0100
1000
0001
0010
0001
0100
0010
,
0100
0001
1000
0010
1000
0001
0100
0010
0100
0001
1000
0100
1000
0001
0010
0100
,
1000
0001
0010
0001
0100
0010
0100
0001
1000
0100
0010
0001
1000
0100
1000
0001
,
0100
0010
0100
0001
1000
0010
1000
0001
0100
0001
0010
0100
1000
0001
0010
0001
,
0100
0010
0100
0001
1000
0010
1000
0001
0100
0010
0100
0001
1000
0100
1000
0010
,
0100
0001
1000
0100
1000
0001
0010
0100
1000
0001
0010
0001
0100
0010
0100
0001
,
1000
0010
1000
0100
0010
0001
1000
0001
0100
0010
0100
0001
1000
0010
1000
0001
,
0100
0001
1000
0100
0010
0001
1000
0100
1000
0001
0100
0010
0100
0001
1000
0010
,
1000
0001
0010
0001
0100
0010
1000
0010
0100
0001
1000
0100
1000
0001
0100
0010
,
1000
0001
1000
0100
0010
0001
1000
0100
1000
0010
0100
0001
0100
0010
1000
0001
,
0010
0100
1000
0001
1000
0100
0010
0001
1000
0010
1000
0001
0100
0010
0100
0001
,
1000
0100
1000
0001
0100
0010
0100
0001
1000
0100
0010
0001
1000
0001
0100
0010
,
0200
0000
0000
0000
0001
0000
0000
0000
0000
0000
0000
0000
0302
0000
0000
0000
1003
0000
0000
0000
0010
0000
0000
0000
0100
0000
0020
0030
2000
3000
0000
0000
,
0002
0000
0000
0000
0000
0000
0000
0000
1000
0000
0000
0000
0000
0000
0000
0000
0203
0300
0020
0030
2000
3000
0000
0000
0000
0000
0000
0000
0002
0000
0000
0000
,
0103
0000
0000
0000
0010
0000
0000
0000
2000
3000
0002
0003
0200
0300
0000
0000
0000
0000
0010
0000
0000
0000
1000
0000
0100
0000
1000
0000
0010
0000
0000
0000
,
0100
0001
1000
0000
0000
0000
0100
0000
0010
0000
0001
0000
0100
0010
1000
0000
,
0000
0000
0001
0000
0100
0000
0010
0000
1000
0001
0100
0000
0000
0000
0010
0000
,
0100
0000
0001
0000
0100
0010
1000
0000
0000
0001
0000
1000
0001
1000
0010
0000
,
0210
0302
2003
3200
,
0320
0032
2003
0000
,
0000
0000
0000
0000
3020
0000
0000
0000
0000
0000
0000
0000
0000
0000
0000
0030
,
2000
0000
0000
3002
,
0000
0000
0203
0000
,
0000
0000
0000
0000
0320
0000
0000
0000
0000
1030
0000
0001
0100
0010
0100
0001
,
10M0
0001
0100
0010
1000
0010
0100
0001
1000
0100
1000
0001
0010
0001
0100
0010
,
1000
0001
0100
0001
0010
0100
1000
0001
0010
0001
0100
0010
1000
0001
1000
0100
,
0010
0001
1000
0100
1000
0001
0100
0010
0100
0001
1000
0010
1000
0100
0010
0001
,
0100
0010
1000
0010
0100
0001
1000
0001
0010
0100
1000
0001
0010
0001
1000
0100
,
1000
0001
0100
0010
0100
0001
1000
0100
0010
0100
1000
0001
0100
0010
1000
0010
,
0100
0001
1000
0001
0010
0100
1000
0001
0010
0001
0100
0010
1000
0010
0100
0001
,
1000
0001
0100
0010
0100
0001
1000
0100
1000
0001
0010
0001
0100
0010
0100
0001
,
1000
0010
1000
0100
0010
0001
1000
0001
0100
0010
0100
0001
1000
0010
1000
0100
,
0010
0001
1000
0001
0100
0010
0100
0001
1000
0010
1000
0100
0010
0001
1000
0100
,
1000
0001
0010
0100
1000
0001
0010
0001
0100
0010
0100
0001
1000
0010
1000
0001
,
0100
0010
1000
0010
0100
0001
1000
0001
0100
0010
0100
0001
1000
0010
1000
0100
,
0010
0001
1000
0100
1000
0001
0100
0010
0100
0001
1000
0001
0100
0010
0100
0001
,
1000
0100
0020
0000
0000
0031
0000
0100
0004
0000
0000
0003
0100
0010
2000
0000
,
0000
3010
0000
0100
0004
0000
0000
0003
1000
0100
0020
0000
0000
0031
0000
1000
,
0004
0000
0000
0003
0100
0010
2000
0000
0000
3100
0000
0010
0004
0000
0000
0003
,
1000
0000
0000
0000
0000
0000
0400
0000
0000
0300
0000
0000
0040
0000
0000
0030
0000
0000
0001
0000
0000
0000
0000
0000
0200
0000
0000
0000
0000
0000
0040
0000
0000
0030
0000
0000
0000
0000
0000
0000
0000
0000
0340
0000
0000
0030
0000
0000
4000
0000
0000
3000
0001
0000
0000
0000
1000
0000
0000
0000
0100
0000
0000
0000
0010
0000
0000
0000
0001
0000
0000
0000
0100
0000
0000
0000
0000
0000
0040
0000
0000
0030
0000
0000
4000
0000
0000
3000
0000
0000
0010
0000
0000
0000
0000
0000
,
0200
0000
0000
0000
0000
0000
0004
0000
0000
0003
0000
0000
0000
0000
0000
0000
0000
0000
0304
0000
0000
0003
0000
0000
4000
0000
0000
3000
0010
0000
0000
0000
0100
0000
0000
0000
0010
0000
0000
0000
1000
0000
0000
0000
0001
0000
0000
0000
0010
0000
0000
0000
0000
0000
0400
0000
0000
0300
0000
0000
4000
0000
0000
3000
0000
0000
0001
0000
0000
0000
0000
0000
0200
0000
0000
0000
0000
0000
0340
0000
0000
0030
0000
0000
4000
0000
0000
3000
0000
0000
0000
0000
0000
0000
0000
0000
,
0001
0000
0000
0000
0100
0000
0000
0000
0001
0000
0000
0000
0010
0000
0000
0000
0100
0000
0000
0000
1000
0000
0000
0000
0010
0000
0000
0000
0000
0000
0400
0000
0000
0300
0000
0000
0040
0000
0000
0030
0000
0000
1000
0000
0000
0000
0000
0000
0002
0000
0000
0000
0000
0000
0403
0000
0000
0300
0000
0000
0040
0000
0000
0030
0000
0000
0000
0000
0000
0000
0000
0000
1000
0000
0000
0000
0000
0000
0100
0000
0000
0000
0000
0000
0010
0000
0000
0000
0000
0000
0001
0000
0000
0000
0000
0000
,
2000
0000
0000
0000
0000
0000
0000
0000
0000
3000
0000
0000
0000
0000
0000
0000
,
0000
0000
0000
0000
,
0000
0000
0000
0000
,
0000
0000
0000
0000
;
