#TITLE:Swivel;
#SUBTITLE:;
#ARTIST:Hiroki Kikuta;
#TITLETRANSLIT:;
#SUBTITLETRANSLIT:;
#ARTISTTRANSLIT:;
#CREDIT:;
#BANNER:Swivel BN.png;
#BACKGROUND:Swivel BG.png;
#LYRICSPATH:;
#CDTITLE:;
#MUSIC:Swivel.mp3;
#OFFSET:-0.600;
#SAMPLESTART:8.504;
#SAMPLELENGTH:17.000;
#SELECTABLE:YES;
#BPMS:0.000=120.770;
#STOPS:;
#BGCHANGES:;
// cache tags:
#FIRSTBEAT:0.000;
#LASTBEAT:194.000;
#SONGFILENAME:Songs/Keys of Flames/Swivel (Maftaxd)/Swivel.sm;
#HASMUSIC:1;
#HASBANNER:1;
#MUSICLENGTH:111.864;
// end cache tags

//---------------dance-single - ----------------
#NOTES:
     dance-single:
     :
     Hard:
     10:
     0.990,0.889,0.822,0.089,1.000,673.000,92.000,10.000,0.000,0.000:  // measure 1
0010
0000
0000
1000
0000
0000
0100
0000
0000
1000
0000
0000
0001
0000
0100
0000
0010
0000
1000
0000
0000
0000
0000
0000
1000
0000
0000
0000
0000
0000
0100
0000
0000
0001
0000
0000
0000
0000
0000
0100
0000
0000
0010
0000
0000
0000
0000
0000
,  // measure 2
0100
0000
1000
0010
0100
0001
0010
0100
1000
0010
0100
0001
0100
0010
0100
0001
,  // measure 3
0100
0000
0000
0010
0000
0000
1000
0000
0000
0100
0000
0000
0001
0000
0100
0000
1000
0000
0010
0000
0000
0000
0000
0000
0100
0000
0000
0000
0000
0000
0001
0000
0000
0010
0000
0000
0000
0000
0000
0100
0000
0000
1000
0000
0000
0000
0000
0000
,  // measure 4
0010
0000
0100
0001
1000
0100
0010
0001
1000
0100
1000
0001
1000
0100
1000
0001
,  // measure 5
1010
0000
1100
1100
0000
0011
0011
0000
0101
0101
0000
1100
1010
0000
0101
0000
,  // measure 6
1100
0000
0000
1000
0000
0000
0001
0000
0000
0010
0000
0000
0100
0000
0000
1000
0000
0000
0010
0000
0000
0100
0000
0000
0001
0000
0000
0010
0100
1000
0010
0000
0000
0100
0000
0000
0001
0000
0000
0010
0000
0000
0100
0000
0000
1000
0000
0000
,  // measure 7
0101
0000
0011
0011
0000
1100
1100
0000
1001
1001
0000
0101
0011
0000
1100
0000
,  // measure 8
1001
0000
0000
0001
0000
0000
0010
0000
0000
0100
0000
0000
1000
0000
0000
0010
0000
0000
0100
0000
0000
0001
0000
0000
0010
0000
0000
0100
1000
0010
0100
0000
0000
0001
0000
0000
0010
0000
0000
0100
0000
0000
1000
0000
0000
0010
0000
0000
,  // measure 9
0101
0000
0101
0011
0000
0011
0101
0000
1100
1100
0000
0011
0000
0110
1001
0000
,  // measure 10
1010
0000
1100
1010
0000
1010
1100
0000
0011
0011
0000
1100
0000
1010
0101
0000
,  // measure 11
2000
0000
0000
3002
0000
0000
0023
0000
0000
0130
1000
0010
0100
0001
0100
0010
,  // measure 12
2000
0000
0000
0000
0000
0000
3001
0100
0002
0000
0000
0000
0000
0000
0000
0000
,  // measure 13
1003
0100
0010
0100
1000
0100
0010
0100
1000
0010
0100
0001
0010
1000
0100
0001
,  // measure 14
0010
0100
1000
0100
0010
0100
1000
0100
0010
0100
1000
0000
0010
0100
0000
0000
,  // measure 15
0001
0100
0010
0100
0001
0100
0010
0100
0001
0010
0100
1000
0010
0001
0100
1000
,  // measure 16
0001
0100
0010
0100
0001
0100
0010
0100
0001
0100
0010
0000
1000
0100
0000
0000
,  // measure 17
0010
0001
0100
0001
0010
0001
0100
0001
0010
0100
0001
0100
1000
0010
0100
1000
,  // measure 18
0010
0100
1000
0100
0010
0100
1000
0100
0010
0001
0100
1000
0010
1000
0100
0001
,  // measure 19
0010
0100
1000
0100
0010
0100
1000
0100
0010
1000
0100
1000
0010
0001
0100
1000
,  // measure 20
0010
0001
0100
0001
0010
0001
0100
0001
0010
1000
0100
0001
0100
1000
0010
0001
,  // measure 21
0100
0000
0000
0010
0000
0000
1000
0000
0000
0100
0000
0000
0010
0000
0000
0000
0000
0000
0001
0000
0000
0100
0000
0000
0010
0000
0000
0100
0000
0000
0001
0000
0000
1000
0000
0000
0100
0000
0000
0010
0100
0010
0100
0000
0000
1000
0000
0000
,  // measure 22
0010
0000
0000
0001
0000
0000
0100
0000
0000
1000
0000
0000
0001
0000
0000
0000
0000
0000
0001
0000
0000
0100
0000
0000
0010
0000
0000
0100
0000
0000
0001
0000
0000
0010
0000
0000
0100
0000
0000
1000
0100
1000
0100
0000
0000
0100
0000
0000
,  // measure 23
1000
0000
0000
0010
0000
0000
0100
0000
0000
1000
0000
0000
0010
0000
0000
0000
0000
0000
0100
0000
0000
0010
0000
0000
0001
0000
0000
0100
0000
0000
0010
0000
0000
1000
0000
0000
0001
0000
0000
0010
1000
0010
1000
0000
0000
0001
0000
0000
,  // measure 24
0100
1000
0010
0001
0100
0000
0100
1001
0000
0001
1010
0000
0010
1100
0000
0100
,  // measure 25
1001
0000
0000
0000
0000
0000
0010
0000
0000
0000
0000
0000
0100
0000
0000
0000
0000
0000
0000
0000
0000
0000
0000
0000
0001
0000
0000
0000
0000
0000
0000
0000
0000
0000
0000
0000
1000
0000
0000
0000
0000
0000
0000
0000
0000
0000
0000
0000
0100
0000
0000
0000
0000
0000
0000
0000
0000
0000
0000
0000
1000
0000
0000
0000
0000
0000
0000
0000
0000
0000
0000
0000
0001
0000
0000
0000
0000
0000
0000
0000
0000
0000
0000
0000
1000
0000
0000
0000
0000
0000
0000
0000
0000
0000
0000
0000
0010
0000
0000
0000
0000
0000
0000
0000
0100
0000
0000
0000
0000
0000
0000
0000
0001
0000
0000
0000
0000
0000
0000
0000
0010
0000
0000
0000
0000
0000
0000
0000
0000
0000
0000
0000
0000
0000
0000
0000
0000
0000
0000
0000
0000
0000
0000
0000
0010
0000
0000
0000
0000
0000
0000
0000
0000
0000
0000
0000
0000
0000
0000
0000
0000
0000
0000
0000
0000
0000
0000
0000
0100
0000
0000
0000
0000
0000
0000
0000
0000
0000
0000
0000
0001
0000
0000
0000
0000
0000
0000
0000
0000
0000
0000
0000
,  // measure 26
0000
0100
0010
0000
0001
0000
1000
0100
0010
0001
0100
0010
1000
0001
0010
0100
,  // measure 27
0010
0000
0000
0001
0000
0000
0010
0000
0000
0100
0000
0000
0010
0000
0000
0001
0000
0000
0100
0000
0000
0010
0000
0000
1000
0000
0100
0000
0001
0000
0100
0000
0000
0000
0000
0000
0100
0000
0000
0000
0000
0000
1000
0000
0000
0100
0000
0000
,  // measure 28
0000
1000
0010
0000
0100
0000
0001
1000
0001
0100
0010
1000
0001
0010
0001
0100
,  // measure 29
0001
0010
0001
0100
1100
0000
0011
0011
0000
1010
1010
0000
0101
0101
0000
0011
,  // measure 30
0101
0000
0000
0000
0000
0000
1010
0000
0000
0000
0000
0000
0011
0000
0000
0001
0000
0000
1000
0000
0000
0010
0000
0000
0100
0000
0000
0001
0000
0000
0010
0000
0000
0100
0000
0000
1000
0000
0000
0010
0100
0001
0010
0000
0000
0100
0000
0000
,  // measure 31
1000
0010
0100
0001
0011
0000
1100
1100
0000
0101
0101
0000
0110
0110
0000
1100
,  // measure 32
1010
0000
0000
0000
0000
0000
0101
0000
0000
0000
0000
0000
1100
0000
0000
0001
0000
0000
0100
0000
0000
0010
0000
0000
1000
0000
0000
0100
0000
0000
0010
0000
0000
0001
0000
0000
0100
0000
0000
0010
1000
0100
0010
0000
0000
0001
0000
0000
,  // measure 33
0100
0010
1000
0100
0011
0000
0011
0101
0000
0101
0011
0000
1010
1010
0000
0101
,  // measure 34
0000
1001
0110
0000
1100
0000
1010
1100
0000
1100
1010
0000
0101
0101
0000
1001
,  // measure 35
0000
0011
1100
0000
0002
0000
0000
0203
0000
0000
0320
0000
0000
1030
0010
0100
,  // measure 36
0001
0100
0010
1000
0200
0000
0000
0000
0000
0000
0310
0001
0020
0000
0000
0000
,  // measure 37
0000
0000
0000
0000
0130
0010
0001
0010
0100
0010
0001
0010
0100
1000
0010
0100
,  // measure 38
0001
0010
1000
0100
0001
0010
0100
0010
0001
0010
0100
0010
0001
0010
0100
0000
,  // measure 39
1000
0010
0000
0000
1000
0001
0100
0001
1000
0001
0100
0001
1000
0100
0010
0001
,  // measure 40
0100
1000
0010
0001
1000
0001
0100
0001
1000
0001
0100
0001
1000
0001
0100
0000
,  // measure 41
0010
1000
0000
0000
1000
0100
0010
0100
1000
0100
0010
0100
1000
0010
0001
0010
,  // measure 42
1000
0100
0001
0010
1000
0001
0100
0001
1000
0001
0100
0001
0010
1000
0100
0001
,  // measure 43
0100
1000
0010
0001
0100
0010
1000
0010
0100
0010
1000
0010
0100
0001
0010
1000
,  // measure 44
0010
0001
0100
1000
0010
0001
1000
0001
0010
0001
1000
0001
0010
1000
0100
0001
,  // measure 45
0010
0001
0100
1000
0010
0001
0100
0010
1000
0000
1000
0100
0010
0100
1000
0001
,  // measure 46
0010
0000
0000
0100
1000
0100
1000
0000
0000
0010
0000
0000
0001
0000
0000
0100
0000
0000
1000
0000
0000
0001
0000
0000
0100
0000
0000
0000
0000
0000
0010
0000
0000
1000
0000
0000
0100
0000
0000
0010
0000
0000
0001
0000
0000
1000
0000
0000
,  // measure 47
0010
0000
0000
0100
0001
0100
0001
0000
0000
0010
0000
0000
1000
0000
0000
0100
0000
0000
0001
0000
0000
0010
0000
0000
0100
0000
0000
0000
0000
0000
1000
0000
0000
0100
0000
0000
0010
0000
0000
0001
0000
0000
0100
0000
0000
1000
0000
0000
,  // measure 48
0100
0000
0000
1000
0100
1000
0100
0000
0000
0010
0000
0000
1000
0000
0000
0100
0000
0000
0001
0000
0000
0010
0000
0000
1000
0000
0000
0000
0000
0000
0001
0000
0000
0110
0000
0000
0000
0000
0000
1000
0000
0000
0101
0000
0000
0000
0000
0000
,  // measure 49
0100
0000
0011
0000
0000
0000
1000
0000
0110
0001
1000
0000
0100
0000
0010
0000
0100
0000
0000
0000
0000
0000
0000
0000
0000
0000
0000
0000
0000
0000
0000
0000
;
