#TITLE:LoD - Forest;
#SUBTITLE:;
#ARTIST:Verilo;
#TITLETRANSLIT:;
#SUBTITLETRANSLIT:;
#ARTISTTRANSLIT:;
#CREDIT:;
#BANNER:ForestB.jpg;
#BACKGROUND:Forest.jpg;
#LYRICSPATH:;
#CDTITLE:;
#MUSIC:LoD - Forest.mp3;
#OFFSET:-0.060;
#SAMPLESTART:0.021;
#SAMPLELENGTH:12.000;
#SELECTABLE:YES;
#BPMS:0.000=120.000,134.000=1000.009;
#STOPS:;
#BGCHANGES:;
// cache tags:
#FIRSTBEAT:1.000;
#LASTBEAT:134.000;
#SONGFILENAME:Songs/toune 6/LoD - Forest/LoD - Forest.sm;
#HASMUSIC:1;
#HASBANNER:1;
#MUSICLENGTH:68.005;
// end cache tags

//---------------dance-single - ----------------
#NOTES:
     dance-single:
     :
     Challenge:
     1:
     0.000,0.000,0.000,0.000,0.000,0.000,0.000,0.000,0.000,0.000:
0000
0000
0000
0000
;

//---------------dance-single - ----------------
#NOTES:
     dance-single:
     :
     Hard:
     7:
     0.622,0.640,0.823,0.265,0.559,222.000,56.000,18.000,0.000,0.000:
0000
2002
0000
0000
,
0000
0000
0000
3003
,
1000
0000
0000
0001
1000
0000
1001
0000
1001
0000
0000
0001
1000
0000
1001
0000
,
1001
0000
0000
1000
0001
0000
1001
0000
1000
0100
0000
0001
0010
0000
1000
0000
,
2002
0000
0000
0000
0000
0000
0000
0000
3003
0000
0000
1000
0001
0000
0110
0000
,
1000
0100
0000
0010
0000
0001
0010
0000
0100
0000
0000
0000
0000
0000
0000
0000
,
1000
0000
0001
0010
0001
0010
0001
0010
0001
0001
0001
0000
0000
0000
0000
0000
,
1100
0010
0000
0001
0000
0010
0100
0000
1001
0000
0000
0000
0000
0000
0000
0000
,
1000
0000
0001
0010
0100
1000
0100
0010
0001
0010
0001
0000
0000
0000
0000
0000
,
2002
3003
0011
0000
,
1100
0000
0000
0010
0001
0000
0011
0000
0011
0000
0000
0100
1000
0000
0110
0000
,
0110
0000
0000
0001
0010
0000
0011
0000
0010
0001
0000
0001
0010
0000
0110
0000
,
1000
0100
0000
0010
0000
0001
0010
0000
0110
0000
0000
1000
0001
0000
0110
0000
,
1000
0000
0100
0010
0100
1000
0100
0010
0001
0010
0001
0000
0000
0000
0000
0000
,
0100
0010
0000
0001
0000
0010
0100
0000
1001
0000
0000
0000
0000
0000
0000
0000
,
1000
0000
0100
0010
0001
0010
0100
1000
0100
0010
0001
0000
0000
0000
0000
0000
,
2002
0000
0000
3003
0000
0000
0000
0000
,
1000
0000
0000
0100
1000
0000
0011
0000
0110
0000
0000
0010
0001
0000
0110
0000
,
1100
0000
0000
0001
0010
0000
0110
0000
0010
0001
0000
0001
0010
0000
0110
0000
,
0000
0000
0000
0000
0000
0000
0001
1000
0000
1000
0001
0000
0110
0000
0000
0000
,
1000
0100
0000
0001
0000
0010
0100
0000
0001
0000
0000
0000
0000
0000
0000
0000
,
1100
0000
0010
0001
0010
0100
0010
0001
0010
0100
0010
0000
0000
0000
0000
0000
,
2020
0000
0000
0000
0000
0000
3030
0000
0202
0303
0000
0000
0000
0000
0000
0000
,
1010
0000
0000
0100
0001
0000
0011
0000
0011
0000
0000
0010
0100
0000
1100
0000
,
1100
0000
0000
0001
0010
0000
0110
0000
1000
0100
0000
0001
0010
0000
0110
0000
,
1100
0000
0000
0100
0010
0000
0011
0000
0011
0000
0000
0010
0100
0000
1001
0000
,
2002
0000
0000
0000
0000
3003
0000
0000
1000
0100
0000
0100
1000
0000
0010
0000
,
1100
0000
0000
0010
0001
0000
0011
0000
0011
0000
0000
0010
0100
0000
0110
0000
,
0110
0000
1000
0100
0010
0001
0010
0100
1000
0100
0001
0000
0000
0000
0000
0000
,
1100
0000
0000
0010
0100
0000
0001
0000
1000
0000
0000
0100
0010
0000
0011
0000
,
1100
0000
0010
0100
0010
0001
0010
0100
1000
0100
0010
0000
0000
0000
0000
0000
,
2002
0000
3003
0000
0100
0010
0100
0000
1001
0000
0000
0000
0000
0000
0000
0000
,
2002
0000
0000
0000
,
0000
0000
3003
0000
;
