#TITLE:Sphere;
#SUBTITLE:(Full Version);
#ARTIST:Tatsh feat. K. Nayuki;
#TITLETRANSLIT:;
#SUBTITLETRANSLIT:;
#ARTISTTRANSLIT:;
#CREDIT:;
#BANNER:../fallback-bn.png;
#BACKGROUND:../fallback-bg.png;
#LYRICSPATH:;
#CDTITLE:monst3rjoe - cdtitle.png;
#MUSIC:Sphere Full Version.ogg;
#OFFSET:-2.341;
#SAMPLESTART:13.480;
#SAMPLELENGTH:11.980;
#SELECTABLE:YES;
#BPMS:0.000=80.000,48.000=160.000,144.000=80.000,146.000=160.000,402.000=80.000,406.000=160.000,478.000=40.000;
#STOPS:;
#BGCHANGES:;
// cache tags:
#FIRSTBEAT:0.000;
#LASTBEAT:480.000;
#SONGFILENAME:Songs/SSSC PACK/[Monst3rjoe] - Sphere (Full Version)/SphereExtended.sm;
#HASMUSIC:1;
#HASBANNER:1;
#MUSICLENGTH:211.826;
// end cache tags

//---------------dance-single - Monst3rjoe----------------
#NOTES:
     dance-single:
     Monst3rjoe:
     Challenge:
     13:
     1.000,1.000,0.382,0.425,1.000,1380.000,81.000,90.000,159.000,0.000:


2001
0000
0100
0000
0100
0000
0000
0000
3010
M0M0
0010
0000
0000
0000
0000
0000
,
0102
0000
1000
0000
1000
0000
0000
0000
0013
00MM
0010
0000
0000
0000
0000
0000
,
2001
0000
0100
0000
0100
0000
0000
0000
3010
M0M0
0010
0000
0000
0000
0000
0000
,
0102
0000
0010
0000
0010
0000
0000
0000
1003
M00M
1000
0000
0000
0000
0000
0000
,
0012
0000
0100
0000
0100
0000
0000
0000
1003
M00M
1000
0000
0000
0000
0000
0000
,
0120
0000
1000
0000
1000
0000
0000
0000
0031
00MM
0001
0000
0000
0000
0000
0000
,
2100
0000
0001
0000
0001
0000
0000
0000
3010
M0M0
0010
0000
0000
0000
0000
0000
,
0120
0000
1000
0000
1000
0000
0000
0000
0031
00MM
0001
0000
0000
0000
0000
0000
,
0012
0000
1000
0000
1000
0000
0000
0000
0103
0M0M
0100
0000
0000
0000
0000
0000
,
2001
0000
0100
0000
0100
0000
0000
0000
3010
M0M0
0010
0000
0000
0000
0000
0000
,
0210
0000
0001
0000
0001
0000
0000
0000
1300
MM00
1000
0000
0000
0000
0000
0000
,
2100
0000
0000
0000
0000
0000
0000
0000
0000
0000
0000
0000
0000
0000
0000
0000
0000
0000
0000
0000
0000
0000
0000
0000
0001
0000
0000
0000
0000
0000
0000
0000
0000
0000
0000
0000
0000
0000
0000
0000
0000
0000
0000
0000
0000
0000
0000
0000
0001
0000
0000
0000
0000
0000
0000
0000
0000
0000
0000
0000
0000
0000
0000
0000
0000
0000
0000
0000
0000
0000
0000
0000
0000
0000
0000
0000
0000
0000
0000
0000
0000
0000
0000
0000
0000
0000
0000
0000
0000
0000
0000
0000
0000
0000
0000
0000
3020
0000
0000
0000
0000
0000
0000
0000
0000
0000
0000
0000
0000
0000
0000
0000
0000
0000
0000
0000
0000
0000
0000
0000
0000
0000
0000
0000
0000
0000
0000
0000
0000
0000
0000
0000
0000
0000
0000
0000
0000
0000
0000
0000
0000
0200
0000
0000
0030
0000
0000
0000
0000
0000
0000
0000
0000
0000
0000
0000
0000
0000
0000
0000
0000
0000
0000
0000
0000
0000
0000
0000
0000
0000
0000
0000
0000
0000
0000
0000
0000
0000
0000
0000
0000
0000
0000
0000
0000
0300
0000
0000
0000
0000
0000
0000
,
2MM2
0000
0000
3003
0000
0000
0001
0100
0001
1000
0001
0010
0100
1000
0001
0001
,
0000
0000
0000
0000
MMMM
0000
0000
0000
0000
0000
0000
0000
0000
0000
0000
0000
0200
0000
0000
0000
0000
0000
0000
0000
0000
0000
0000
0000
0000
0000
0000
0300
0200
0000
0000
0000
0000
0000
0000
0000
0000
0000
0000
0000
0000
0000
0000
0300
0000
0000
0000
0000
0000
0000
0000
0000
0001
0000
0000
0000
0000
0000
0000
0000
,
0101
0000
0000
0000
0000
0000
1000
0100
1000
0001
1000
0010
0100
0001
1000
1000
,
0000
MMMM
0000
0000
0100
0000
0M00
0000
0100
0000
0M00
0000
0000
0100
1000
0100
,
1000
0010
0000
0100
0001
0000
0100
0010
0100
0001
0100
0010
1000
0001
0100
0100
,
0000
0000
0000
0000
MMMM
0000
0000
0000
0000
0000
0000
0000
0000
0000
0000
0000
0020
0000
0000
0000
0000
0000
0000
0000
0000
0000
0000
0000
0000
0000
0000
0030
0010
0000
0000
0000
0000
0000
0000
0000
00M0
0000
0000
0000
0000
0000
0000
0000
0010
0000
0000
0000
0000
0000
0000
0000
00M0
0000
0000
0000
0000
0000
0000
0000
,
0100
0001
0000
0010
0100
0010
0001
0010
0100
1000
0100
0010
0001
0010
0100
1000
,
0100
1000
0100
1000
0100
1000
0100
1000
0100
1000
0100
1000
0100
1000
0100
1000
0100
0000
1000
0000
0000
0000
0010
0000
0000
0000
0100
0000
0M00
0000
0100
0000
,
0001
0010
0000
0001
1000
0010
0100
0001
1000
0100
1000
0001
0100
0001
1000
0100
,
0010
0100
0M00
0100
0010
1000
0001
0100
0010
0100
0001
1000
0100
1000
0001
0100
,
0001
0010
MMMM
0010
0100
0001
1000
0100
0010
0100
1000
0001
0100
0010
0100
0001
,
1000
0010
00M0
0010
0001
0010
0100
1000
0001
0100
0010
1000
0100
1000
0010
0100
,
0001
0100
MMMM
0100
1000
0100
1000
0001
0010
0001
1000
0001
0100
0001
0100
0010
,
1000
0010
00M0
0010
0001
1000
0100
1000
0001
0010
0001
1000
0100
1000
0001
1000
,
0010
0100
MMMM
0100
1000
0001
0010
0001
1000
0100
0010
0001
0010
0100
1000
0001
,
0010
0100
0M00
0100
0001
0100
0010
1000
0001
0010
0001
1000
0010
1000
0001
0010
,
0100
0010
MMMM
0010
0100
0001
1000
0010
0100
0010
1000
0001
0010
0001
1000
0010
,
1000
0100
0M00
0100
0010
1000
0001
0010
0100
0010
0001
1000
0010
0100
0010
1000
,
0001
0100
MMMM
0100
1000
0100
0010
0001
1000
0010
0100
0001
0010
0001
0100
0010
,
1000
0010
00M0
0010
0001
0010
0001
1000
0100
1000
0001
1000
0010
1000
0010
0100
,
0001
0100
MMMM
0100
1000
0001
0010
0001
1000
0100
1000
0001
0010
0001
1000
0001
,
0100
0000
0000
0000
0000
0000
0000
0000
0000
0000
0000
0000
0010
0000
0000
0000
0000
0000
0000
0000
0000
0000
0000
0000
00M0
0000
0000
0000
0000
0000
0000
0000
0000
0000
0000
0000
0100
0000
0000
0000
0000
0000
0000
0000
0000
0000
0000
0000
0010
0000
0000
0000
0000
0000
0000
0000
0000
0000
0000
0000
0000
0000
0000
0000
0000
0000
0000
0000
0000
0000
0000
0000
10M0
0000
0000
0000
0000
0000
0000
0000
0000
0000
0000
0000
0000
0000
0000
0000
0000
0000
0000
0000
0000
0000
0000
0000
2000
3000
0000
0000
0000
0000
0000
0000
0000
0000
0000
0000
0000
0000
0000
0000
0000
0000
0000
0000
0000
0000
0000
0000
0000
0000
0000
0000
0000
0000
0000
0000
0000
0000
0000
0000
M100
0000
0000
0000
0000
0000
0000
0000
0000
0000
0000
0000
0000
0000
0000
0000
0000
0000
0000
0000
0000
0000
0000
0000
0200
0300
0000
0000
0000
0000
0000
0000
0000
0000
0000
0000
0000
0000
0000
0000
0000
0000
0000
0000
0000
0000
0000
0000
0000
0000
0000
0000
0000
0000
0000
0000
0000
0000
0000
0000
,
0110
0010
0011
0001
1010
0010
1010
1000
,
1100
0000
0100
0000
0110
0000
0010
0000
0001
1000
0100
0010
0001
0100
0010
1000
,
M000
0000
0000
0000
0MM0
0000
0000
M00M
0MM0
0000
0000
0000
20M0
0000
0000
3200
0000
0000
0302
0000
0000
2003
0000
0000
,
3020
0032
02M3
2300
320M
0320
0230
0302
,
0023
2030
30M2
0203
M320
0032
2003
3020
,
023M
0300
0020
1000
4030
0000
3400
0000
,
0340
0000
0031
MMMM
0002
0023
2030
3002
,
0203
2300
3M20
0032
0M23
0230
2300
3200
,
0302
0023
2M30
3020
0M32
2003
3020
0230
,
0302
0000
0023
0100
0430
0000
4300
0000
,
3004
0000
0000
0000
0203
0000
M0MM
0300
0M01
0010
0001
1000
0010
1000
0001
0010
,
0001
1000
0010
1000
0M01
0010
0100
0010
0M01
1000
0010
0100
0010
1000
0001
0010
,
0100
1000
0010
0100
M001
0010
0001
0100
001M
1000
0100
0010
0001
0100
0010
1000
,
01M0
1000
0001
1000
0010
0100
0001
0010
0M01
1000
0001
0100
0010
1000
0001
1000
,
010M
0010
0100
1000
0001
0100
0010
0100
M001
0010
0100
1000
0100
0010
0001
1000
,
0010
0100
0001
0100
001M
1000
0001
0010
0M01
1000
0010
0100
0001
0100
0010
1000
,
0100
1000
0010
0100
M001
0010
0001
1000
0M01
0010
0100
1000
0001
1000
0010
0100
,
M001
0000
0010
0000
0100
0000
0010
0000
0001
0000
1000
0000
0010
0000
0100
0000
0001
0100
0001
0100
0001
0100
0001
0100
0001
0100
0001
0100
0001
0100
0001
0100
,
0001
0010
0000
0100
0M00
0100
0000
1000
0100
0010
0001
0100
0010
1000
0100
0010
,
0001
0100
0010
1000
0100
1000
0001
0100
0010
1000
0010
0100
0001
1000
0100
0010
,
0001
0100
0010
1000
0100
1000
0001
0100
0001
1000
0100
0010
0001
0010
0100
1000
,
0001
0100
0010
1000
0100
0010
0100
0010
0001
1000
0001
1000
0001
0100
0001
0100
,
0001
0010
0001
0010
0100
1000
0010
0100
0001
1000
0100
1000
0010
0100
0001
1000
,
0001
0100
0001
0010
0100
0010
0001
0100
0010
1000
0100
1000
0001
0100
0010
1000
,
0100
1000
0001
0100
0010
0100
0001
1000
0100
0010
0001
1000
0100
1000
0001
0100
,
0001
1000
0010
1000
0001
0010
0001
1000
0100
0010
0100
1000
0001
0010
0100
1000
,
0001
0010
0001
0100
0010
1000
0010
0100
0001
0000
0100
0000
0110
0000
1010
0000
,
1000
1100
0011
0010
0001
0100
0110
1001
,
0101
0001
0011
1100
1001
0100
0110
0101
,
0001
1000
1010
1100
0100
0110
0011
1001
,
0101
1010
1100
0011
1001
1000
0100
0020
,
0000
0000
0000
0000
1000
0000
0030
0000
0010
0000
0000
0000
0001
0000
0000
0000
0000
0000
0000
0000
0100
0000
0000
0000
0020
0000
0000
0000
0100
0000
0000
0030
,
1M00
0000
0000
0000
0000
0000
0000
0000
0000
0000
0000
0000
0000
0000
0000
0000
0000
0000
0000
0000
0000
0000
0000
0000
0002
0000
0000
0000
0000
0000
0000
0000
0000
0000
0000
0000
0000
0000
0000
0000
0000
0000
0000
0000
0003
0000
0000
0000
0002
0000
0000
0000
0000
0000
0000
0000
0000
0000
0000
0000
0000
0000
0000
0000
0000
0000
0000
0000
0000
0000
0000
0003
0001
0000
0000
0000
0000
0000
0000
0000
0000
0000
0000
0000
0000
0000
0000
0000
0000
0000
0000
0000
0000
0000
0000
0000
2000
0000
0000
0000
0000
0000
0000
0000
0000
0000
0000
0000
0000
0000
0000
0000
0000
0000
0000
0000
0000
0000
0000
0000
3200
0000
0000
0000
0000
0000
0000
0000
0000
0000
0000
0000
0000
0000
0000
0000
0000
0000
0000
0000
0000
0000
0000
0000
2300
0000
0000
0000
0000
0000
0000
0000
0000
0000
0000
0000
0000
0000
0000
0000
0000
0000
0000
0000
0000
0000
0000
0000
3200
0000
0000
0000
0000
0000
0000
0000
0000
0000
0000
0000
0000
0000
0000
0000
0000
0000
0000
0000
0000
0000
0000
0000
,
2300
3020
0130
MMM2
0023
0230
2300
3200
,
0000
0000
1300
0000
0020
0000
0000
0000
0130
0010
1000
0001
0001
0000
MMMM
0000
,
1000
0100
0010
0001
0001
0000
MMMM
0000
1100
0000
0000
0000
0011
0000
0000
0000
,
0101
0000
1010
0000
2002
0000
0000
3003
,
1000
0001
0010
0001
0010
0001
0010
0001
0100
0000
0100
0000
0010
0000
0010
0000
,
1000
1000
0100
0100
0010
0010
0001
0001
,
0100
0100
0010
0010
1000
1000
0001
0001
,
0010
200M
3001
0100
1000
1000
0100
0100
,
0010
0010
0001
0001
0100
0100
0001
0001
,
0010
0010
0100
0100
1000
0010
0100
0010
,
1010
0000
0101
0000
0000
0001
MM11
0010
,
MM11
0001
MM11
0010
MM11
0000
MM11
0000
,
0001
0100
0010
1000
0010
0100
0001
0000
0M11
0000
1M01
0000
0M11
0000
0000
0000
,
0001
1000
0100
1000
0010
0100
0001
0000
M011
0000
M110
0000
M011
0000
0000
0000
,
0001
0100
0010
1000
0100
1000
0010
0100
0001
0000
0000
0000
0001
0000
0000
0000
,
0001
1100
1100
0000
1100
0000
1010
0000
,
0101
0011
0101
1010
,
1100
0000
0011
0000
1000
1100
0011
0000
,
0011
0000
0000
0011
0000
0000
0011
0000
0000
0000
1000
0000
1100
0000
0000
0000
,
1010
0000
0000
0000
0101
0000
0000
0000
2000
3100
1000
0100
1000
0100
1000
0100
,
0020
0031
0010
0001
0010
0001
0010
0100
0010
0001
0100
0010
1000
0100
1000
0010
,
0100
0001
0010
0100
1000
0001
0010
0001
1000
0100
0010
0100
1000
0010
0100
0010
,
1000
0001
0010
0100
0010
0001
0100
0010
0100
0001
1000
0100
1000
0001
0100
0001
,
1000
0010
1000
0001
0010
0001
1000
0100
0010
0001
1000
0010
1000
0010
0100
0001
,
0010
0100
1000
0001
0100
0001
0100
0010
1000
0100
0010
0001
0100
0010
1000
0100
,
1000
0001
0100
0001
1000
0001
0010
0001
1000
0001
1000
0001
0100
0010
0100
0001
,
1000
0100
0010
0100
1000
0001
0010
0100
0010
0001
1000
0010
010M
0010
1000
0100
,
100M
0010
0100
0010
100M
0100
0010
0100
100M
0010
0100
0001
M010
0001
0100
0001
,
1000
0100
0010
0001
0010
0100
1000
0001
M100
0010
M100
0001
M100
0010
1000
0100
,
0010
0001
0010
0100
1000
0100
0010
0001
M100
0001
0M10
0001
10M0
0001
0100
0001
,
1000
0100
0010
0001
0010
0100
1000
0001
1000
0100
1000
0001
0100
0001
1000
0010
,
1000
0100
1000
0001
0010
0001
1000
0100
0010
0100
1000
0001
0100
0001
0100
0010
,
1000
0010
1000
0100
1000
0100
0010
0001
0100
0001
0100
0001
0100
0001
0100
0001
,
0100
0010
1000
0100
1000
0001
0100
0001
2000
0000
0000
0000
0000
0000
0100
0000
,
3200
0000
0000
0000
0340
M000
0M0M
0000
0130
1000
0100
1000
0001
0100
0010
1000
,
0100
0010
0100
0010
0001
0100
0001
0100
0010
1000
0010
1000
0100
0010
0001
0100
,
0010
1000
0100
1000
0001
0100
0001
0010
0100
1000
0001
1000
0010
1000
0001
1000
,
0010
0100
0010
0100
0001
0010
0001
0010
0001
0100
0001
0100
0001
0010
0001
0010
,
0001
1000
0001
1000
0001
0100
0001
0100
0010
1000
0010
0100
0001
0100
0010
1000
,
0010
0100
0010
0100
0010
1000
0010
1000
0010
0100
0010
0100
0010
1000
0100
0010
,
0100
1000
0001
0100
0010
0100
0001
0010
0100
1000
0010
0100
0001
1000
0100
1000
,
0001
0100
0001
0100
0001
0010
0001
0010
0001
1000
0001
1000
0001
0100
0001
0100
,
0001
0010
0001
0010
0001
1000
0001
1000
0010
1000
0001
1000
0100
1000
0001
1000
,
0010
1000
0001
1000
0100
1000
0001
0010
0100
0010
0001
0010
0100
0010
0100
0010
,
0100
0010
0001
0010
0100
0010
0001
1000
0010
0100
0001
0100
0001
0100
0010
0100
,
0001
0100
0010
0100
0001
0100
0010
0100
0001
1000
0100
1000
0100
0010
0001
0010
,
0001
0100
0010
0100
0010
1000
0100
1000
0001
0100
0001
0010
0100
0010
0001
0100
,
0010
0100
0001
0010
0100
0010
0001
1000
0100
0010
0100
1000
0010
0100
0010
1000
,
0100
0010
0100
1000
0001
0100
0010
0100
0001
1000
0001
0100
0010
1000
0100
0010
,
0001
0010
0100
1000
0001
0100
0010
0100
0001
1000
0100
1000
0001
0100
0001
1000
,
0010
1000
0001
0010
0001
1000
0100
0010
0100
1000
0001
0100
0001
1000
0100
1000
,
0001
0010
0001
0010
0100
1000
0010
0100
0001
0010
0001
0010
0100
1000
0010
0100
,
0001
0010
0001
0100
0010
0100
0010
1000
0200
0000
0000
0000
0000
0000
0000
0000
,
M3MM
0000
0000
0000
;
