#TITLE:Yukite Ataru Kabe no Mae;
#SUBTITLE:Bombastik;
#ARTIST:Katou Tatsuya;
#TITLETRANSLIT:;
#SUBTITLETRANSLIT:;
#ARTISTTRANSLIT:;
#CREDIT:;
#BANNER:BN.jpg;
#BACKGROUND:BG.jpg;
#LYRICSPATH:;
#CDTITLE:bombastik.png;
#MUSIC:Yukite Ataru Kabe no Mae.mp3;
#OFFSET:-0.160;
#SAMPLESTART:27.360;
#SAMPLELENGTH:12.000;
#SELECTABLE:YES;
#BPMS:0.000=150.010,64.500=600.040,67.500=150.030,100.000=300.020,164.000=150.010,195.500=600.030,198.500=150.010;
#STOPS:64.500=0.500
,195.500=0.500
;
#BGCHANGES:;
// cache tags:
#FIRSTBEAT:0.500;
#LASTBEAT:271.000;
#SONGFILENAME:Songs/FUCK ANIME PACK/Yukite Ataru Kabe no Mae/Yukite Ataru Kabe no Mae.sm;
#HASMUSIC:1;
#HASBANNER:1;
#MUSICLENGTH:101.799;
// end cache tags

//---------------dance-single - Blank----------------
#NOTES:
     dance-single:
     Blank:
     Challenge:
     11:
     1.000,1.000,1.000,0.894,1.000,765.000,247.000,91.000,0.000,47.000:

0000
0000
1000
0100
1011
0000
0000
1000
0000
0000
0001
0000
1000
0000
0000
0001
,
0000
0000
0100
0010
0100
0000
0000
1000
0000
0000
0001
0000
1000
0100
0000
0010
,
0001
0010
1100
0011
1101
0000
0000
0010
0000
0000
1000
0000
0001
0000
0000
1000
,
0000
0000
1000
0000
0001
0000
0000
0100
0000
0000
0001
0000
1000
0000
0001
0010
,
0000
0000
0000
0010
0100
0000
1000
0000
0100
0000
0010
0000
1101
0000
0000
0000
0000
0000
0000
0000
0000
1000
0000
0000
0000
0000
0000
0000
0000
0000
0001
0000
0000
0000
0000
0000
1000
0000
0000
0000
0000
0000
0000
0000
0000
0001
0000
0000
,
0000
0000
0100
0000
0001
0000
0000
0001
0000
0000
0100
0000
1000
1000
0000
0001
,
0010
0100
0011
1100
0011
0000
0000
1000
0000
0000
0001
0000
0001
0000
0000
0100
,
0000
0000
0001
0000
0001
0000
0000
1000
0000
0000
0001
0000
1000
0000
0000
0010
,
1000
0000
0100
0000
0010
0000
0001
0000
0010
0000
0100
0000
0011
0000
0000
1000
0000
0000
0100
0000
0000
0001
0000
0000
1100
0000
0000
0001
0000
0000
1000
0000
0000
0010
0000
0000
0101
0000
0000
1000
0000
0000
0001
0000
0000
0010
0000
0000
,
1100
0001
0100
0010
1001
0100
1000
0010
0101
1000
0010
0100
0011
0022
0033
1100
,
0011
1000
0001
1000
0011
0100
0010
1000
0011
0100
0010
1000
0101
0010
0001
0100
,
1010
0000
0000
0001
0000
0000
1000
0000
0000
0100
0000
0000
1001
0000
0000
0010
0000
0000
0100
0000
0000
0001
0000
0000
1010
0000
0000
0100
0000
0000
0010
0000
0000
1000
0000
0000
0011
0000
0000
0100
0000
0000
0001
0000
0010
0000
0100
0000
,
1000
0000
0100
0000
0010
0000
0001
0000
0010
0000
0100
0000
1001
0000
0000
0100
0000
0000
0010
0000
0000
1000
0000
0000
0101
0000
0000
0010
0000
0000
0100
0000
0000
0001
0000
0000
1100
0000
0000
0010
0000
0000
0100
0000
0000
0001
0000
0000
,
1010
0100
1000
0010
1001
0100
0010
1000
0011
0100
0010
0100
1010
1010
0000
0110
,
1001
0010
0100
0010
1100
0001
0100
0010
1001
0100
1000
0001
1100
0010
1000
0001
,
1100
0000
0001
0000
0010
0000
1000
0000
0011
0000
0000
0000
0000
0011
0000
0000
0000
0000
0011
0000
0000
0000
0000
0011
0000
0000
0000
0000
0011
0000
0000
0000
,
1000
0000
0000
0000
0000
0000
0000
0000
0100
0000
0000
0000
0000
0000
0000
0000
0010
0000
0000
0000
0000
0000
0000
0000
2200
0000
0000
3300
0000
0000
0000
0000
0000
0000
0000
0000
0000
0000
0000
0000
0000
0000
0000
0000
0000
0000
0000
0000
0000
0000
0000
0000
0000
0000
0000
0000
0000
0000
0000
0000
0000
0000
0000
0000
0000
0000
0000
0000
0000
0000
0000
0000
0000
0000
0000
0000
0000
0000
0000
0000
0000
0000
0000
0000
0000
0000
0000
0000
0000
0000
0000
0000
0000
0000
0000
0000
0000
0000
0000
0000
0000
0000
0000
0000
0000
0000
0000
0000
0000
0000
0000
0000
0000
0000
0000
0000
0000
0000
0000
0000
0000
0000
0000
0000
0000
0000
0000
0000
0000
0000
0000
0000
0000
0000
0000
0000
0000
0000
0000
0000
0000
0000
0000
0000
0000
0000
0000
0000
0000
0000
0000
0000
0000
0000
0000
0000
0000
0000
0000
0000
0000
0000
0000
0000
0000
0000
0000
0000
1001
0000
0000
0000
0000
0000
0000
0000
0000
0000
0000
0000
0010
0000
0000
0000
0000
0000
0000
0000
0000
0000
0000
0000
,
1101
0000
0010
0000
0100
0000
0001
0000
1100
0000
0010
0000
1001
0000
0010
0000
2202
3303
0010
0000
1000
0000
0100
0000
1010
0000
0001
0000
0100
0000
0010
0000
,
0101
0000
1000
0000
0001
0000
0010
0000
1100
0000
0010
0000
1001
0000
0100
0000
2022
0033
3100
0000
0010
0000
0100
0000
0011
0000
0100
0000
0001
0000
0010
0000
,
1100
0000
0010
0000
0001
0000
0100
0000
1010
0000
0100
0000
1010
0000
0001
0000
2220
3330
0001
0000
0100
0000
0010
0000
0101
0000
1000
0000
0010
0000
0100
0000
,
1011
0000
0000
0000
0000
1011
0000
0000
0000
0000
0000
1011
0000
0000
0000
0000
1011
0000
0000
0000
0000
1011
0000
0000
0000
0000
1100
0000
0001
0000
1000
0000
,
0111
0000
1000
0000
0100
0000
0001
0000
1100
0000
0010
0000
1000
0000
0100
0000
2022
3033
0100
0000
0001
0000
0010
0000
1001
0000
0100
0000
0010
0000
1000
0000
,
0011
0000
1000
0000
0010
0000
0001
0000
1100
0000
0010
0000
0100
0000
0001
0000
2220
3330
0001
0000
1000
0000
0100
0000
1001
0000
0010
0000
0001
0000
0100
0000
,
0011
0000
1000
0000
0100
0000
0010
0000
1100
0000
0001
0000
0100
0000
0010
0000
2202
3303
0010
0000
1000
0000
0100
0000
0011
0000
0100
0000
0001
0000
1000
0000
,
0011
0000
0000
0000
0000
0000
0000
0000
0000
0000
0000
0000
0000
0000
0000
0000
0000
0000
0000
0000
0000
0000
0000
0000
0000
0000
0000
0000
0000
0000
0011
0000
0000
0000
0000
0000
0000
0000
0000
0000
0000
0000
0000
0000
0000
0000
0000
0000
0000
0000
0000
0000
0000
0000
0000
0000
0000
0000
0000
0000
0011
0000
0000
0000
0000
0000
0000
0000
0000
0000
0000
0000
0000
0000
0000
0000
0000
0000
0000
0000
0000
0000
0000
0000
0000
0000
0000
0000
0000
0000
0000
0000
0000
0000
0000
0000
0011
0000
0000
0000
0000
0000
0000
0000
0000
0000
0000
0000
0000
0000
0000
0000
1100
0000
0000
0000
0000
0000
0000
0000
0000
0000
0000
0000
0000
0000
0000
0000
0011
0000
0000
0000
0000
0000
0000
0000
0000
0000
0000
0000
0000
0000
0000
0000
0220
0000
0000
0000
0000
0000
0000
0000
0000
0000
0000
0000
0000
0000
0000
0000
0000
0000
0000
0000
0000
0000
0000
0000
0000
0000
0000
0000
0000
0000
0000
0000
0000
0000
0000
0000
0000
0000
0000
0000
0330
0000
0000
0000
0000
0000
0000
0000
,
1110
0001
0010
1000
0011
1000
0010
0100
,
2022
3033
0100
0000
0001
0000
1000
0000
0011
0000
0100
0000
0010
0000
1000
0000
,
0110
0001
1000
0010
1100
0010
0100
0001
,
2220
3330
0001
0000
0100
0000
0010
0000
1001
0000
0100
0000
1000
0000
0001
0000
,
1100
0001
0010
1000
0101
1000
0010
0100
,
2022
3033
0100
0000
0001
0000
1000
0000
0011
0000
1000
0000
0010
0000
0100
0000
,
1010
0000
0000
0000
0000
0000
0000
0000
0000
0000
0000
1010
0000
0000
0000
0000
0000
0000
0000
0000
0000
1010
0000
0000
0000
0000
0000
0000
0000
0000
0000
1010
,
0000
0000
0000
0000
0000
0000
0000
0000
0000
1010
0000
0000
0000
0000
0000
0000
0000
0000
0000
0000
0000
1010
0000
0000
0000
0000
0000
0000
0000
0000
0000
0000
,
1101
1000
0100
0001
1100
0001
0110
0001
,
2220
3330
0001
0000
0100
0000
0010
0000
1100
0000
0010
0000
1000
0000
0001
0000
,
1100
0010
0100
0001
1100
0001
0110
1000
,
0222
0333
1000
0000
0001
0000
0100
0000
0011
0000
0100
0000
0010
0000
1000
0000
,
0110
0001
0100
0010
1100
0001
0110
0001
,
2220
3330
0001
0000
1000
0000
0100
0000
1001
0000
0010
0000
0100
0000
0001
0000
,
1100
0000
0000
0000
0000
0000
0000
0000
0000
0000
0000
1100
0000
0000
0000
0000
0000
0000
0000
0000
0000
1100
0000
0000
0000
0000
0000
0000
0000
0000
0000
0000
,
1100
0000
0000
0000
0000
0000
0011
0000
0000
0000
0000
0000
1100
0000
0000
0000
0000
0000
0000
0220
0000
0000
0000
0000
0000
0000
0000
0000
0330
0000
0000
0000
,
1110
0001
0010
0100
0010
0100
1000
0100
0010
1000
0100
0010
0100
1000
0100
1000
,
0100
0010
0001
0010
0001
0010
0100
0001
0010
0100
0010
1000
0100
0010
0100
0010
,
1101
0010
0001
1100
0001
0010
1100
0010
0002
0010
0100
1000
0100
1000
0100
0010
,
0100
0000
0000
0010
0000
0000
0100
0000
0000
1000
0000
0000
0010
0000
0000
0100
0000
0000
1000
0000
0000
0100
0000
0000
1000
0000
0000
0100
0000
0000
0010
0000
0000
1003
0000
0000
0001
0000
0010
0000
0001
0000
0010
0000
0001
0000
0010
0000
,
1100
0001
1000
0010
1100
0010
0100
0001
0110
1000
0010
0100
1001
0010
1000
0001
,
1100
0010
1000
0100
1010
0001
0100
0010
1100
1100
0000
0001
0000
0000
0010
0100
,
1011
0100
0010
1000
0101
0010
1000
0001
1100
0010
0100
0001
1010
0100
1000
0001
,
1100
0000
0000
0000
0000
0000
0000
0000
0000
0000
0000
0000
0000
0000
0000
0000
0000
0000
0000
0000
0000
0000
0000
0000
0000
0000
0000
0000
0000
0000
1100
0000
0000
0000
0000
0000
0000
0000
0000
0000
0000
0000
0000
0000
0000
0000
0000
0000
0000
0000
0000
0000
0000
0000
0000
0000
0000
0000
0000
0000
1100
0000
0000
0000
0000
0000
0000
0000
0000
0000
0000
0000
0000
0000
0000
0000
0000
0000
0000
0000
0000
0000
0000
0000
0000
0000
0000
0000
0000
0000
1100
0000
0000
0000
0000
0000
0000
0000
0000
0000
0000
0000
0000
0000
0000
0000
0000
0000
0000
0000
0000
0000
0000
0000
0000
0000
0000
0000
0000
0000
1100
0000
0000
0000
0000
0000
0000
0000
0000
0000
0000
0000
0000
0000
0000
0000
0000
0000
0000
0000
0000
0000
0000
0000
0001
0000
0000
0000
0000
0000
0000
0000
0010
0000
0000
0000
0000
0000
0000
0000
0100
0000
0000
0000
0000
0000
0000
0000
2002
0000
0000
3003
0000
0000
0000
0000
0000
0000
0000
0000
0000
0000
0000
0000
0000
0000
0000
0000
0000
0000
0000
0000
,
0000
0000
0000
0000
0000
0000
0000
0000
0000
0000
1100
1100
0011
1000
0010
0100
,
1010
0000
0001
0000
0100
0000
0010
0000
2202
3303
0010
0000
0001
0000
0100
0000
1001
0000
0010
0000
0001
0000
1000
0000
0011
0000
1000
0000
0010
0000
0100
0000
,
1010
0000
0100
0000
0010
0000
0001
0000
2220
3330
0001
0000
1000
0000
0010
0000
0101
0000
1000
0000
0001
0000
0100
0000
0011
0000
0100
0000
0001
0000
0010
0000
,
1100
0000
0001
0000
0100
0000
1000
0000
0222
0333
1000
0000
0010
0000
0100
0000
0011
0000
1000
0000
0100
0000
0001
0000
1010
0000
0000
0000
0000
0000
0011
0000
,
0000
0000
0000
0000
0000
0000
1100
0000
0000
0000
0000
0000
0000
0000
1001
0000
0000
0000
0000
0000
0000
0000
0110
0000
0000
0000
0000
0000
0000
0000
1100
0000
0000
0011
0000
0000
1110
0000
0000
0001
0000
0000
1000
0000
0000
0010
0000
0000
,
1100
0000
0010
0000
0001
0000
0001
0000
2220
3330
0001
0000
0100
0000
0010
0000
0101
0000
1000
0000
0010
0000
0001
0000
1100
0000
0001
0000
0100
0000
1000
0000
,
0011
0000
0100
0000
0010
0000
1000
0000
0222
0333
1000
0000
0010
0000
0100
0000
1001
0000
0010
0000
0100
0000
0001
0000
1100
0000
0010
0000
1000
0000
0100
0000
,
0011
0000
1000
0000
0010
0000
0001
0000
2220
3330
0001
0000
0100
0000
0010
0000
0101
0000
0010
0000
0001
0000
0010
0000
1101
0000
0000
0000
0000
0000
1101
0000
,
0000
0000
0000
0000
0000
0000
0000
0000
0000
0000
0000
0000
0000
0000
0000
0000
0000
0000
0000
0000
0000
0000
0000
0000
1101
0000
0000
0000
0000
0000
0000
0000
0000
0000
0000
0000
0000
0000
0000
0000
0000
0000
0000
0000
0000
0000
0000
0000
1100
0000
0000
0000
0000
0000
0000
0000
0000
0000
0000
0000
0000
0000
0000
0011
0000
0000
0000
0000
0000
0000
0000
0000
0000
0000
0000
0000
0000
0000
0000
1100
0000
0000
0000
0000
0000
0000
0000
0000
0000
0000
0000
0000
0000
0000
0000
0000
0220
0000
0000
0000
0000
0000
0000
0000
0000
0000
0000
0000
0000
0000
0000
0000
0000
0000
0000
0000
0000
0000
0000
0000
0330
0000
0000
0000
0000
0000
0000
0000
0000
0000
0000
0000
0000
0000
0000
0000
0000
0000
0000
0000
0000
0000
0000
0000
1001
0000
0000
0000
0000
0000
0000
0000
0000
0000
0000
0000
0010
0000
0000
0000
0000
0000
0000
0000
0000
0000
0000
0000
1100
0000
0000
0000
0000
0000
0000
0000
0000
0000
0000
0000
0010
0000
0000
0000
0000
0000
0000
0000
0000
0000
0000
0000
,
1100
0000
0010
0000
0101
0000
1000
0000
0222
0333
1000
0000
0101
0000
0010
0000
1100
0000
0001
0000
1010
0000
0100
0000
0011
0000
1000
0000
0101
0000
0010
0000
,
1100
0000
0001
0000
0110
0000
0001
0000
2220
3330
0001
0000
1010
0000
0100
0000
1001
0000
0010
0000
0101
0000
1000
0000
0011
0000
0100
0000
1010
0000
0001
0000
,
0110
0000
1000
0000
0011
0000
1000
0000
0222
0333
1000
0000
0110
0000
0001
0000
1010
0000
0100
0000
1001
0000
0010
0000
0101
0000
1000
0000
0100
0000
0010
0000
,
0100
0010
0100
0010
0001
0010
0100
1000
0100
0010
1100
0011
1100
0001
0110
1000
,
0011
0000
0100
0000
1001
0000
0010
0000
2202
3303
0010
0000
1100
0000
0010
0000
0101
0000
1000
0000
0011
0000
0100
0000
1001
0000
0010
0000
1100
0000
0001
0000
,
0110
0000
1000
0000
0011
0000
1000
0000
0222
0333
1000
0000
0101
0000
0010
0000
1100
0000
0001
0000
1010
0000
0100
0000
0011
0000
1000
0000
0101
0000
0010
0000
,
1001
0000
0010
0000
1100
0000
0010
0000
2202
3303
0010
0000
0101
0000
1000
0000
0011
0000
0100
0000
1001
0000
0010
0000
1101
0000
0000
0000
0000
1101
0000
0000
,
0000
0000
0000
0000
0000
0000
1101
0000
0000
0000
0000
0000
0000
0000
0000
0000
0110
0000
0000
0000
0000
1001
0000
0000
0000
0000
0110
0000
0000
0000
0000
2002
0000
0000
0000
0000
0000
0000
0000
0000
0000
0000
0000
0000
0000
3003
0000
0000
2222
0000
0000
0000
0000
0000
0000
0000
0000
0000
0000
0000
0000
0000
0000
0000
,
0000
0000
0000
0000
,
0000
0000
0000
3333
;
