#TITLE:SnakeEP;
#SUBTITLE:(The Superfily) (DDR Version);
#ARTIST:BASE BOYS;
#TITLETRANSLIT:;
#SUBTITLETRANSLIT:;
#ARTISTTRANSLIT:;
#CREDIT:;
#BANNER:;
#BACKGROUND:;
#LYRICSPATH:;
#CDTITLE:;
#MUSIC:SnakeEP(Superfly).mp3;
#OFFSET:-0.010;
#SAMPLESTART:47.255;
#SAMPLELENGTH:5.000;
#SELECTABLE:YES;
#BPMS:0.000=126.999;
#STOPS:;
#BGCHANGES:;
// cache tags:
#FIRSTBEAT:4.000;
#LASTBEAT:193.250;
#SONGFILENAME:Songs/toune 6/SnakeEP (Preview, Superfly)/SnakeEP(Superfily).sm;
#HASMUSIC:1;
#HASBANNER:0;
#MUSICLENGTH:91.533;
// end cache tags

//---------------dance-single - Oni----------------
#NOTES:
     dance-single:
     Oni:
     Challenge:
     10:
     0.782,0.660,0.219,0.317,0.732,452.000,20.000,29.000,0.000,1.000:
0000
0000
0000
0000
,
1000
0100
1000
0010
0100
0001
1000
0010
,
0100
0001
1000
0010
0100
0001
1000
0010
,
0100
0000
0001
1000
0000
0100
0000
0000
0010
0000
0001
1000
0001
1000
0001
0000
,
1000
0000
0100
0000
1000
0000
0010
0000
0001
0000
0001
1000
0001
1000
0001
0000
,
1000
0001
0000
1000
0001
0000
1000
0000
0001
0000
0010
0100
0010
0100
0010
0000
,
1000
0000
0001
0100
0000
0001
0100
0000
0001
0100
0000
0010
1000
0010
1000
0020
,
0000
1000
0000
1000
0130
0000
1000
0000
0100
0000
0010
0001
0010
0001
0010
0000
,
1000
0100
0000
0100
1000
0000
1000
0100
0000
0100
1000
0100
1000
0100
1000
0000
,
0100
0000
0010
0000
1000
0000
0001
0000
0100
0000
0010
1000
0010
1000
0010
0000
,
0001
1000
0001
1000
0000
1000
0100
0000
0010
0000
0001
0100
0010
1000
0200
0000
,
0010
0000
0310
1000
0000
0001
0000
0000
0100
0000
0001
1000
0010
0100
0010
0000
,
0001
1000
0000
0001
1000
0000
0100
0000
1000
0000
0001
0100
0010
1000
0100
0000
,
0010
0000
1000
0000
0001
1000
0000
0001
1000
0000
0001
0010
0001
0010
0001
0000
,
0100
0000
1000
0000
0001
0100
0000
0001
0100
0000
0010
0100
0001
1000
0200
0000
,
0000
0000
0310
0001
0000
0101
0000
0000
1000
0000
0001
0100
0001
0100
0002
0000
,
1000
0000
1003
0100
0000
1010
0000
0000
0100
0000
0010
0100
0010
0100
0020
0000
,
0100
0030
0100
0010
0000
0110
0000
0000
0000
0001
0000
1000
0000
2002
0000
0000
,
3003
0010
0000
0100
0000
0220
0000
0000
0000
0000
1330
0001
0000
1000
0001
0000
,
0100
0000
0010
1000
0000
1010
0000
0000
0100
0000
0020
0000
0001
0000
0031
0000
,
1000
0000
0100
0001
0000
0011
0000
0000
0001
0000
0200
0000
0001
0000
0301
0000
,
1000
0000
0010
0100
0000
1001
0000
0000
0010
0000
0200
0000
0010
0000
0310
0000
,
1000
0000
1000
0100
0000
1000
0100
0000
0010
0000
0001
1000
0001
1000
0001
0000
,
0100
0000
0010
0100
0000
0010
0100
0000
1000
0000
0001
0100
0010
1000
0010
0000
,
0100
0000
0001
0100
0000
0010
1000
0000
0010
0000
0100
0001
0010
1000
0100
0000
,
0010
0000
0001
0100
0000
0010
1000
0000
0100
0000
1000
0100
0010
0001
0010
0000
,
0100
0000
0010
0100
0000
0001
1000
0000
0100
0000
1000
0100
1000
0001
0100
0000
,
0010
0000
1000
0100
0000
0010
0001
0000
1000
0000
0200
0000
0010
0000
0310
0000
,
0001
0000
0010
0100
0000
0010
0100
0000
1000
0000
1200
0000
1000
0000
1300
0000
,
1100
0000
0100
0010
0000
0100
0010
0000
0001
0000
0120
0000
0100
0000
0130
0000
,
1000
0000
0100
1000
0000
0100
1000
0000
0100
0000
0201
0000
0001
0000
0301
0000
,
1000
0000
0010
0100
0000
0100
0010
0000
0110
0000
1200
0000
1000
0000
1300
0000
,
0001
0000
1000
0100
0000
1000
0100
0000
0010
0000
0102
0000
0100
0000
0103
0000
,
0010
0000
1000
0100
0000
0010
0100
0000
0010
0000
0100
1000
0100
1000
0100
0000
,
0010
0000
0001
0100
0000
0110
0000
1000
0100
0000
1000
0100
1000
0100
1000
0000
,
0100
0000
0010
0100
0000
1001
0000
0100
0010
0000
0200
0010
0000
0310
0100
0000
,
1000
0000
0001
0100
0000
0101
0000
0001
0100
0000
0002
0100
0000
0103
0001
0000
,
1000
0000
0010
0100
0000
1100
0000
1000
0100
0000
1000
0100
1000
0100
1000
0000
,
0100
0010
0001
1000
0001
0100
0010
1000
,
0200
0001
1000
0010
0001
0010
1000
0001
,
0320
0100
0100
0001
0001
1000
1000
0001
,
0001
0030
0200
0000
1000
0000
1000
0000
0010
0000
0010
0000
0001
0000
0001
0000
,
1000
0320
0001
0001
0100
0100
1000
1000
,
1000
0230
0001
0000
0001
0000
1000
0000
1000
0000
0001
0000
0001
0000
0010
0000
,
1000
0302
1000
0000
1000
0000
0100
0000
0100
0000
0010
0000
0010
0000
0010
0000
,
1000
0203
0010
0000
0010
0000
0001
0000
0001
0000
1000
0000
1000
0000
0010
0000
,
0320
0100
0100
1000
1000
0001
0001
0100
,
0230
1000
1000
0001
0001
0010
0010
0001
,
0001
0000
1000
0001
0300
1001
0000
0000
0000
0000
0000
0000
0000
0000
0000
0000
;
