#TITLE:Defection;
#SUBTITLE:;
#ARTIST:ParagonX9;
#TITLETRANSLIT:;
#SUBTITLETRANSLIT:;
#ARTISTTRANSLIT:;
#CREDIT:;
#BANNER:defection-bn.png;
#BACKGROUND:defection-bg.png;
#LYRICSPATH:;
#CDTITLE:!cdtitle.png;
#MUSIC:ParagonX9 - Defection.mp3;
#OFFSET:-0.049;
#SAMPLESTART:28.800;
#SAMPLELENGTH:19.200;
#SELECTABLE:YES;
#BPMS:0.000=90.010,16.000=180.020,112.000=22.503,114.000=90.010,150.000=180.020;
#STOPS:;
#BGCHANGES:;
// cache tags:
#FIRSTBEAT:0.000;
#LASTBEAT:214.000;
#SONGFILENAME:Songs/Keyboard Collaboration II/Zaghurim - Defection/defection.sm;
#HASMUSIC:1;
#HASBANNER:1;
#MUSICLENGTH:97.044;
// end cache tags

//---------------dance-single - ----------------
#NOTES:
     dance-single:
     :
     Hard:
     11:
     1.000,1.000,0.412,0.000,1.000,714.000,40.000,0.000,0.000,0.000:  // measure 1
0100
0000
0000
0100
0000
0000
0100
0000
0000
0000
0010
0000
0100
0000
1000
0000
,  // measure 2
0100
0000
0000
0100
0000
0000
0010
0000
0001
0000
0000
0001
0000
0000
1000
0000
,  // measure 3
0100
0000
0000
0100
0000
0000
0100
0000
0000
0000
0010
0000
0100
0000
1000
0000
,  // measure 4
0110
0000
0000
0000
1000
0000
0000
0000
0001
0000
0000
0000
0110
0000
0000
0000
1000
0000
0000
0000
0001
0000
0000
0000
0110
0000
0000
0000
0000
0000
0000
0000
0001
0000
1000
0000
0001
0000
1000
0000
0001
0000
0000
0000
1000
0000
0001
0000
1000
0000
0001
0000
1000
0000
0000
0000
0001
0000
0010
0000
1000
0100
0010
0001
,  // measure 5
0110
1000
0100
0010
0001
0000
1000
0001
0100
0010
1000
0000
0010
0000
1000
0010
,  // measure 6
1000
0000
0100
0000
0010
0000
1000
0001
0100
0010
1000
0000
0010
0000
0100
0001
,  // measure 7
1000
0000
0100
0000
0010
0000
1000
0001
0100
0010
1000
0000
0010
0000
0100
0001
,  // measure 8
1000
0000
0100
0000
0010
0000
0100
0001
1000
0010
0100
0000
1000
0100
0010
0001
,  // measure 9
1010
0001
1000
0010
0100
0000
0001
0100
1000
0010
0001
0000
0010
0000
0001
0010
,  // measure 10
0001
0000
1000
0000
0010
0000
0001
0100
1000
0010
0001
0000
0010
0000
1000
0100
,  // measure 11
0001
0000
1000
0000
0010
0000
0001
0100
1000
0010
0001
0000
0010
0000
1000
0100
,  // measure 12
0001
0000
1000
0000
0010
0000
1001
0100
0001
0010
1000
0000
0011
1000
0010
0100
,  // measure 13
1001
0010
1000
0100
0001
1000
0100
0001
1000
0001
1000
0100
0001
1000
0010
0001
,  // measure 14
1000
0001
1000
0100
0001
1000
0010
0001
1000
0001
1000
0100
0010
1000
0010
0001
,  // measure 15
0010
0100
0001
0100
0010
0100
0010
1000
0010
0100
0001
0100
0010
1000
0010
0100
,  // measure 16
0010
0100
0001
0100
0010
1000
0010
0100
0010
0100
0001
0010
0100
0010
0100
0010
,  // measure 17
1001
0010
0100
1000
0010
0100
0001
0010
0100
1000
0010
0100
1000
0100
0010
0001
,  // measure 18
0100
0010
1000
0100
0010
0001
0100
0010
0001
1000
0010
0100
0001
1000
0010
0100
,  // measure 19
0001
1000
0010
0100
0001
1000
0010
0100
0001
1000
0001
0010
1000
0010
0001
1000
,  // measure 20
0100
0001
0100
1000
0100
0010
0101
0010
0100
1000
0100
0010
0101
0010
0100
0010
,  // measure 21
1001
0100
0001
0010
1000
0001
0010
1000
0001
1000
0001
0010
1000
0001
0100
1000
,  // measure 22
0001
1000
0001
0010
1000
0001
0100
1000
0001
1000
0001
0010
0100
0001
0100
1000
,  // measure 23
0100
0010
1000
0010
0100
0010
0100
0001
0100
0010
1000
0010
0100
0001
0100
0010
,  // measure 24
0100
0010
1000
0010
0100
0001
0100
0010
0100
0010
1000
0100
0010
0100
0010
0100
,  // measure 25
1001
0100
0010
0001
0100
0010
1000
0100
0010
0001
0100
0010
0001
0010
0100
1000
,  // measure 26
0010
0100
0001
0010
0100
1000
0010
0100
1000
0001
0100
0010
1000
0001
0100
0010
,  // measure 27
1000
0001
0100
0010
1000
0001
0100
0010
1000
0001
1000
0100
0001
0100
1000
0001
,  // measure 28
0010
1000
0010
0001
0010
0100
1010
0100
0010
0001
0010
0100
1010
0100
0010
0100
,  // measure 29
1001
0000
0000
0000
0000
0000
0000
0000
1010
0100
1000
0010
0000
0100
0000
0010
,  // measure 30
1000
0100
1000
0010
0000
0010
0100
0010
0001
0010
0000
0100
0000
0100
1000
0100
,  // measure 31
0010
0100
0010
1000
0000
1000
0010
0100
1000
0100
1000
0010
0000
0100
0000
0010
,  // measure 32
1000
0100
1000
0010
0000
0010
0100
0010
0001
0010
0001
0100
0000
0100
1000
0100
,  // measure 33
0010
0000
0100
0000
0010
0000
1000
0000
0000
0000
1000
0000
0010
0000
0010
0100
1010
0000
0000
0000
0010
0000
1010
0000
0000
0000
0000
0000
0010
0000
0000
0000
,  // measure 34
0011
0000
0001
0011
0000
0000
0001
0000
0110
0000
0010
0110
0000
0000
0010
0000
,  // measure 35
1100
0000
0100
1100
0000
0100
0011
0000
0011
0000
0010
0011
0000
0000
0010
0000
,  // measure 36
0110
0000
0100
0110
0000
0000
0100
0000
1010
0000
0010
1010
0000
0000
0010
0000
,  // measure 37
0001
0000
0000
0000
0000
0000
0000
0000
0000
0000
0000
0000
1000
0000
0000
0000
0000
0000
0000
0000
0000
0000
0000
0000
0010
0000
0000
0000
0000
0000
0000
0000
0000
0000
0000
0000
0100
0000
0000
0000
0000
0000
0000
0000
0000
0000
0000
0000
0000
0000
0000
0000
0000
0000
0000
0000
0000
0000
0000
0000
0100
0000
0000
0000
0000
0000
0000
0000
0000
0000
0000
0000
1000
0000
0000
0000
0000
0000
0000
0000
0000
0000
0000
0000
0010
0000
0000
0000
0000
0000
0000
0000
0000
0000
0000
0000
1001
0000
0000
0000
0000
0000
0000
0000
0000
0000
0000
0000
0000
0000
0000
0000
0000
0000
0000
0000
0100
0000
0000
0000
0000
0000
0000
0000
0000
0000
0000
0000
0000
0000
0000
0000
1001
0000
0000
0000
0000
0000
0000
0000
0000
0000
0000
0000
0000
0000
0000
0000
0000
0000
0000
0000
0100
0000
0000
0000
0000
0000
0000
0000
0000
0000
0000
0000
0000
0000
0000
0000
1001
0000
0000
0000
0000
0000
0000
0000
0000
0000
0000
0000
0100
0000
0000
0000
0000
0000
0001
0000
0000
0000
0000
0000
,  // measure 38
1000
0001
0100
1000
0010
0000
1000
0000
0100
0010
0001
0010
1000
0001
0010
0100
1001
0000
0000
0000
0010
0000
0001
0000
0100
0000
0000
0000
1000
0000
0001
0000
,  // measure 39
0100
0010
1000
0010
0001
0000
1000
0001
0100
0000
0100
1000
0010
0000
0100
0001
,  // measure 40
1000
0010
0001
0000
0010
1000
0010
0001
1000
0000
0010
0001
0100
0000
0010
0001
,  // measure 41
1000
0010
0100
0001
0010
0000
1000
0001
0100
0000
0100
1000
0010
0000
0100
0001
,  // measure 42
1000
0010
0100
0000
0010
1000
0100
0001
1000
0000
0001
1000
0010
0000
1000
0001
,  // measure 43
0100
0010
1000
0100
0010
0000
0100
0001
0010
0000
0010
0001
0100
0000
0100
0010
,  // measure 44
0001
0100
0010
1000
0010
0001
0010
0100
1000
0000
0010
0001
0100
0000
0100
0001
,  // measure 45
1000
0010
0100
0001
0010
0000
1000
0001
0100
0000
0010
1000
0100
0000
0010
0001
,  // measure 46
0010
0100
1000
0000
0001
1000
0100
0010
1001
0000
0100
1000
0001
0000
0010
1000
,  // measure 47
0001
0100
0010
0100
1000
0000
0010
1000
0001
0000
0001
0010
0100
0000
0001
1000
,  // measure 48
0010
0100
1000
0000
0100
0010
0100
1000
0010
0000
0100
1000
0001
0000
0100
1000
,  // measure 49
0010
0100
0001
1000
0100
0000
0010
1000
0001
0000
0001
0010
0100
0000
0001
1000
,  // measure 50
0010
0100
0001
0000
0100
0010
0001
1000
0010
0000
1000
0010
0100
0000
0010
1000
,  // measure 51
0001
0100
0010
0001
0100
0000
0001
1000
0100
0000
0100
1000
0001
0000
0001
0100
,  // measure 52
1000
0001
0100
0010
0100
1000
0100
0001
0010
0000
0100
1000
0001
0000
0001
1000
,  // measure 53
0010
0100
0001
1000
0100
0000
0010
1000
0001
0000
0100
0010
0001
0000
0110
1000
,  // measure 54
0100
0001
0010
0000
1001
0100
0010
0100
1001
0000
0000
0000
0000
0000
0000
0000
;
