#TITLE:[5-4] Bringer of Plagues;
#SUBTITLE:;
#ARTIST:Divine Heresy;
#TITLETRANSLIT:;
#SUBTITLETRANSLIT:;
#ARTISTTRANSLIT:;
#CREDIT:;
#BANNER:../Beast 4 - bn.png;
#BACKGROUND:../Beast 4 - bg.png;
#LYRICSPATH:;
#CDTITLE:;
#MUSIC:Bringer of Plagues.ogg;
#OFFSET:-0.016;
#SAMPLESTART:42.365;
#SAMPLELENGTH:11.700;
#SELECTABLE:YES;
#DISPLAYBPM:270.000;
#BPMS:0.000=255.000,404.000=270.000,464.000=228.000,626.000=255.000,770.000=270.000;
#STOPS:;
#BGCHANGES:;
// cache tags:
#FIRSTBEAT:4.000;
#LASTBEAT:892.000;
#SONGFILENAME:Songs/Beast Aoreo BEAST! 4/Bringer of Plagues - [Aoreo]/Bringer of Plagues.sm;
#HASMUSIC:1;
#HASBANNER:1;
#MUSICLENGTH:218.409;
// end cache tags

//---------------dance-single - J. Nero----------------
#NOTES:
     dance-single:
     J. Nero:
     Challenge:
     18:
     1.000,1.000,0.000,0.531,1.000,2217.000,0.000,116.000,0.000,0.000:
0000
0000
0000
0000
,
2000
0000
0000
3000
0001
0100
0010
1000
0001
1000
0001
0100
0010
0100
0001
1000
,
0001
1000
0100
0010
0001
1000
0100
1000
0001
0010
0100
1000
0001
0000
0000
0000
,
2000
0000
0000
3000
0001
0100
0001
1000
0001
0100
0010
1000
0001
0100
0001
1000
,
0100
1000
0001
0010
0100
1000
0001
1000
0010
0100
0010
1000
0001
0000
0000
0000
,
2000
0000
0000
3000
0001
0100
0010
0100
0001
1000
0010
0100
0001
1000
0001
0100
,
0001
1000
0100
0010
0100
1000
0001
0010
0100
1000
0001
1000
0001
0100
0001
1000
,
0010
0100
0010
1000
0001
1000
0001
0100
0001
1000
0100
0010
0001
1000
0001
1000
,
0010
0100
0001
1000
0001
0100
0001
1000
0100
0010
0001
1000
0001
0000
0000
0000
,
2000
0000
0000
3000
0001
0100
0001
1000
0010
0100
0010
1000
0001
0100
0001
1000
,
0010
1000
0001
0010
0100
1000
0001
1000
0100
0010
0001
1000
0100
1000
0001
0100
,
0010
1000
0001
0100
0010
0100
0001
1000
0100
1000
0001
0010
0001
1000
0100
0010
,
0001
1000
0001
1000
0001
0100
0010
0100
0001
1000
0010
0100
0001
1000
0010
0100
,
0010
1000
0001
0010
0001
1000
0100
0010
0001
1000
0100
1000
0001
0100
0001
1000
,
0010
0100
0010
1000
0001
1000
0100
0010
0001
1000
0100
1000
0001
0100
0010
1000
,
0001
0100
0001
1000
0001
0010
0100
1000
0001
1000
0100
0010
0001
1000
0010
1000
,
0001
0100
0001
1000
0010
1000
0001
1000
0100
0010
0001
1000
0001
0000
0000
0000
,
1000
0001
1000
0001
0100
0000
0001
0100
0001
1000
0100
1000
0100
0000
0010
0001
,
1000
0001
0100
0010
0100
0000
0001
1000
0001
0000
1000
0100
1000
0001
0010
0100
,
1000
0000
0001
0100
0001
0000
1000
0100
1000
0001
0100
0001
1000
0000
0001
0100
,
0001
1000
0010
0100
0001
1000
0100
0010
0002
0000
0003
0000
0000
0000
0000
0000
,
1000
0100
1000
0100
0010
0000
0000
0000
0001
0100
0010
0100
0001
0000
0000
0000
,
1000
0100
1000
0001
0100
0000
0000
0000
0001
0000
0000
0000
1000
0010
1000
0010
,
0100
0000
0000
0000
0001
0000
0000
0000
0010
0100
0010
0100
1000
0000
0000
0000
,
0001
0100
0001
1000
0100
0000
0000
0000
1000
0010
1000
0001
0100
0000
0000
0000
,
0001
1000
0100
1000
0001
0000
0000
0000
1000
0100
1000
0001
1000
0000
0000
0000
,
0001
0010
0100
1000
0001
0000
0000
0000
1000
0000
0000
0000
0010
1000
0010
0100
,
0001
0000
0000
0000
1000
0000
0000
0000
0010
0100
0010
0100
0001
0000
0000
0000
,
1000
0100
1000
0100
0010
0000
0000
0000
0001
0100
0001
0100
0010
0000
0000
0000
,
1000
0010
1000
0001
0100
0000
0000
0000
0001
0010
0100
1000
0001
0000
0000
0000
,
1000
0001
0100
0001
0100
0000
0000
0000
0001
0000
0000
0000
0010
0100
1000
0100
,
1000
0000
0000
0000
0001
0000
0000
0000
0100
0010
0100
0001
1000
0000
0000
0000
,
0001
0010
0001
1000
0100
0000
0000
0000
1000
0001
1000
0001
0100
0000
0000
0000
,
0001
0100
0010
0100
0001
0000
0000
0000
1000
0100
1000
0001
1000
0000
0000
0000
,
0001
0100
0001
1000
0100
0000
0000
0000
1000
0000
0000
0000
0001
0010
0100
1000
,
0001
0000
0000
0000
1000
0000
0000
0000
0001
0100
0001
1000
0001
0000
0000
0000
,
1000
0010
1000
0001
0100
0000
0000
0000
0001
0010
0100
1000
0001
0000
0000
0000
,
2000
0000
0000
3000
0001
0000
1000
0000
0001
0000
1000
0000
0010
0000
0100
0001
,
0100
0000
0001
0000
1000
0000
0010
0000
0100
0000
0001
0000
0010
0000
0100
1000
,
0100
1000
0001
1000
0100
1000
0010
0100
,
0001
1000
0010
0100
0001
1000
0100
0010
0001
1000
0001
0100
0010
0000
1000
0000
,
0001
1000
0010
0100
0001
0010
0100
1000
,
0001
0000
0100
0000
0001
0000
1000
0000
0100
0000
0010
0000
0001
0000
0100
0010
,
0100
0000
0001
0000
1000
0000
0001
0000
1000
0000
0100
0000
1000
0000
0010
0100
,
0010
0000
1000
0001
1000
0000
0001
1000
0001
0010
0100
1000
0001
0100
0010
0100
,
0002
0000
0000
0000
0013
0000
0001
0000
1000
0000
0010
0000
0100
0000
0001
1000
,
0001
0010
0100
1000
0010
0100
0001
0100
,
0010
0000
1000
0000
0001
0000
1000
0000
0100
0000
0010
0001
0010
0000
0100
0000
,
1000
0010
0100
0001
1000
0100
0010
0001
1000
0001
0100
0001
1000
0000
0010
0000
,
0100
0000
0001
0000
1000
0000
0001
0000
0100
0000
0010
0000
1000
0000
0001
0100
,
0001
0000
1000
0000
0100
0000
0010
0000
0100
0000
1000
0000
0001
0000
0010
0100
,
1000
0001
0100
0001
1000
0100
1000
0001
,
0100
0000
0001
0000
1000
0000
0100
0000
1000
0000
0010
0100
0010
0000
0000
0000
,
2000
0000
0000
3000
0001
0100
0001
1000
0010
1000
0001
0100
0010
1000
0010
0100
,
0001
1000
0100
0010
0001
1000
0100
1000
0001
0010
0100
1000
0001
0000
0000
0000
,
2000
0000
0000
3000
0001
0100
0001
1000
0010
0100
0001
1000
0001
0100
0010
0100
,
0001
1000
0001
0010
0100
1000
0001
1000
0001
0100
0010
1000
0001
0000
0000
0000
,
0200
0000
0000
0300
0001
1000
0010
1000
0001
0100
0010
1000
0001
1000
0100
0010
,
0001
1000
0001
1000
0010
0100
0010
1000
0001
1000
0100
0010
0001
1000
0100
1000
,
0001
0100
0001
1000
0010
0100
0010
1000
0001
0100
0001
1000
0001
0010
0100
1000
,
0001
1000
0100
0010
0001
1000
0010
1000
0001
0100
0010
1000
0001
0000
0000
0000
,
2000
0000
0000
3000
0001
0100
0001
1000
0010
0100
0010
1000
0001
0010
0100
1000
,
0001
1000
0010
0100
0001
0100
0010
1000
0001
1000
0100
0010
0001
1000
0100
1000
,
0001
0010
0100
1000
0001
0100
0001
1000
0010
0100
0010
1000
0001
1000
0100
0010
,
0001
1000
0001
0100
0001
0100
0010
1000
0001
1000
0100
0010
0001
1000
0001
0100
,
0001
1000
0010
0100
0010
1000
0001
1000
0100
0010
0001
1000
0100
1000
0001
0100
,
0010
0100
0001
1000
0100
0010
0001
1000
0001
1000
0010
0100
0001
1000
0001
0010
,
0100
1000
0001
0100
0001
1000
0010
0100
0010
1000
0001
0010
0100
1000
0001
0100
,
0001
1000
0010
1000
0001
0010
0100
1000
0001
0100
0001
1000
0001
0000
0000
0000
,
1000
0100
1000
0100
0010
0000
0000
0000
0001
0100
0010
0100
0001
0000
0000
0000
,
1000
0100
1000
0001
0100
0000
0000
0000
0001
0000
0000
0000
1000
0010
1000
0010
,
0100
0000
0000
0000
0001
0000
0000
0000
0010
0100
0010
0100
1000
0000
0000
0000
,
0001
0100
0001
1000
0100
0000
0000
0000
1000
0010
1000
0001
0100
0000
0000
0000
,
0001
1000
0100
1000
0001
0000
0000
0000
1000
0100
1000
0001
1000
0000
0000
0000
,
0001
0010
0100
1000
0001
0000
0000
0000
1000
0000
0000
0000
0010
1000
0010
0100
,
0001
0000
0000
0000
1000
0000
0000
0000
0010
0100
0010
0100
0001
0000
0000
0000
,
1000
0100
1000
0100
0010
0000
0000
0000
0001
0100
0001
0100
0010
0000
0000
0000
,
1000
0010
1000
0001
0100
0000
0000
0000
0001
0010
0100
1000
0001
0000
0000
0000
,
1000
0001
0100
0001
0100
0000
0000
0000
0001
0000
0000
0000
0010
0100
1000
0100
,
1000
0000
0000
0000
0001
0000
0000
0000
0100
0010
0100
0001
1000
0000
0000
0000
,
0001
0010
0001
1000
0100
0000
0000
0000
1000
0001
1000
0001
0100
0000
0000
0000
,
0001
0100
0010
0100
0001
0000
0000
0000
1000
0100
1000
0001
1000
0000
0000
0000
,
0001
0100
0001
1000
0100
0000
0000
0000
1000
0000
0000
0000
0001
0010
0100
1000
,
0001
0000
0000
0000
1000
0000
0000
0000
0001
0100
0001
1000
0001
0000
0000
0000
,
1000
0010
1000
0001
0100
0000
0000
0000
0001
0010
0100
1000
0001
0000
0000
0000
,
2000
0000
0000
0000
3001
0000
0100
0000
0001
0000
1000
0000
0100
0000
1000
0010
,
1000
0000
0001
0000
0010
0000
0100
0000
0010
0000
0001
0000
1000
0000
0010
0100
,
0010
1000
0100
0010
0001
0100
0001
1000
,
0001
0100
0001
1000
0010
0100
0001
1000
0100
0010
0001
1000
0001
0000
0100
0000
,
0001
0100
0010
1000
0100
0010
0001
0100
,
0001
0000
1000
0000
0100
0000
1000
0000
0001
0000
0100
0000
0001
0000
0010
0100
,
0010
0000
0100
0000
1000
0000
0001
0000
0100
0000
0001
0000
1000
0000
0010
0100
,
0010
0000
1000
0100
1000
0000
0001
0100
0001
1000
0100
0010
0001
1000
0001
0100
,
0002
0000
0000
0000
1003
0000
0100
0000
1000
0000
0001
0000
0010
0000
0100
1000
,
0100
1000
0001
0100
0001
1000
0100
1000
,
0001
0000
0010
0000
0100
0000
1000
0000
0001
0000
0100
0001
0100
0000
0000
0000
,
0001
1000
0010
0100
0010
1000
0001
0010
0100
1000
0001
0100
0001
0000
1000
0000
,
0010
0000
0100
0000
0001
0000
0010
0000
0100
0000
1000
0000
0001
0000
0100
0010
,
0100
0000
0001
0000
0010
0000
0100
0000
1000
0000
0001
0000
0100
0000
0001
1000
,
0001
1000
0100
0010
0001
1000
0100
1000
,
0002
0003
0020
0030
0200
0300
0020
0030
0200
0300
2000
3000
0002
0003
2000
3000
,
0002
0000
0023
0000
,
0230
0000
1300
0002
,
0000
0000
0100
0000
0000
0003
0002
0000
,
1003
0010
0100
0010
1000
0100
0010
0001
,
0200
0000
0320
0000
,
0130
0002
0000
0023
,
0000
0000
0230
0000
2300
0000
3002
0003
,
0100
0001
0010
0100
1000
0010
0100
0001
,
2000
0000
3020
0000
,
0130
0002
0000
0023
,
0000
0000
0230
0000
0300
0000
2000
3000
,
0001
0100
0001
1000
0100
0010
0001
1000
,
0020
0000
0000
0030
0100
0001
0100
0001
1000
0000
0000
0000
0002
0003
0000
0000
,
0020
0030
0000
0000
0100
1000
0001
1000
0001
0000
0000
0000
2000
3000
0000
0000
,
0002
0003
0000
0000
0000
0000
0000
0000
0000
0000
0000
0000
0000
0000
0000
0000
,
1000
0000
0010
0000
0100
0000
0001
0000
1000
0001
1000
0100
0010
0001
1000
0000
,
0001
0000
0100
0000
0010
0000
1000
0000
0001
0010
0001
0000
1000
0000
0100
0000
,
0010
0000
0001
0000
1000
0000
0010
0000
1000
0000
0010
0000
0100
0001
1000
0000
,
0100
0000
0010
0000
0001
0000
1000
0000
0100
0010
0001
0000
1000
0000
0010
0000
,
1000
0000
0100
0000
0020
0000
0000
0000
0031
1000
0001
0100
0001
1000
0010
0000
,
0100
0000
0010
0000
1000
0000
0100
0000
0010
0001
0100
0000
0001
0000
1000
0000
,
0010
0000
1000
0000
0100
0000
0010
0000
0001
0100
0001
1000
0100
0010
0001
0000
,
1000
0010
1000
0001
0010
0100
1000
0001
0100
0010
0100
0001
1000
0100
0010
0001
,
0100
0010
1000
0001
1000
0000
0001
0000
1000
0010
0100
0010
1000
0001
0010
0100
,
1000
0001
0100
0001
1000
0100
0010
0001
1000
0010
0100
0010
1000
0001
0100
0001
,
1000
0100
1000
0001
0010
0100
1000
0010
0100
0001
1000
0010
0100
0001
1000
0010
,
0100
0010
1000
0001
0100
0001
1000
0100
0010
0001
1000
0001
0010
0001
1000
0100
,
1000
0001
0100
0010
0100
0001
1000
0100
0010
0001
1000
0010
0100
0010
1000
0001
,
1000
0010
0100
0010
1000
0001
0010
0100
1000
0001
0100
0001
1000
0100
1000
0001
,
0010
0100
1000
0001
0100
0010
0100
0001
1000
0001
0100
0001
1000
0100
0010
0001
,
1000
0010
0100
0001
1000
0001
1000
0100
0010
0100
1000
0001
1000
0010
0100
0001
,
1000
0100
0010
0001
1000
0001
0100
0001
1000
0000
0010
0000
0100
0000
0002
0000
,
0023
0000
0130
0000
1000
0000
0001
0000
0100
0000
0001
1000
0100
1000
0001
0100
,
0001
0000
1000
0010
0100
0001
1000
0001
1000
0000
0010
0000
0100
0000
0002
0000
,
0023
0000
0130
0000
1000
0000
0001
0000
0100
0000
0001
0100
0001
1000
0100
0010
,
0001
0000
1000
0100
1000
0001
0100
0001
1000
0000
0001
0000
1000
0000
0200
0000
,
0320
0000
0130
0000
1000
0000
0001
0000
1000
0000
0001
0010
0100
1000
0001
0100
,
0001
0000
1000
0001
0100
0010
1000
0001
1000
0000
0001
0000
0100
0000
0002
0000
,
0023
0000
0130
0000
1000
0000
0010
0000
0100
0000
0001
0100
0001
1000
0100
1000
,
0001
0000
1000
0100
0010
0000
0001
0000
1000
0100
1000
0001
0100
0000
0001
0000
,
1000
0000
0001
0100
0010
0000
1000
0000
0001
0100
0001
1000
0100
0010
0001
1000
,
0001
1000
0010
0100
0001
1000
0001
0000
1000
0100
1000
0100
0010
0000
0001
0000
,
1000
0000
0001
0100
0010
0000
1000
0000
0010
1000
0001
0010
0100
1000
0001
1000
,
0100
0010
0001
0100
0010
1000
0001
0000
1000
0100
1000
0001
0100
0000
0010
0000
,
1000
0000
0100
1000
0001
0000
0100
0000
0010
1000
0001
0100
0001
1000
0100
0010
,
0001
1000
0001
0100
0010
1000
0001
0000
0010
0100
1000
0001
1000
0000
0100
0000
,
1000
0000
0010
0100
0001
0000
1000
0000
0010
0100
0010
1000
0001
0100
0001
1000
,
0100
0010
0001
1000
0100
1000
0001
0000
1000
0100
1000
0001
0100
0000
0001
0000
,
1000
0000
0010
0100
0010
0000
1000
0000
0001
0100
0010
0100
0001
1000
0001
0010
,
0100
1000
0001
0100
0010
1000
0001
0000
1000
0010
0100
0001
0100
0000
0001
0000
,
0010
0000
0100
1000
0100
0000
1000
0000
0010
0100
0001
1000
0001
0010
0100
1000
,
0001
1000
0100
0010
0001
0100
0010
1000
0001
0100
0010
0100
0001
0000
0100
0000
,
0010
0000
1000
0100
1000
0000
0001
0000
1000
0001
0100
0010
0100
0001
1000
0010
,
1000
0001
0010
0100
1000
0001
0100
0000
0001
1000
0010
0100
0001
0000
0100
0000
,
0010
0000
1000
0001
1000
0000
0001
0000
1000
0001
1000
0010
0100
0001
1000
0100
,
0010
0001
1000
0010
1000
0000
0000
0000
0001
1000
0001
1000
0100
0000
1000
0001
,
1000
0010
0100
0001
1000
0000
0001
0100
0001
0100
0010
1000
0010
0000
1000
0001
,
1000
0000
0001
0010
0001
1000
0100
0010
0001
0000
1000
0010
1000
0000
0001
0100
,
0001
1000
0010
1000
0001
0000
1000
0010
1000
0001
0100
0010
1000
0001
0010
0100
,
2000
0000
3000
0000
0000
0000
0000
0000
0001
0100
0001
0100
0010
0000
0000
0000
,
1000
0010
0100
0010
1000
0000
0000
0000
0001
0010
0100
1000
0001
0000
0000
0000
,
1000
0000
0000
0000
0001
0010
0001
0010
0100
0000
0000
0000
1000
0000
0000
0000
,
0100
0010
0100
0010
0001
0000
0000
0000
1000
0010
1000
0001
0100
0000
0000
0000
,
0001
0100
0001
1000
0010
0000
0000
0000
1000
0001
0100
0001
1000
0000
0000
0000
,
0001
0010
0001
1000
0001
0000
0000
0000
1000
0100
0010
0001
1000
0000
0000
0000
,
0001
0000
0000
0000
0100
0001
0100
0010
1000
0000
0000
0000
0001
0000
0000
0000
,
0010
0100
0010
0100
1000
0000
0000
0000
0001
0100
0001
0100
0010
0000
0000
0000
,
1000
0100
1000
0100
0010
0000
0000
0000
0001
0100
0001
1000
0010
0000
0000
0000
,
1000
0100
0010
0001
1000
0000
0000
0000
0001
1000
0100
1000
0100
0000
0000
0000
,
1000
0000
0000
0000
0010
0100
0001
0100
0001
0000
0000
0000
1000
0000
0000
0000
,
0010
0100
0010
1000
0001
0000
0000
0000
1000
0100
1000
0001
0010
0000
0000
0000
,
0001
1000
0001
1000
0100
0000
0000
0000
1000
0010
0100
0010
1000
0000
0000
0000
,
0001
0100
0001
1000
0001
0000
0000
0000
1000
0010
1000
0001
0100
0000
0000
0000
,
0001
0000
0000
0000
1000
0010
0100
0001
1000
0000
0000
0000
0001
0000
0000
0000
,
1000
0100
1000
0001
1000
0000
0000
0000
0001
0100
0001
1000
0010
0000
0000
0000
,
1000
0100
0010
0001
1000
0000
0000
0000
0002
0000
0000
0000
1003
0000
0001
0000
,
1000
0000
0001
0000
0010
0000
0100
1000
0100
0000
1000
0000
0001
0000
0100
0000
,
0010
0000
1000
0000
0010
0000
0100
0001
0100
0000
0001
0000
1000
0000
0001
0000
,
0010
0000
0001
0000
0100
0000
0010
0000
1000
0001
0100
0010
1000
0001
0010
0100
,
1000
0001
0100
0010
1000
0000
0001
0000
1000
0000
0001
0000
0010
0000
0100
0000
,
1000
0100
0010
0001
0010
0100
1000
0001
,
0100
0000
0010
0000
1000
0000
0001
1000
0001
0000
0010
0000
0001
0000
1000
0000
,
0010
0000
0100
0000
0001
0000
1000
0100
1000
0000
0001
0100
0001
0000
1000
0010
,
1000
0001
1000
0100
0010
0001
1000
0001
0200
0000
0000
0000
0310
0000
1000
0000
,
0001
0000
0100
0000
0010
0000
1000
0001
1000
0000
0100
0000
0010
0000
0001
0000
,
0100
0010
1000
0010
0100
0001
1000
0001
,
0100
0000
0001
1000
0001
0000
0000
0000
1000
0010
0100
0001
1000
0001
0010
0100
,
1000
0001
1000
0010
0100
0000
0001
0000
0100
0000
0001
0000
0010
0000
0001
0000
,
1000
0000
0010
0000
0100
0000
0001
0100
0001
0000
1000
0000
0100
0000
0010
0000
,
0001
0000
1000
0000
0001
0000
0010
0100
0010
0000
0001
0000
1000
0000
0010
0000
,
0100
0000
0001
0000
1000
0000
0001
0000
2000
3000
0200
0300
0020
0030
0200
0300
,
0020
0030
0002
0003
2000
3000
0002
0003
2000
0000
0000
0000
0000
0000
0000
0000
,
3200
0000
0320
0000
,
0031
0200
0000
0010
,
0000
0000
0000
0300
0200
0000
0300
0000
0001
0000
0010
0000
0100
0000
1000
0000
,
0010
0100
0001
0100
0020
0000
0000
0000
,
0230
0000
0301
2000
,
0000
3200
0000
0320
,
0032
0000
2003
3000
0010
1000
0010
0100
,
0001
0010
0100
1000
0002
0000
0000
0000
,
0203
0000
0310
2000
,
0000
3200
0000
0320
,
0030
0000
0002
0000
2003
3100
0010
0100
,
1000
0001
0100
0010
0200
0000
0000
0000
,
0302
0000
0000
0023
,
0230
0000
0300
0000
2000
3000
0100
0000
1000
0001
1000
0000
0010
0000
0100
0000
,
0001
0100
0001
0000
1000
0000
0100
0000
0010
0000
0001
0000
0010
0000
0100
0000
,
1000
0000
0001
0000
0100
0000
0010
0000
0200
0300
0010
0000
1000
0000
0001
0000
,
1000
0000
0100
0000
0020
0030
0001
0000
0200
0300
0010
0000
0100
0000
0001
0000
,
1000
0000
0001
0000
0020
0030
0001
0000
0200
0300
0010
0000
1000
0000
0100
0000
,
0010
0100
1000
0001
0200
0300
0200
0300
,
0002
0003
0020
0030
0200
1300
0001
0100
,
0001
0000
1000
0000
0200
0300
1000
0000
0020
0030
0100
0000
0010
0000
1000
0000
,
0001
0000
0010
0000
0200
0300
1000
0000
0020
0030
1000
0000
0001
0000
0100
0000
,
0001
0010
0001
1000
0001
1000
0010
0100
,
0001
0000
1000
0000
0001
0000
0010
0000
0200
0300
1000
0000
0010
0000
0100
0000
,
0001
0000
1000
0000
0200
0300
1000
0000
0020
0030
0100
0000
0001
0000
0100
0000
,
0010
0000
1000
0000
0020
0030
1000
0000
0200
0300
0010
0000
0001
0000
0010
0000
,
0100
1000
0001
1000
0020
0130
0020
1030
,
0200
0000
1300
0000
0002
0003
0010
0000
0200
0300
1000
0000
0010
1000
0010
1000
,
0001
0000
0010
0000
0200
0300
1000
0000
0020
0030
0100
0000
0001
0100
0001
0100
,
0010
0000
1000
0000
0020
0030
0100
0000
0002
0000
0000
0000
0000
0000
0000
0000
,
0003
0000
0000
0000
;
