#TITLE:Metal Man Stage(Megaman 2);
#SUBTITLE:;
#ARTIST:Capcom Sound Team;
#TITLETRANSLIT:;
#SUBTITLETRANSLIT:;
#ARTISTTRANSLIT:;
#CREDIT:Jason D. Gersztyn;
#BANNER:metalman-banner.JPG;
#BACKGROUND:Metalman-bg.GIF;
#LYRICSPATH:;
#CDTITLE:PhoenixW-cdtitle.JPG;
#MUSIC:05 - Metal Man Stage.mp3;
#OFFSET:-0.440;
#SAMPLESTART:40.372;
#SAMPLELENGTH:12.000;
#SELECTABLE:YES;
#BPMS:0.000=150.256;
#STOPS:;
#BGCHANGES:;
// cache tags:
#FIRSTBEAT:2.750;
#LASTBEAT:207.000;
#SONGFILENAME:Songs/keyboard/Metal Man Stage/05 - Metal Man Stage.sm;
#HASMUSIC:1;
#HASBANNER:1;
#MUSICLENGTH:89.503;
// end cache tags

//---------------dance-single - ----------------
#NOTES:
     dance-single:
     :
     Challenge:
     9:
     0.862,0.838,0.525,0.961,0.860,407.000,47.000,86.000,0.000,30.000:
0000
0000
0000
0000
0000
0000
0000
0000
0000
0000
0000
0001
0010
0001
0100
0010
,
0000
0100
0000
0000
0001
1000
0100
0010
1000
1000
0000
0001
0100
0001
1000
0010
,
0000
0100
0000
0000
0010
1000
0100
0001
0010
0100
0000
0000
2002
0000
0000
0000
,
3223
0000
0000
0000
0331
0000
1000
0000
0202
0000
0000
0000
0313
1000
0100
0000
,
0010
0000
0000
0001
0100
0001
0010
0100
1000
0000
0000
0100
0010
0100
1000
0010
,
0000
0100
0000
0000
0001
0010
1000
0100
0010
0010
0000
0001
1000
0100
1000
0010
,
0000
0100
0000
0000
0001
0100
0010
1000
0100
0010
0000
0000
0202
0000
0000
0000
,
2323
0000
0000
0000
3130
0000
0010
0000
2200
0000
0000
0000
3301
0010
0001
0000
,
0100
0000
0010
0000
2000
0000
0000
0000
3001
0000
0100
0010
0000
0000
0220
0000
,
0000
0000
0000
0000
0000
0000
0330
0000
0001
0010
0000
0000
2200
0000
0000
0000
,
0000
3300
0001
0000
0100
0000
0000
0010
0000
0000
0100
0000
0002
0000
0000
0000
,
0203
0000
0000
0000
0310
1000
0100
0000
0010
0000
0100
0000
1000
0010
1000
0000
,
0100
0000
0001
0000
0200
0000
0000
0000
0310
0000
0001
0100
0000
0000
2020
0000
,
0000
0000
0000
0000
0000
0000
3030
0000
0010
0100
0000
0000
0022
0000
0000
0000
,
0000
0033
1000
0000
0010
0000
0000
1000
0000
0000
0001
0000
0100
0010
0100
0000
,
0010
0000
0000
1001
0000
0000
0000
0000
0001
1000
0000
0000
0002
0000
0000
0000
,
0223
0000
0000
0000
2330
0000
0000
0000
3100
0010
0001
0000
1000
0100
1000
0000
,
0001
1000
0000
0000
0010
0000
0000
0000
0100
0010
0000
0000
0020
0000
0000
0000
,
2032
0000
0000
0000
3203
0000
0000
0000
0301
1000
0010
0000
0011
0000
0101
0000
,
1000
0100
1000
0010
0100
0001
1000
0001
0100
0010
1000
0100
2000
0000
0000
0000
,
3022
0000
0000
0000
0233
0000
0000
0000
0301
0010
1000
0000
0010
0100
0010
0000
,
0100
1000
0000
0000
0010
0000
0000
0000
0100
0001
0000
0000
0200
0000
0000
0000
,
2320
0000
0000
0000
3032
0000
0000
0000
0103
0010
0000
0000
1100
0100
0010
0000
,
1001
1001
0000
0110
0000
0011
0000
0010
1000
0010
0000
0000
1000
0010
0100
0000
,
0010
0000
0000
0100
0001
1000
0010
0100
0001
0000
0000
1000
0100
1000
0010
0100
,
0000
0010
0000
0000
1000
0001
0010
0100
0001
0001
0000
1000
0010
1000
0001
0100
,
0000
0010
0000
0000
0100
0001
0010
1000
0100
0010
0000
0000
2002
0000
0000
0000
,
3223
0000
0000
0000
1330
0000
0001
0000
2020
0000
0000
0000
3130
0001
0010
0000
,
0100
0000
0000
1000
0010
1000
0100
0010
0001
0000
0000
0010
0100
0010
0001
0100
,
0000
0010
0000
0000
1000
0100
0001
0010
0100
0100
0000
1000
0001
0010
0001
0100
,
0000
0010
0000
0000
1000
0010
0100
0001
0010
0100
0000
0000
2020
0000
0000
0000
,
3232
0000
0000
0000
0313
0000
0100
0000
0022
0000
0000
0000
1033
0100
1000
0000
,
0010
0000
0100
0000
0002
0000
0000
0000
1003
0000
0010
0100
0000
0000
0220
0000
,
0000
0000
0000
0000
0000
0000
0330
0000
1000
0100
0000
0000
0022
0000
0000
0000
,
0000
0033
1000
0000
0010
0000
0000
0100
0000
0000
0010
0000
2000
0000
0000
0000
,
3020
0000
0000
0000
0130
0001
0010
0000
0100
0000
0010
0000
0001
0100
0001
0000
,
0010
0000
1000
0000
0020
0000
0000
0000
0130
0000
1000
0010
0000
0000
0202
0000
,
0000
0000
0000
0000
0000
0000
0303
0000
0100
0010
0000
0000
2200
0000
0000
0000
,
0000
3300
0001
0000
0100
0000
0000
0001
0000
0000
1000
0000
0010
0100
0010
0000
,
0100
0000
0000
1001
0000
0000
0000
0000
1000
0001
0000
0000
2000
0000
0000
0000
,
3220
0000
0000
0000
0332
0000
0000
0000
0013
0100
1000
0000
0001
0010
0001
0000
,
1000
0001
0000
0000
0100
0000
0000
0000
0010
0100
0000
0000
0200
0000
0000
0000
,
2302
0000
0000
0000
3023
0000
0000
0000
1030
0001
0100
0000
1100
0000
1010
0000
,
0001
0010
0001
0100
0010
1000
0001
1000
0010
0100
0001
0010
0002
0000
0000
0000
,
2203
0000
0000
0000
3320
0000
0000
0000
1030
0100
0001
0000
0100
0010
0100
0000
,
0010
0001
0000
0000
0100
0000
0000
0000
0010
1000
0000
0000
0020
0000
0000
0000
,
0232
0000
0000
0000
2303
0000
0000
0000
3010
0100
0000
0000
0011
0010
0100
0000
,
1001
1001
0000
0110
0000
1100
0000
0001
0010
0001
0000
0000
0010
0001
1000
0000
,
0001
0000
0000
1000
0100
0010
0001
1000
0100
0000
0000
0010
1000
0010
0001
1000
,
0000
0001
0000
0000
0010
0100
0001
1000
0100
0100
0000
0010
0001
0010
0100
1000
,
0000
0001
0000
0000
1000
0100
0001
0010
1000
0001
0000
0000
0220
0000
0000
0000
,
2332
0000
3013
0100
0022
0000
0033
0000
;
