#TITLE:HATTEN CARNIVAL!;
#SUBTITLE:;
#ARTIST:DJ SHARPNEL;
#TITLETRANSLIT:;
#SUBTITLETRANSLIT:;
#ARTISTTRANSLIT:;
#CREDIT:;
#BANNER:Hatten Carnival!-BN.png;
#BACKGROUND:Hatten Carnival!-BG.png;
#LYRICSPATH:Hatten Carnival.lrc;
#CDTITLE:;
#MUSIC:Hatten Carnival!.mp3;
#OFFSET:-0.211;
#SAMPLESTART:51.532;
#SAMPLELENGTH:11.980;
#SELECTABLE:YES;
#BPMS:0.000=106.720,25.250=97.418,25.500=88.555,25.750=79.692,26.000=71.028,26.250=61.975,26.500=53.102,26.750=44.238,27.500=170.098;
#STOPS:27.500=0.900
;
#BGCHANGES:;
// cache tags:
#FIRSTBEAT:16.000;
#LASTBEAT:252.000;
#SONGFILENAME:Songs/Ace Megapack/Hatten Carnival/Hatten Carnival!.sm;
#HASMUSIC:1;
#HASBANNER:1;
#MUSICLENGTH:97.314;
// end cache tags

//---------------dance-single - ----------------
#NOTES:
     dance-single:
     :
     Hard:
     9:
     0.658,0.680,0.092,0.360,0.051,404.000,9.000,35.000,0.000,0.000:
0000
0000
0000
0000
,
0000
0000
0000
0000
,
0000
0000
0000
0000
,
0000
0000
0000
0000
,
1000
0000
0010
1000
0100
0000
0000
0000
0000
0000
0001
0100
0001
1000
0001
0000
,
0010
0000
0001
0100
0010
0000
0000
0000
0000
0000
1000
0001
1000
0010
0100
0000
,
1000
0000
0001
1000
0001
0000
1000
0010
1000
0001
0100
0001
0100
0000
0010
0000
,
1000
0001
0100
0001
1000
0100
1000
0001
,
0100
0001
1000
0100
1000
0000
1001
0000
,
0001
1000
0100
1000
0001
0100
0001
1000
,
0100
1000
0001
0100
0001
0000
1001
0000
,
0010
1000
0100
0010
0001
0100
0010
1000
,
0100
0010
0001
0100
0010
0000
0110
0000
,
1000
0100
0001
0100
1000
0010
0001
0010
,
0100
1000
0100
0001
0010
1000
0010
0001
,
0001
1000
0100
0001
0000
1000
0100
0010
,
0000
1000
0100
0001
0000
1000
0100
1000
,
1000
0001
0010
0100
0000
0001
0010
1000
,
0000
0001
0010
0100
0000
0001
0010
0001
,
0001
1000
0010
0100
0000
0001
0010
0100
,
0000
1000
0100
0010
0000
0001
0100
0010
,
0010
1000
0100
0001
0000
0001
0010
1000
,
0000
1000
0010
0100
0101
0000
1100
0000
,
1000
0200
0000
0310
0002
0000
0013
0001
,
0001
0200
0000
0310
2000
0000
3010
0100
,
0000
0002
0000
0013
0200
0000
0310
0001
,
1000
0200
0000
0301
0200
0000
1300
0100
,
0100
0200
0000
0310
0002
0000
1003
0001
,
1000
0200
0000
1300
0020
0000
0130
0002
,
0000
2003
0000
3010
0020
0000
0130
0100
,
0001
0002
0000
0013
0020
0000
0031
0100
,
2000
0000
3100
0001
0010
1000
1000
0000
,
0002
0000
0103
1000
0010
0001
0001
0000
,
0020
0000
0031
0100
2000
0000
3010
1000
,
0100
0001
0010
0000
2002
0000
3003
0000
,
2000
0000
3100
0010
0001
0100
0100
0000
,
0002
0000
0103
0010
1000
0100
0100
0000
,
2000
0000
3001
1000
0200
0000
0310
0100
,
1000
0010
0100
0000
0101
0000
1010
0000
,
2000
0000
3010
0100
0002
0000
0013
0100
,
1000
0010
0100
1000
0100
0010
1000
0000
,
0001
0010
0100
0001
0100
0010
0001
0000
,
1000
1000
0100
0100
0010
0010
0001
0001
,
0002
0000
1003
0100
0002
0000
0103
0000
,
1000
0010
0100
0001
0100
0010
1000
0000
,
1000
0100
0010
0001
0010
0100
1000
0000
,
1000
0010
1000
0010
0100
0001
0100
0001
,
2000
0000
0001
0000
0010
0000
3100
0010
,
0002
0000
0010
0000
0100
0000
1003
0010
,
0200
0000
0001
0000
1000
0000
0301
0100
,
0020
0000
1030
0010
0100
0001
0010
0001
,
1000
0100
1000
0100
1000
0010
0100
0001
,
0010
0001
0010
0001
0010
0100
1000
0010
,
0100
0001
0100
0001
1000
0010
1000
0010
,
1000
0100
0001
1000
0010
0001
0100
0010
,
1000
0100
1000
0001
0100
0001
1000
0010
,
1000
0001
0010
0001
1000
0001
1000
0001
,
1000
0100
1000
0001
0100
0001
1000
0010
,
1000
0001
0010
0001
1000
0001
1000
0001
,
1000
0100
0100
0010
0001
0001
0100
0010
,
0010
1000
0001
0001
0010
0100
0010
0100
,
0010
1000
1000
0100
0001
0001
0100
1000
,
0010
0100
0001
0010
0100
1000
0001
1000
,
1001
0000
0000
0000
;

//---------------dance-single - ----------------
#NOTES:
     dance-single:
     :
     Challenge:
     10:
     0.750,0.809,0.277,0.021,0.200,482.000,27.000,2.000,0.000,0.000:
0000
0000
0000
0000
,
0000
0000
0000
0000
,
0000
0000
0000
0000
,
0000
0000
0000
0000
,
0010
0000
0100
0001
0010
0000
0100
0001
0010
0000
0100
0001
1000
0001
1000
0000
,
1000
0100
0010
0001
0100
0000
0010
0000
0100
0000
0001
1000
0100
0010
0001
0000
,
1000
0000
0010
1000
0100
0000
0100
0010
0001
0010
0001
1000
0100
0000
1000
0000
,
0010
1000
0010
0000
0100
0000
0010
1000
0010
0000
0100
0000
0010
1000
0010
0000
,
0100
0000
0010
1000
0010
0000
0100
0000
1000
0000
0100
0000
0001
0000
0010
0000
,
0001
0010
0001
0000
1000
0000
0001
0010
0001
0000
1000
0000
0001
0010
0001
0000
,
1000
0000
0001
0010
0001
0000
1000
0000
0010
0000
0100
0000
0001
0000
1000
0000
,
0001
0010
0001
0000
1000
0000
1000
0010
1000
0000
0001
0000
0001
0010
0001
0000
,
1000
0000
1000
0010
1000
0000
0001
0000
1000
0000
0001
0000
1000
0000
0001
0000
,
1000
0010
1000
0000
0001
0100
0001
0000
1000
0100
1000
0000
0001
0010
0001
0000
,
1000
0001
0000
0100
0000
0001
0000
0010
0100
1000
0100
0000
1000
0000
0100
0000
,
1001
0010
0100
0010
0000
0100
0010
0100
,
1001
0010
0100
0010
0000
0100
0010
0100
,
1001
0010
1000
0010
0000
0001
0100
0001
,
0101
0001
0010
0001
0000
1000
0100
1000
,
0011
0010
0001
0100
0000
0010
1000
0100
,
1100
0001
0010
1000
0000
1000
0010
0001
,
1001
0100
0010
0100
0101
0001
1000
0001
,
0011
0010
0100
0010
1001
0100
1001
0000
,
0001
1000
0100
1000
0001
0010
0100
1000
,
0010
0100
0001
0010
1000
0010
0100
0001
,
0100
1000
0010
0100
0001
0010
1000
0001
,
0100
1000
0010
0001
1000
0100
0001
0001
,
0000
0100
0001
1000
0001
1000
0100
0010
,
0001
0100
0010
1000
0100
0010
0100
0001
,
0100
1000
0001
0100
0010
1000
0010
0100
,
0001
1000
0100
0010
0001
1000
0100
0100
,
1000
1000
0010
0100
0001
0001
0001
0000
,
1000
1000
0100
0010
0001
0001
0001
0000
,
0010
0010
0001
0100
0010
0010
1000
0100
,
0010
0001
1000
1000
0100
0010
0010
0010
,
0100
0100
1000
0010
0100
0100
0100
0000
,
0001
0001
1000
0010
0100
0100
0100
0000
,
0001
0001
0010
0100
1000
1000
0100
0001
,
0100
1000
0010
0000
1001
0000
0110
0000
,
0100
0001
1000
0001
0020
0001
0031
0000
,
0100
1000
0010
1000
0001
1000
0010
0000
,
0010
1000
0100
1000
0001
1000
0100
0000
,
0010
0001
0100
0001
0010
1000
0010
0001
,
1000
0100
0010
0100
2000
0001
3001
0000
,
0100
0010
0001
0010
1000
0010
0100
0000
,
0010
0100
0001
0100
1000
0100
0010
0000
,
1000
0100
0010
0100
1000
0010
1000
0100
,
0010
0100
0001
0100
0010
0100
1001
0100
,
0001
1000
0100
1000
0001
1000
0110
0100
,
0001
0010
0001
1000
0010
1000
1010
0010
,
1000
1000
0100
0100
0010
0010
0001
0001
,
1000
0100
0011
0000
0001
0100
1010
0000
,
1000
0010
0101
0000
0001
0010
1100
0000
,
0100
0010
1001
0000
0010
0100
1001
0000
,
0011
0001
1001
1000
1100
0100
0110
0001
,
1000
0001
1000
0000
0001
0000
1000
0100
1000
0000
0100
0000
1000
0010
1000
0000
,
0010
0010
1000
1000
0001
0001
0100
0100
,
1000
0100
1000
0000
0100
0000
0001
0100
0001
0000
0100
0000
0001
0010
0001
0000
,
0010
0010
0001
0001
1000
1000
0100
0100
,
1000
0010
0001
1000
0100
0010
1000
0100
,
0001
0100
0010
0001
0010
0100
0010
1000
,
0010
0001
0100
1000
0100
0001
0100
0010
,
1000
0010
1000
0100
1000
0001
1000
0100
,
1100
0000
0000
0000
;

//---------------dance-single - ----------------
#NOTES:
     dance-single:
     :
     Easy:
     4:
     0.295,0.324,0.062,0.144,0.000,181.000,6.000,14.000,0.000,0.000:
0000
0000
0000
0000
,
0000
0000
0000
0000
,
0000
0000
0000
0000
,
0000
0000
0000
0000
,
0010
0000
0100
0000
,
0010
0001
0100
0000
,
2002
0000
0000
0000
0000
0000
0000
3003
,
1000
0001
1000
0001
,
2000
0000
0000
0000
,
3010
0100
0010
0100
,
0020
0000
0000
0000
,
0130
0001
0100
0001
,
0200
0000
0000
0000
,
0301
1000
0001
1000
,
0001
0010
0001
0010
,
0001
0010
0010
0001
,
0001
1000
1000
0001
,
0001
0100
0100
0001
,
0001
0010
0010
0100
,
0100
0010
0010
0100
,
0100
0001
0001
0100
,
0100
1000
1000
0100
,
0100
0020
0032
0203
,
0301
0000
1000
0000
,
0001
0010
0001
0000
,
0000
0010
0001
0000
,
1000
0010
1000
0000
,
0100
0000
0010
0000
,
0100
1000
0100
0000
,
0000
1000
0001
0000
,
0100
0001
0100
0000
,
1000
0001
0100
0100
,
0001
0010
0100
0100
,
1000
0001
0020
0030
,
0200
0300
0020
0030
,
0010
0100
0001
0001
,
0010
0100
1000
1000
,
0001
1000
0002
0003
,
2000
3000
0002
0003
,
1000
0001
0010
0000
,
0010
0001
0100
0001
,
0010
0001
1000
0001
,
0010
0001
0100
0000
,
0001
1000
0010
0000
,
0010
1000
0100
1000
,
0010
1000
0001
1000
,
0010
1000
0100
0000
,
0001
0000
0010
0000
,
1000
0010
0100
0000
,
0000
0010
0100
0000
,
0001
0010
0100
0000
,
1001
0000
1001
0000
,
0100
0010
0100
0000
,
0000
0001
0100
0000
,
1000
0001
0100
0000
,
1000
1000
0001
0001
,
0100
0100
0010
0010
,
1000
1000
0001
0001
,
0100
0100
0010
0010
,
1000
0000
0001
0000
,
0100
0000
0010
0000
,
1001
0000
0110
0000
,
1000
0001
0100
0000
,
1001
0000
0000
0000
;

//---------------dance-single - ----------------
#NOTES:
     dance-single:
     :
     Medium:
     7:
     0.537,0.518,0.175,0.206,0.000,329.000,17.000,20.000,0.000,0.000:
0000
0000
0000
0000
,
0000
0000
0000
0000
,
0000
0000
0000
0000
,
0000
0000
0000
0000
,
0010
1000
0100
0000
0000
0100
1000
0010
,
0100
0001
0010
0000
0000
0010
0001
0100
,
0001
0000
1000
0000
0001
0000
1000
1100
,
1000
1100
0001
0101
,
1000
2020
0000
3030
,
0001
0101
1000
1100
,
0001
0022
0000
0033
,
0001
1001
0010
0110
,
1000
2002
0000
3003
,
0001
0010
0100
1000
,
0010
0010
0100
0000
0001
0001
1000
0000
,
0000
1000
0001
1000
0000
0001
1000
0001
,
0000
1000
0001
1000
0000
0001
1000
0010
,
0000
0100
0010
0100
0000
0010
0100
0010
,
0000
0100
0010
0100
0000
0010
0100
0001
,
0000
1000
0001
0100
0000
0001
1000
0100
,
0000
1000
0001
0010
0000
0001
0010
0100
,
0000
0100
1000
0001
0000
0100
0001
1000
,
0000
1000
0010
0100
0001
0000
0001
0000
,
0001
1000
0000
1000
0001
0000
0100
0010
,
1000
0001
0000
0001
1000
0000
1000
0001
,
0000
0010
0000
0100
1000
0000
0001
0100
,
0010
0100
0000
0100
0010
0000
0010
0100
,
0000
0001
0000
1000
0001
0000
0001
1000
,
0001
0100
0000
0100
0010
0000
0010
0100
,
0000
0001
0000
1000
0100
0000
0100
1000
,
0001
0010
0000
0010
0001
0000
1000
0001
,
2000
0000
3100
0010
0002
0000
0000
0000
,
2003
0000
3100
0010
0002
0000
0000
0000
,
2003
0000
3010
0100
0002
0000
0103
0010
,
1000
0100
1000
0000
2002
0000
3003
0000
,
0002
0000
0103
0010
2000
0000
0000
0000
,
3002
0000
0103
0010
2000
0000
0000
0000
,
3002
0000
0013
0100
2000
0000
3001
1000
,
0001
0010
0100
0000
0100
0000
0000
0000
,
1000
0100
1000
0100
1000
0000
1100
0000
,
0001
1000
0001
0100
0001
0000
0101
0000
,
0001
1000
0001
0100
0001
0000
0101
0000
,
0001
1000
0001
0100
0001
1000
0001
0100
,
0001
0010
0001
0010
0001
0000
0011
0000
,
1000
0001
1000
0010
1000
0000
1010
0000
,
1000
0001
1000
0010
1000
0000
1010
0000
,
1000
0001
1000
0100
1000
0001
1000
0100
,
1000
0100
1000
0000
0001
0100
0001
0000
,
1000
0100
1000
0000
0001
0010
0001
0000
,
1000
0100
1000
0000
0010
1000
0010
0000
,
1000
0100
1000
0000
0010
0100
0001
0000
,
0001
0100
0001
0000
1000
0100
1000
0000
,
0001
0100
0001
0000
1000
0010
1000
0000
,
0001
0100
0001
0000
0010
0001
0010
0000
,
0001
0100
0001
0000
0100
0010
0100
0000
,
1000
0100
0001
0100
1000
0100
0010
0100
,
1000
0100
0001
0100
1000
0000
0000
0000
,
0001
0100
0010
0100
0001
0100
1000
0100
,
0001
0100
1000
0100
0001
0000
0000
0000
,
1000
0100
1000
0100
0010
0100
0010
0100
,
0001
0100
0001
0100
1000
0000
0000
0000
,
1000
0001
1000
0001
0100
0010
0100
0010
,
1000
0100
0010
0001
1000
0100
0010
0001
,
0100
0000
0000
0000
;

//---------------dance-double - ----------------
#NOTES:
     dance-double:
     :
     Hard:
     8:
     0.630,0.550,0.277,0.164,0.000,386.000,27.000,16.000,0.000,0.000:
00000000
00000000
00000000
00000000
,
00000000
00000000
00000000
00000000
,
00000000
00000000
00000000
00000000
,
00000000
00000000
00000000
00000000
,
00000001
00000001
00000010
00000100
00001000
00000100
00010000
00001000
,
00100000
00100000
00010000
10000000
01000000
00100000
01000000
00001000
,
00000100
00000010
00000001
00000100
00001000
00010000
01000000
10000000
,
10000000
01000000
10000000
01000000
00100000
01000000
00010000
01000000
,
00010000
00001000
00010000
00001000
00000100
00000001
00000010
00000000
,
00000001
00000010
00000001
00000010
00000100
00000010
00000100
00001000
,
00000010
00010000
00001000
00010000
01000000
10000000
00010000
00000000
,
10000000
01000000
00010000
00001000
00000100
00000001
00000010
00000100
,
00001000
00000001
00000010
00000100
00001000
00000001
00000100
00000000
,
00000001
00001000
00000001
00001000
00000010
00000100
00000010
00000100
,
00000010
00010000
00000010
00010000
00001000
00010000
00001000
00010000
,
00010000
10000000
01000000
00100000
00000000
01000000
00100000
00010000
,
00000000
00100000
00010000
01000000
00000000
00010000
01000000
00001000
,
00000000
01000000
00001000
00000100
00000000
00001000
00000100
00000001
,
00000000
00000100
00000001
00000010
00000000
00000001
00000010
00000100
,
00000000
00000010
00000100
00001000
00000000
00000001
00000010
00000100
,
00000000
00010000
00001000
00100000
00000000
00010000
10000000
01000000
,
00000000
00100000
00010000
01000000
00000000
00001000
00010000
00000010
,
00000000
00000100
00000001
00001000
00001100
00000000
00110000
00000000
,
10100000
00000000
10000000
01000000
00100000
00000000
00010000
10000000
,
01000000
00010000
00001000
00010000
00001000
00000000
00000100
00000001
,
00000101
00000000
00000100
00001000
00000010
00000000
00000100
00000001
,
00000010
00000100
00001000
00000100
00001000
00000000
00000010
00000001
,
00000101
00000000
00000001
00001000
00000100
00000000
00000010
00000001
,
00000100
00001000
00010000
00100000
10000000
00000000
10000000
01000000
,
11000000
00000000
01000000
10000000
11000000
00000000
10000000
01000000
,
00100000
00010000
01000000
00001000
00010000
00000100
00001000
00000010
,
00000200
00000302
00002003
00003020
,
00020030
00032000
00203000
02300000
,
13000000
00000000
10000000
01000000
00100000
00000000
00100000
00010000
,
01000000
00010000
10000000
00000000
10010000
00000000
00000000
00000000
,
20000000
32000000
03200000
00320000
,
02030000
03002000
00023000
00030200
,
00000310
00000000
00000010
00000001
00001000
00000000
00001000
00000001
,
00000100
00000010
00001000
00000000
00001010
00000000
00010100
00000000
,
00011000
00101000
00011000
00010100
,
00010000
00001000
00010000
00000100
00010000
00001000
00100000
00000000
,
00001000
00010000
00000010
00010000
00001000
01000000
00001000
00000000
,
00010000
00001000
00000100
00000000
00001000
00010000
01000000
00000000
,
11000000
00110000
01010000
00011000
,
00010000
00001000
00010000
00000010
00010000
00001000
00010000
00000000
,
00001000
00010000
00001000
00100000
00001000
00010000
00001000
00000000
,
00010000
01000000
10000000
00100000
01000000
00010000
01000000
10000000
,
01000000
00010000
01000000
00010000
10000000
01000000
10000000
01000000
,
00100000
01000000
00100000
01000000
00100000
00010000
00100000
00010000
,
00100000
00001000
00100000
00001000
00010000
00001000
00010000
00001000
,
00010000
00000100
00010000
00000100
00001000
00000100
00001000
00000100
,
00000010
00000001
00001000
00000100
00000010
00000001
00000001
00000001
,
00000100
00000010
00010000
00001000
00010000
00001000
00001000
00001000
,
01000000
00010000
10000000
00010000
00100000
01000000
01000000
01000000
,
00010000
00001000
00000100
00001000
00010000
00001000
00000100
00000001
,
00000010
00000101
00000010
00001100
,
00001000
00011000
01000000
10010000
,
00100000
11000000
00100000
01010000
,
01000000
01001000
00010000
00011000
,
00000010
00001000
00000100
00010000
00001000
00100000
00010000
01000000
,
00001000
00010000
00000010
00001000
00000100
00010000
00001000
00100000
,
00010000
10000000
01000000
00100000
00010000
01000000
00001000
00010000
,
00000100
00000010
00000001
00000100
00000001
00000010
00000100
00001000
,
00011000
00000000
00000000
00000000
;

//---------------dance-single - ----------------
#NOTES:
     dance-single:
     :
     Beginner:
     2:
     0.182,0.227,0.010,0.000,0.000,123.000,1.000,0.000,0.000,0.000:
0000
0000
0000
0000
,
0000
0000
0000
0000
,
0000
0000
0000
0000
,
0000
0000
0000
0000
,
1000
0000
0000
0000
,
0001
0000
0000
0000
,
1000
0000
0000
0000
,
0000
1000
0000
1000
,
0000
0001
0000
0001
,
0000
1000
0000
1000
,
0000
0001
0000
0001
,
0000
0010
0000
0010
,
0000
0100
0000
0100
,
0000
0010
0000
0010
,
0000
0100
0000
1001
,
0000
0001
0000
1000
,
0000
0001
0000
1000
,
0000
0001
0000
1000
,
0000
0001
0000
1000
,
0000
0010
0000
0100
,
0000
0010
0000
0100
,
0000
1000
1000
1000
,
0000
0001
0001
0001
,
0001
0000
0001
0000
,
1000
0000
1000
0000
,
0100
0000
0100
0000
,
0010
0000
0010
0000
,
0001
0000
0001
0000
,
1000
0000
1000
0000
,
0010
0000
0010
0000
,
0100
0000
0100
0000
,
1000
1000
1000
0000
,
0001
0001
0001
0000
,
1000
1000
1000
0000
,
1000
0000
1000
0000
,
0001
0001
0001
0000
,
1000
1000
1000
0000
,
0001
0001
0001
0000
,
0001
0000
0001
0000
,
1000
0000
0010
0000
,
0010
0000
0001
0000
,
0010
0000
0001
0000
,
0010
0000
0001
0000
,
0001
0000
0010
0000
,
0010
0000
1000
0000
,
0010
0000
1000
0000
,
0010
0000
1000
0000
,
1000
0000
0010
0000
,
1000
0000
0010
0000
,
1000
0000
0010
0000
,
1000
0000
0100
0000
,
0001
0000
0010
0000
,
0001
0000
0010
0000
,
0001
0000
0010
0000
,
0001
0000
0000
0000
,
0000
1000
0000
1000
,
0000
1000
0000
0001
,
0000
1000
0000
1000
,
0000
0010
0000
0010
,
0000
0001
0000
0001
,
0000
0001
0000
1000
,
0000
0001
0000
0001
,
0000
0100
0000
0100
,
0100
0000
0000
0000
;
