#TITLE:In Your Face;
#SUBTITLE:;
#ARTIST:Children Of Bodom;
#TITLETRANSLIT:;
#SUBTITLETRANSLIT:;
#ARTISTTRANSLIT:;
#CREDIT:;
#BANNER:in your face.bmp;
#BACKGROUND:folder.jpg;
#LYRICSPATH:;
#CDTITLE:excape.jpg;
#MUSIC:05. In Your Face.mp3;
#OFFSET:2.020;
#SAMPLESTART:99.840;
#SAMPLELENGTH:12.000;
#SELECTABLE:YES;
#BPMS:0.000=230.003;
#STOPS:;
#BGCHANGES:;
// cache tags:
#FIRSTBEAT:8.000;
#LASTBEAT:976.000;
#SONGFILENAME:Songs/toune 5/in your face (excape)/In Your Face.sm;
#HASMUSIC:1;
#HASBANNER:1;
#MUSICLENGTH:255.351;
// end cache tags

//---------------dance-single - Steps by Excape----------------
#NOTES:
     dance-single:
     Steps by Excape:
     Beginner:
     12:
     1.000,1.000,0.869,1.000,0.272,1304.000,222.000,277.000,19.000,72.000:

0000
0000
0000
0000
,
0000
0000
0000
0000
,
1000
0100
0010
1000
0000
0100
1000
0010
,
1000
0100
0001
0000
1000
1000
0000
0100
,
0010
0001
0100
1000
0000
0100
0000
0010
,
0000
0001
0010
0100
0010
0001
0000
0000
,
0100
1000
0100
1000
0000
0100
0010
0001
,
0010
1000
0100
0000
1000
1000
0000
0100
,
0010
0001
0100
0010
0000
0001
0000
0100
,
0000
1000
0001
1000
0001
0010
0000
0000
,
1000
0100
0001
1000
0101
0010
0100
1000
,
0001
0100
0010
0100
0011
0001
0000
0000
,
1000
0001
0010
1000
0101
0001
0010
1000
,
0100
0001
1000
0100
0011
0010
0000
0000
,
0100
0001
0010
1000
0101
0001
0010
1000
,
0010
0001
0010
0100
0011
0001
0000
0000
,
0011
0000
1100
0011
1100
0000
0011
0010
,
0000
0000
1100
0000
1100
0000
1100
0000
0011
0000
0011
0000
0000
0000
0000
2222
,
0000
0000
0000
0000
0000
0000
0000
0000
0000
0000
0000
0000
0000
0000
0000
3333
,
0100
0010
0001
0000
0011
0010
0000
0000
,
0100
1000
0010
1000
0011
0010
0000
0010
,
0000
0100
1000
0100
0011
0001
0000
1000
,
0100
0010
0100
1000
0011
0010
0100
1000
,
0001
0100
0010
1000
0011
0001
0000
0000
,
0010
0010
0010
0010
0010
0010
0010
0010
,
0010
0010
0010
1000
0100
0001
1000
0000
,
0000
0100
1000
0001
1100
1000
0010
0001
,
1000
0100
1000
0000
0011
0001
0000
0010
,
1000
0100
0001
1000
0011
0010
1000
0010
,
1000
0001
0100
1000
0011
0001
0000
0000
,
0100
1000
0010
1000
0011
0010
0100
1000
,
0100
0001
0010
1000
0011
0001
0000
0000
,
1000
0100
1000
0101
0010
1000
0001
1010
,
0100
0011
1000
0100
1000
0101
0010
1000
,
M201
0000
0000
0300
,
0002
0000
0000
0000
0000
0003
0000
0000
,
2000
0000
0000
0000
0000
3000
0000
0000
,
0000
0000
0000
0000
,
2100
0000
0000
3000
,
0002
0000
0000
0000
,
2103
0000
0000
0000
0000
3000
0000
0100
,
0120
0030
0000
0000
0000
0000
0000
0000
,
2000
3200
0321
0032
,
2003
3200
0321
0032
,
2003
3200
0321
0032
,
0103
0000
1000
0100
0010
0000
0100
0010
0001
0000
0010
0100
1000
0000
0010
0000
,
0002
0023
1230
2300
,
3002
0023
1230
2300
,
3002
0023
1230
2300
,
3001
0000
0000
0000
0001
0000
0000
0000
0001
0010
0001
0010
0001
0010
0001
0000
,
2000
3200
0321
0032
,
2103
3200
0321
0032
,
2103
3200
0321
0032
,
1103
0000
0001
0000
0010
0100
1000
0000
0100
0010
0001
0000
0010
0100
1000
0000
,
0012
0123
1230
2301
,
3012
0123
1230
2301
,
3012
0123
1230
2301
,
3044
0000
0000
0400
,
1333
1100
0110
0011
,
1001
0000
1010
0000
0200
0010
0000
0010
,
0300
1100
0000
0110
0000
0101
0000
1001
,
0000
0000
0010
0001
0000
0000
0100
0010
1000
0000
0100
1000
0000
0000
0010
0000
,
0010
0000
1100
0000
0110
0000
0011
0100
,
1010
0100
1000
1000
0200
000M
0000
000M
,
0300
1100
0000
1010
0000
1001
0000
1000
,
0100
1000
0001
0010
1000
1000
0010
0000
,
1100
0100
0011
0100
0020
0000
0000
0000
,
1130
0100
0011
1000
0200
0000
0000
0000
,
0300
1100
0000
0011
0000
0110
0000
1001
,
0000
0000
0010
0100
0000
0000
1100
0000
0000
0000
0011
0000
1000
0000
0010
0000
,
0200
0300
0010
0100
0001
0200
0010
0301
,
0010
1000
0001
0100
0020
0000
0000
0000
,
0030
1100
0000
0110
0000
0011
0000
1001
,
0000
0000
0010
0000
0100
0010
0100
0000
0001
0000
0010
0000
0100
0000
1000
0000
,
0001
0000
1000
0100
1000
0010
2000
0000
,
3000
1000
0010
0001
0010
1000
0010
0002
,
0000
1003
1000
0100
0020
0000
0032
0000
,
0023
0230
2300
3200
,
0300
0010
0010
0100
0100
0010
0002
0000
,
0003
0000
0100
0100
0010
0010
2000
0000
,
3000
0000
0000
0100
0000
0000
0001
0000
0000
1000
0000
0000
0200
0000
0000
0000
0000
0000
0301
0000
0M00
0010
0000
0000
,
0010
0001
0100
0010
1202
1000
0000
1000
,
1303
1000
0001
0001
0100
0010
0002
0000
,
0203
0000
0320
0000
0031
0001
0200
0000
,
0300
1000
0100
0010
0200
0300
0M10
0001
,
0200
0310
0M02
0003
0001
0001
0020
0000
,
0030
1100
0000
0110
0000
0010
0002
0000
,
0013
1000
0010
0001
1000
0001
0020
0000
,
1030
1000
0100
0000
0010
0000
0001
0000
,
0010
0001
0010
0100
,
2222
0000
0000
0000
0000
0000
0000
3333
,
2000
3200
0321
0032
,
2003
3200
0321
0032
,
1003
0000
0100
1000
0010
0000
0100
0001
0010
0000
0100
1000
0001
0010
0000
0000
,
2000
3200
0321
0032
,
2003
3200
0321
0032
,
2003
3200
0321
0032
,
1003
0000
0000
0000
1000
0000
0000
0000
1000
0100
1000
0100
1000
0100
1000
0000
,
0002
0023
1230
2300
,
3012
0023
1230
2300
,
3012
0023
1230
2300
,
3011
0000
0100
1000
0010
0000
0100
0001
0010
0000
0100
1000
0001
0010
0000
0000
,
2100
3210
0321
0132
,
2103
3210
0321
0132
,
2103
3210
0321
0132
,
1003
0100
1000
0100
1000
0100
1000
0010
0100
0001
0000
0000
,
1000
0010
0100
1000
0001
0100
0010
1000
,
0001
0100
1000
0100
0020
0000
0000
0030
,
0000
1100
0000
0011
0000
0110
0000
1001
,
0000
0000
0010
0100
0000
0000
0010
0001
0000
0100
0010
0100
0000
0001
0000
0000
,
1000
1000
1000
0010
0000
0001
0000
1000
,
0100
1000
0010
0001
0020
0000
0000
0130
,
0000
1100
0000
0110
0000
0101
0000
1100
,
0000
0000
0010
0100
0010
0100
0010
0000
0100
0000
1000
0000
0010
0000
0100
0000
,
0000
0100
1000
0001
0100
0010
0001
0100
,
0010
1000
0010
1000
0002
0000
0000
0000
,
1103
0010
0100
1000
0101
0100
0010
0001
,
1010
0001
0010
1000
0101
0M0M
1000
0010
,
0010
0100
0001
0010
1000
0100
0010
0000
,
0101
1010
0200
0000
,
M304
M000
M000
M000
,
M000
0003
0004
0043
0430
4300
3400
0340
,
0130
0000
00M0
1000
0000
0000
0001
0000
0000
1000
0000
0000
0101
0000
0000
0001
0000
0000
0010
0000
0000
1000
0000
0000
,
0001
0010
1000
0000
0011
0001
0000
0100
,
1000
0100
0001
1000
0101
0001
1000
0100
,
0010
0000
2000
0000
0002
0000
0020
0000
0000
0000
0000
0030
3003
0000
0000
0000
,
1000
0100
0010
0001
1010
1000
0001
0010
,
1000
0100
1000
0000
0011
0001
0000
0000
,
1100
0010
0001
0100
0001
1000
0011
0100
,
0010
1000
0100
1000
0011
1100
0011
1100
,
0000
0010
0000
0000
0000
0010
0000
0000
0002
0000
0000
0000
0000
0000
0000
0000
,
0003
0000
0000
0000
0000
0000
1000
0000
0000
0000
0000
0000
0000
0000
0000
0000
1000
0000
0000
0000
0000
0002
0000
0000
0000
0000
0000
0000
0000
0000
0000
0000
0000
0000
0000
0000
0000
0000
0000
0000
0000
0000
0000
0000
0000
0000
0000
0000
,
2003
3000
0200
0000
0310
1000
0001
0100
,
0010
0100
0001
0000
2000
0200
0002
0000
,
0000
3303
1000
1000
0100
0010
0100
2000
,
0000
0000
0000
0000
3100
0000
0010
0000
1000
0000
0200
0000
0000
0300
0000
0000
,
0000
0000
0000
0100
1000
0100
0020
1000
,
0030
0001
0001
0001
0020
1000
0000
0030
,
0000
0100
0010
0001
0100
1000
0200
0000
,
0000
0301
0020
0030
,
0000
2000
3000
0200
0000
0310
0001
0010
,
1000
0100
0001
0100
0020
0000
0000
0030
,
1000
0100
0001
0010
2000
0000
3000
0000
,
0000
0010
0000
0001
0000
0000
0000
0000
,
1010
0100
1010
0100
0010
1100
0010
0001
,
1000
0011
0011
0011
0012
0000
0000
0003
,
4000
0000
0000
3000
0010
0001
0010
0100
,
1000
0100
0010
0001
0010
0100
1000
0100
,
4000
0000
0000
0000
,
0000
0000
0000
3000
,
0400
0000
0340
0000
,
0034
0000
0000
0000
0000
0000
0000
0000
4003
0000
0000
0000
3000
0000
0100
0010
,
1000
0001
0100
0000
0010
0100
0001
0000
0010
0001
0100
0000
1000
0010
0100
0000
,
0010
0000
0001
1000
0010
0001
0100
0010
1000
0000
0010
0100
1000
0000
0000
0000
,
4000
0000
0000
0000
0000
3100
0010
0001
,
0010
0000
0100
0000
1000
0000
0100
0000
0020
0000
0000
0000
0030
0002
0000
0000
,
0003
0020
0000
0000
0030
0200
0000
0000
0300
2000
0000
0000
0000
0000
0000
3000
,
4000
0000
0000
0000
0000
0000
0000
0000
0000
3000
0001
0001
,
0010
0100
0010
0100
0010
1000
0100
0001
0010
0100
0010
0001
,
0010
0100
0010
1000
0100
1000
0100
0010
0100
1000
0010
0001
,
0001
0001
0000
0000
1000
1000
0000
0001
0000
0001
0000
0000
,
1000
0000
0000
0000
0001
0000
0001
0000
0000
0000
1000
0000
1000
0000
0000
1000
0000
0000
1000
0000
0000
0000
0000
0000
,
0200
0000
0000
0000
0310
0100
1000
0100
,
0010
0001
0010
0100
1000
0100
0010
0001
,
0020
0000
0000
0000
0000
0000
0000
0000
0001
0030
0000
0000
0200
0000
0000
0000
0000
0000
0300
0000
0000
0000
2000
0000
,
0000
0000
0000
3000
0200
0000
0000
0300
0002
0000
0000
0000
,
0003
0010
0000
0100
0000
1000
0000
0100
0000
0010
0000
0001
,
0010
0000
0100
1000
0000
0100
0010
0000
0001
0000
0010
0000
,
1000
0200
0000
0000
0000
0000
0000
0000
0300
1000
0100
0010
,
0100
1000
0100
0010
0100
1000
0100
0010
0100
1000
0100
0000
,
0000
0001
0010
0001
0010
0001
0010
0001
0010
0001
0010
0001
,
0010
0001
0010
0001
0010
0001
0010
0001
0010
0001
0010
0001
,
0020
0000
0000
0000
,
1030
0100
1000
0100
0011
0100
0001
1000
,
0100
0010
0100
1000
0101
0010
0100
1000
,
0100
0000
0000
0010
0000
0000
0100
0000
0000
1000
0000
0000
0101
0000
0000
0010
0000
0000
0100
0000
0000
0000
0010
0000
,
0100
0010
0100
0010
0000
1000
0001
1000
0001
1000
0001
1000
,
0010
0220
0000
0000
0000
0000
0000
0000
0000
0000
0000
0330
,
0000
0010
1000
0010
0001
0010
0200
0000
,
0000
0300
2000
0000
3020
0000
0032
0000
,
1003
1000
0100
0001
0100
2000
3020
0000
,
2030
3200
0320
0032
,
0003
1100
1100
0220
,
0000
0330
0011
0000
0011
0000
2200
0000
,
0000
3300
1010
0000
1010
0000
0101
0000
,
0110
0110
0001
0222
0000
0000
0000
0000
,
1333
0010
0100
0001
1000
0200
0000
0310
,
0002
0013
010M
0001
1000
0100
0002
0000
,
0003
0100
1000
0001
0020
0130
00M1
0200
,
1300
0M10
0100
0001
1000
0100
0020
0000
,
0030
0000
1000
0000
0001
0220
0000
0330
,
0000
0011
0000
0110
0000
0000
2002
0000
,
3003
0010
0001
0010
,
0100
1000
0100
0010
,
2222
0000
0000
0000
0000
0000
0000
3333
,
2000
3200
0320
0032
,
2003
3200
0320
0032
,
0003
0000
0000
0000
,
2000
3200
0320
0032
,
2003
3200
0320
0032
,
2003
3200
0320
0032
,
1003
0000
0000
0000
1000
0000
0000
0000
1000
0100
1000
0100
1000
0100
1000
0000
,
0002
0023
1230
2300
,
3002
0023
1230
2300
,
3002
0023
1230
2300
,
3001
0000
0100
1000
0010
0000
1000
0100
0001
0000
1000
0010
0100
0001
0000
0000
,
2000
3200
0321
0032
,
2103
3200
0321
0032
,
2103
3200
0321
0032
,
2223
0000
0000
0000
0000
0000
0000
0000
0000
3330
0000
0000
0000
0000
0000
0000
,
1000
0100
0001
0010
1100
1000
0100
0010
,
1000
0001
0010
0000
1100
1000
0000
0000
,
0010
0100
1000
0001
1100
1000
0010
0100
,
0010
2000
0020
0200
000M
000M
3330
0000
,
1000
0010
0100
0001
1100
1000
0001
0001
,
0100
1000
0010
0000
1100
1000
0000
0100
,
0011
1000
1000
0101
0010
0001
1100
0010
,
0001
1010
0001
0010
1100
0010
1000
0000
,
0001
0100
1000
0100
0011
0001
1000
0010
,
0100
0001
1000
0000
0011
0001
0000
0000
,
0100
0001
1000
0100
0011
0001
0000
0100
,
1000
0001
0010
1000
0011
0001
0000
0000
,
1000
0001
0100
1000
0011
0001
0000
1000
,
0010
0001
0100
0000
0011
0001
0000
0000
,
1000
0100
0011
0011
0000
0001
1010
0000
,
0101
1000
0011
0100
0011
1100
0000
0000
,
0000
0010
0000
0000
0000
0010
0000
0000
0002
0000
0000
0000
0000
0000
0000
0000
,
0003
0000
0000
1000
0000
0000
0000
0000
1000
0000
0000
0000
0200
0000
0000
0000
0000
0000
0000
0000
0000
0000
0000
0000
,
1300
0000
0001
0000
0100
1000
0100
0010
,
0100
0001
0001
0000
0020
0002
0200
0000
,
0000
0333
0010
0100
0010
0001
0020
0000
,
1000
0030
0000
0100
1000
0002
0000
0000
,
0013
0100
1000
0100
0010
0001
0020
0000
,
0030
1000
0100
0001
1000
0010
0200
0000
,
0300
0001
1000
0010
0100
2000
0000
0010
,
3000
0110
0002
0003
,
0000
0001
0010
1000
0001
0100
0020
0031
,
1000
0100
1000
0001
0200
0000
0000
0300
,
0100
1000
0010
1000
0020
0000
0000
0030
,
0000
0000
0101
0000
0020
0000
0000
0030
,
1100
0011
0011
1000
0101
0010
1100
0010
,
0101
0010
1100
1100
0002
1100
0000
0003
,
1100
1100
1100
1100
0000
1100
0000
1100
,
0000
0000
0020
0002
0200
0000
0000
0000
,
0333
0000
0000
0000
;

//---------------dance-single - Steps By Excape----------------
#NOTES:
     dance-single:
     Steps By Excape:
     Challenge:
     13:
     1.000,1.000,0.932,0.153,0.542,1668.000,238.000,39.000,36.000,14.000:



0000
0000
0000
0000
,
0000
0000
0000
0000
,
1000
0100
0010
1000
0000
0100
1000
0010
,
1000
0100
0001
0000
1000
1000
0000
0100
,
0010
0001
0100
1000
0000
0100
0000
0010
,
0000
0001
0010
0100
0010
0001
0000
0000
,
0100
1000
0100
1000
0000
0100
0010
0001
,
0010
1000
0100
0000
1000
1000
0000
0100
,
0010
0001
0100
0010
0000
0001
0000
0100
,
0000
1000
0001
1000
0001
0010
0000
0000
,
1000
0100
0001
1000
0101
0010
0100
1000
,
0001
0100
0010
0100
0011
0001
0000
0000
,
1000
0001
0010
1000
0101
0001
0010
1000
,
0100
0001
1000
0100
0011
0010
0000
0000
,
0100
0001
0010
1000
0101
0001
0010
1000
,
0010
0001
0010
0100
0011
0001
0000
0000
,
0011
0000
1100
0011
1100
0000
0011
0011
,
0000
0000
1100
0000
1100
0000
1100
0000
0011
0000
0011
0000
0000
0000
0000
0111
,
0000
1000
0010
0100
0000
0100
0001
0010
,
0100
0010
0001
0000
0011
0010
0000
0000
,
0100
1000
0010
1000
0011
0010
0000
0010
,
0000
0100
1000
0100
0011
0001
0000
1000
,
0100
0010
0100
1000
0011
0010
0100
1000
,
0001
0100
0010
1000
0011
0001
0000
0000
,
0010
0010
0010
0010
0010
0010
0010
0010
,
0010
0010
0010
1000
0100
0001
1000
0000
,
0000
0100
1000
0001
1100
1000
0010
0001
,
1000
0100
1000
0000
0011
0001
0000
0010
,
1000
0100
0001
1000
0011
0010
1000
0010
,
1000
0001
0100
1000
0011
0001
0000
0000
,
0100
1000
0010
1000
0011
0010
0100
1000
,
0100
0001
0010
1000
0011
0001
0000
0000
,
1000
0100
1000
0101
0010
1000
0001
1010
,
0100
0011
1000
0100
1000
0101
0010
1000
,
M101
0010
1000
0001
1200
0310
1000
0100
,
0001
1000
0010
1000
0011
0100
1000
0010
,
0100
0001
1000
0100
0011
1000
0100
0010
,
1000
0001
0100
0010
1100
0001
0100
0001
,
1200
0310
0001
1000
0011
0100
1000
0100
,
0001
1000
0010
0100
0011
1000
0010
0001
,
1200
0310
0100
1000
0100
1000
0010
0100
,
0110
0000
0000
0000
,
1000
0010
0100
1000
0011
0000
0001
0010
,
1000
0001
0100
1000
0011
0000
0001
0100
,
1000
0010
0100
1000
0011
0100
0001
0000
,
0100
0000
1000
0100
0010
0000
0100
0010
0001
0000
0010
0100
1000
0000
0010
0000
,
0001
1000
0010
0001
1100
0000
1000
0100
,
0001
1000
0010
0001
1100
0000
1000
0100
,
0001
1000
0010
0001
1100
0010
1000
0000
,
0001
0000
0000
0000
0001
0000
0000
0000
0001
0010
0001
0010
0001
0010
0001
0000
,
1000
0010
0100
1000
0011
0100
0001
0010
,
1100
0001
0100
1000
0011
0100
0001
0010
,
1100
0010
0100
1000
0011
0100
0001
0010
,
1100
0000
0001
0000
0010
0100
1000
0000
0100
0010
0001
0000
0010
0100
1000
0000
,
1000
0100
1000
0100
1000
0100
1000
0100
1000
0100
1000
0100
,
1000
0100
0010
0100
0010
0100
0010
0100
0010
0100
0010
0100
,
0010
0001
0010
0001
0010
0001
0010
0001
0010
0001
0010
0000
,
0044
0000
0000
0400
,
1333
0000
0100
0000
1000
0000
0100
0000
1000
0000
0100
0000
1000
0000
0100
0001
,
0010
0000
0001
0000
0010
0000
0001
0000
0010
0000
0001
0010
0100
0000
0010
0000
,
0100
0010
0100
0010
0100
0010
0100
0010
,
1000
0000
0100
1000
0000
0000
0100
0010
1000
0000
0100
1000
0000
0000
0001
0000
,
0010
0000
0001
0000
0010
0000
0001
0000
0010
0000
0001
0000
0010
0000
0001
0100
,
1000
0100
1000
0100
1000
0001
0100
1000
,
0011
1000
0000
0011
0000
0110
0000
1100
,
0000
0000
1001
0000
0001
1000
0010
0000
0100
0000
0010
0000
1000
0000
0100
0000
,
0000
0000
0001
0000
0010
0000
0001
0000
0010
0000
0001
0000
0010
0000
0001
0010
,
0100
0000
1000
0000
0100
0000
1000
0000
0100
0000
1000
0000
0100
0010
0001
1000
,
0010
0001
0000
0011
0000
0110
0000
1001
,
0000
0000
0010
0100
0000
0000
1100
0000
0000
0000
0011
0000
0000
0000
0110
0000
,
0000
0000
0000
0000
1000
0000
0100
0000
1000
0000
0100
0000
1000
0000
0100
0010
,
0001
0010
0001
0010
0001
0010
0001
0010
,
0001
1100
0000
0110
0000
0011
0000
1001
,
0000
0000
0010
0000
0100
0010
0100
0010
0001
0100
0010
0000
0100
0001
1000
0000
,
0001
0000
0001
0100
0010
0100
0001
0100
,
1000
0100
0010
0100
0001
0100
0010
0100
,
1000
0100
0010
0100
0001
0100
0010
0100
,
1000
0100
0010
0100
0001
0100
0010
0100
,
1000
0100
0010
0100
0001
0100
1000
0100
,
0010
0100
0001
0100
0010
0100
1000
0100
,
0010
0100
0001
0100
1000
0100
1000
0010
,
0010
0000
0000
0001
0000
0000
0100
0000
0000
0010
0000
0000
02M2
0000
0000
1000
0000
0000
00M0
0000
0000
1000
00M0
0000
,
1303
0000
00M0
1000
0000
0000
0100
0000
0000
0010
0000
0000
1000
0000
0000
0010
0000
0000
0001
0000
0000
0010
0000
0000
,
1000
0010
0100
0010
1000
0010
0001
0010
,
0100
0010
1000
0010
0100
0010
0001
0010
,
0100
0010
1000
0010
0100
0010
0000
0000
,
1000
0100
0010
0100
0001
0100
1000
0100
,
0001
0100
0010
0100
0001
0100
1000
0100
,
0001
0100
0010
0100
0001
0000
1100
0000
,
0000
0011
0000
1100
0011
0000
1100
0000
,
1111
0100
1000
0100
0011
1000
0001
0000
,
1000
0010
0100
1000
0011
0100
0001
0000
,
1000
0010
0100
1000
0011
0100
0001
0010
,
1000
0000
0100
1000
0010
0000
0100
0001
0010
0000
0100
1000
0001
0010
0000
0000
,
1000
0010
0100
1000
0011
0100
0001
0000
,
1000
0010
0100
1000
0011
0100
0001
0000
,
1000
0010
0100
1000
0011
0100
0001
0000
,
1000
0000
0000
0000
1000
0000
0000
0000
1000
0100
1000
0100
1000
0100
1000
0000
,
0001
0100
0010
0001
1100
0010
1000
0100
,
0011
1000
0010
0001
1100
0010
1000
0100
,
0011
1000
0010
0001
1100
0010
1000
0100
,
0011
0000
0100
1000
0010
0000
0100
0001
0010
0000
0100
1000
0001
0010
0000
0000
,
0001
0010
0001
0010
0001
0010
0001
0010
0001
0010
0001
0010
,
0001
0010
0001
0010
0001
0010
0001
0010
0100
1000
0100
1000
,
0100
1000
0100
1000
0100
1000
0100
1000
0100
1000
0100
1000
,
0100
0000
0000
0000
1000
0000
0000
0000
0100
0000
0000
0000
1000
0000
0000
0000
0100
0000
0000
0000
1000
0000
0000
0000
0100
0000
0000
0000
0010
0000
0000
0000
0100
0000
0000
0000
0001
0000
0000
0000
0000
0000
0000
0000
0000
0010
0000
0000
,
0100
0000
0010
0000
0100
0000
0010
0000
0100
0000
0010
0000
0100
0000
0010
0100
,
1000
0000
0100
0000
1000
0000
0100
0000
1000
0000
0100
0000
1000
0000
0100
0010
,
0001
0010
0001
1010
0000
0011
0000
1001
,
0000
0000
0010
0100
0000
0000
0010
0001
0000
0100
0010
0100
0000
0001
0000
0100
,
1000
0000
0010
0000
1000
0000
0010
0000
1000
0000
0010
0000
1000
0000
0010
0001
,
0100
0010
0100
0010
0100
0010
0100
0010
,
0000
1100
0000
0110
0000
0101
0000
1100
,
0000
0000
0010
0100
0010
0100
0010
0000
0100
0001
1000
0000
0010
0000
0100
0000
,
0011
1000
0100
1000
0011
0100
0001
1000
,
0110
0001
0010
1000
0011
1000
0100
0001
,
1100
0010
0001
1000
0101
1000
0100
0001
,
1010
0001
0010
1000
0101
0010
1000
0001
,
1010
0100
0001
0010
1100
0001
0010
0000
,
0101
2200
3322
0033
,
0011
0100
0001
1000
0011
0100
0010
1000
,
0011
1000
0004
0043
0430
4300
3400
0340
,
0130
0000
00M0
1000
0000
0000
0001
0000
0000
1000
0000
0000
0101
0000
0000
0001
0000
0000
0010
0000
0000
1000
0000
0000
,
0001
0010
1000
0000
0011
0001
0000
0100
,
1000
0100
0001
1000
0101
0001
1000
0100
,
0010
0000
2000
0000
0002
0000
0020
0000
0000
0000
0000
0030
3003
0000
0000
0000
,
1000
0100
0010
0001
1010
1000
0001
0010
,
1000
0100
1000
0000
0011
0001
0000
0000
,
1100
0010
0001
0100
0001
1000
0011
0100
,
0010
1000
0100
1000
0011
1100
0011
1100
,
0000
0100
0000
1000
0000
0010
0000
0000
0100
0000
0000
0000
0000
0000
0000
0000
,
0000
0000
0000
0000
0000
0000
0100
0000
0000
0000
0000
0000
0000
0000
0000
0000
1000
0000
0000
0000
0000
0010
0000
0000
0000
0000
0000
0000
0000
0000
0000
0000
0000
0000
0000
0000
0000
0000
0000
0000
0000
0000
0000
0000
0000
0000
0000
0000
,
1100
0000
0110
0000
0011
0000
1100
0011
,
0011
1100
0000
0000
2000
0200
0002
0000
,
0000
3303
1000
1000
0100
0010
0100
1000
,
0000
0000
0110
0000
0011
0110
0000
0000
,
0000
0000
0000
1100
0010
0100
0010
1100
,
0000
0001
0001
0001
0010
1100
0000
0000
,
0000
0100
0010
0001
0100
1000
0110
0000
,
0000
0011
1100
0000
,
0000
1100
0000
0110
0000
1000
0100
0010
,
1100
0011
0110
0000
,
1000
0100
0001
0010
1000
0000
0000
0000
,
0000
0110
0000
0011
0011
0000
0000
0000
,
1010
0001
1010
0001
0010
1100
0010
0001
,
1000
0011
0011
0011
0012
0000
0000
0003
,
4000
0000
0000
3000
0010
0001
0010
0100
,
1000
0100
0010
0001
0010
0100
1000
0100
,
4400
0000
0300
0000
,
0000
0000
0000
3000
,
0440
0000
4334
0000
,
3443
0000
0000
0000
0000
0000
0000
0000
4334
0000
0000
0000
3003
0000
0100
0010
,
1000
0001
0100
0000
0010
0100
0001
0000
0010
0001
0100
0000
1000
0010
0100
0000
,
0010
0000
0001
1000
0010
0001
0100
0010
1000
0000
0010
0100
1000
0000
0000
0000
,
4000
0000
0000
0000
0000
3100
0010
0001
,
0010
0000
0100
0000
1000
0000
0100
0000
0040
0000
0000
0000
0030
0004
0000
0000
,
0003
0000
0040
0000
0000
0030
0400
0000
0300
4000
0000
0000
0000
0000
0000
3000
,
4000
0000
0000
0000
0000
0000
0000
0000
0000
3000
0001
0001
,
0010
0100
0010
0100
0010
1000
0100
0001
0010
0100
0010
0001
,
0010
0100
0010
1000
0100
1000
0100
0010
0100
1000
0010
0001
,
0001
0001
0000
0000
1000
1000
0000
0001
0000
0001
0000
0000
,
1000
0000
0000
0000
0001
0000
0001
0000
0000
0000
1000
0000
1000
0000
0000
1000
0000
0000
1000
0000
0000
0000
0000
0000
,
0200
0000
0000
0000
0310
0100
1000
0100
,
0010
0001
0010
0100
1000
0100
0010
0001
,
0020
0000
0000
0000
0000
0000
0000
0000
0001
0030
0000
0000
0200
0000
0000
0000
0000
0000
0300
0000
0000
0000
2000
0000
,
0000
0000
0000
3000
0200
0000
0000
0300
0002
0000
0000
0000
,
0003
0010
0000
0100
0000
1000
0000
0100
0000
0010
0000
0001
,
0010
0000
0100
1000
0000
0100
0010
0000
0001
0000
0010
0000
,
1000
0200
0000
0000
0000
0000
0000
0000
0300
1000
0100
0010
,
0100
1000
0100
0010
0100
1000
0100
0010
0100
1000
0100
0000
,
0000
0001
0010
0001
0010
0001
0010
0001
0010
0001
0010
0001
,
0010
0001
0010
0001
0010
0001
0010
0001
0010
0001
0010
0001
,
0020
0000
0000
0000
,
1030
0100
1000
0100
0011
0100
0001
1000
,
0100
0010
0100
1000
0101
0010
0100
1000
,
0100
0000
0000
0010
0000
0000
0100
0000
0000
1000
0000
0000
0101
0000
0000
0010
0000
0000
0100
0000
0000
0000
0010
0000
,
0100
0010
0100
0010
0000
1000
0001
1000
0001
1000
0001
1000
,
0010
0000
0000
0000
0220
0000
000M
0000
0000
0000
0000
0000
0000
0000
0000
1000
000M
0000
0000
0000
0000
0000
0000
0000
1000
0000
0000
000M
0330
0000
1000
0000
0000
0000
0000
0000
1M0M
0000
0000
0000
00M0
0000
0000
0000
0000
0000
0000
0000
,
MMMM
0000
0000
0000
0000
0000
MMMM
0000
0000
0000
M00M
0000
0000
0000
0M00
0000
0000
0000
000M
0000
0000
0110
0000
0000
,
0000
0000
0000
1100
0000
0000
0011
0000
2200
0000
0000
0000
,
0000
0000
0000
0000
0000
0000
3300
0000
0100
0000
0100
0000
,
1000
0100
1000
0100
1000
0100
0010
0100
0010
0100
0010
0000
,
0000
0000
0001
0100
0010
0100
1000
0100
,
0001
0100
0010
0100
0001
0100
1000
0100
,
0010
0100
0001
0100
0010
0100
1000
0100
,
MM20
MM00
MM01
MM00
MM31
0000
1000
0100
,
0001
0100
0010
0100
1000
0100
1000
0100
,
0001
0100
0010
0100
0001
0100
1000
0100
,
0010
0100
0001
0100
0010
0100
1000
0100
,
0001
0100
0010
0100
0001
0100
1000
0100
,
0010
0100
0001
0100
0010
0100
1000
0100
,
0010
0100
0001
0100
0010
0100
1000
0000
,
0101
1010
0101
0011
,
0110
0011
0000
0000
0000
0011
0011
0000
,
1000
0100
1000
0100
1000
0100
1000
0100
1000
0100
1000
0100
,
1000
0100
0010
0100
0010
0100
0010
0100
0010
0100
0010
0100
,
0010
0100
1000
0100
1000
0100
1000
0100
1000
0100
1000
0100
,
0010
0001
0010
0001
0010
0001
0010
0100
1000
0100
0010
0100
,
1000
0100
1000
0100
1000
0100
1000
0100
1000
0100
1000
0100
,
1000
0100
0010
0100
0010
0100
0010
0100
0010
0100
0010
0100
,
0010
0001
0010
0001
0010
0001
0010
0001
0010
0001
0010
0100
,
1000
0000
0000
0000
1000
0000
0000
0000
1000
0100
1000
0100
1000
0100
1000
0000
,
0001
0100
0010
0001
1100
0010
1000
0000
,
0001
0100
0010
0001
1100
0010
1000
0000
,
0001
0100
0010
0001
1100
0010
1000
0000
,
0001
0000
0100
1000
0010
0000
1000
0100
0001
0000
1000
0010
0100
0001
0000
0000
,
1000
0010
0100
1000
0011
0100
0001
0010
,
1100
0010
0100
1000
0011
0100
0001
0010
,
1100
0010
0100
1000
0011
0100
0001
0010
,
0010
0010
0010
0010
0010
0010
0010
0000
,
1000
0100
0001
0010
1100
1000
0100
0010
,
1000
0001
0010
0000
1100
1000
0000
0000
,
0010
0100
1000
0001
1100
1000
0010
0100
,
0010
2000
0020
0200
000M
000M
3330
0000
,
1000
0010
0100
0001
1100
1000
0001
0001
,
0100
1000
0010
0000
1100
1000
0000
0100
,
0011
1000
1000
0101
0010
0001
1100
0010
,
0001
1010
0001
0010
1100
0010
1000
0000
,
0001
0100
1000
0100
0011
0001
1000
0010
,
0100
0001
1000
0000
0011
0001
0000
0000
,
0100
0001
1000
0100
0011
0001
0000
0100
,
1000
0001
0010
1000
0011
0001
0000
0000
,
1000
0001
0100
1000
0011
0001
0000
1000
,
0010
0001
0100
0000
0011
0001
0000
0000
,
1000
0100
0011
0011
0000
0001
1010
0000
,
0101
1000
0011
0100
0011
1100
0000
0000
,
0000
0100
0000
0000
0000
1000
0000
0100
0001
0000
0000
0000
0000
0000
0000
0000
,
0000
0000
0000
0000
0000
0000
1000
0000
0000
0000
0000
0000
0000
0000
0000
0000
1000
0000
0000
0000
0000
0000
0000
0000
0000
0000
0000
0010
0000
0000
0000
0000
0000
0000
0000
0000
0000
0000
0000
0000
0000
0000
0000
0000
0000
0000
0000
0000
,
1100
0000
0011
0000
1100
0010
0100
0010
,
1100
0001
0001
0000
0020
0002
0200
0000
,
0000
0333
1100
0000
0010
0001
0110
0000
,
0000
0000
0000
0010
1100
0011
0000
0000
,
0010
0000
0000
1000
0100
0010
0000
0011
,
0000
1000
0100
0001
1000
0010
0100
0000
,
0000
0000
1000
0010
0100
1000
0000
0000
,
0000
0110
0011
0000
,
0000
0000
0110
0000
0011
0100
0010
0000
,
0000
0100
1000
0001
0100
0000
0000
0000
,
0100
1000
0100
0010
1000
0000
0000
0000
,
0000
0101
1010
0000
,
1100
0011
0011
1000
0101
0010
1100
0010
,
0101
0010
1100
1100
0002
1100
0000
0003
,
1100
1100
1100
1100
0000
1100
0000
1100
,
0000
0000
0020
0002
0200
0000
0000
0000
,
0333
0000
0000
0000
;

//---------------dance-single - PER PRINCIPIANTI----------------
#NOTES:
     dance-single:
     PER PRINCIPIANTI:
     Hard:
     12:
     1.000,1.000,0.869,1.000,0.272,1304.000,222.000,277.000,19.000,72.000:

0000
0000
0000
0000
,
0000
0000
0000
0000
,
1000
0100
0010
1000
0000
0100
1000
0010
,
1000
0100
0001
0000
1000
1000
0000
0100
,
0010
0001
0100
1000
0000
0100
0000
0010
,
0000
0001
0010
0100
0010
0001
0000
0000
,
0100
1000
0100
1000
0000
0100
0010
0001
,
0010
1000
0100
0000
1000
1000
0000
0100
,
0010
0001
0100
0010
0000
0001
0000
0100
,
0000
1000
0001
1000
0001
0010
0000
0000
,
1000
0100
0001
1000
0101
0010
0100
1000
,
0001
0100
0010
0100
0011
0001
0000
0000
,
1000
0001
0010
1000
0101
0001
0010
1000
,
0100
0001
1000
0100
0011
0010
0000
0000
,
0100
0001
0010
1000
0101
0001
0010
1000
,
0010
0001
0010
0100
0011
0001
0000
0000
,
0011
0000
1100
0011
1100
0000
0011
0010
,
0000
0000
1100
0000
1100
0000
1100
0000
0011
0000
0011
0000
0000
0000
0000
2222
,
0000
0000
0000
0000
0000
0000
0000
0000
0000
0000
0000
0000
0000
0000
0000
3333
,
0100
0010
0001
0000
0011
0010
0000
0000
,
0100
1000
0010
1000
0011
0010
0000
0010
,
0000
0100
1000
0100
0011
0001
0000
1000
,
0100
0010
0100
1000
0011
0010
0100
1000
,
0001
0100
0010
1000
0011
0001
0000
0000
,
0010
0010
0010
0010
0010
0010
0010
0010
,
0010
0010
0010
1000
0100
0001
1000
0000
,
0000
0100
1000
0001
1100
1000
0010
0001
,
1000
0100
1000
0000
0011
0001
0000
0010
,
1000
0100
0001
1000
0011
0010
1000
0010
,
1000
0001
0100
1000
0011
0001
0000
0000
,
0100
1000
0010
1000
0011
0010
0100
1000
,
0100
0001
0010
1000
0011
0001
0000
0000
,
1000
0100
1000
0101
0010
1000
0001
1010
,
0100
0011
1000
0100
1000
0101
0010
1000
,
M201
0000
0000
0300
,
0002
0000
0000
0000
0000
0003
0000
0000
,
2000
0000
0000
0000
0000
3000
0000
0000
,
0000
0000
0000
0000
,
2100
0000
0000
3000
,
0002
0000
0000
0000
,
2103
0000
0000
0000
0000
3000
0000
0100
,
0120
0030
0000
0000
0000
0000
0000
0000
,
2000
3200
0321
0032
,
2003
3200
0321
0032
,
2003
3200
0321
0032
,
0103
0000
1000
0100
0010
0000
0100
0010
0001
0000
0010
0100
1000
0000
0010
0000
,
0002
0023
1230
2300
,
3002
0023
1230
2300
,
3002
0023
1230
2300
,
3001
0000
0000
0000
0001
0000
0000
0000
0001
0010
0001
0010
0001
0010
0001
0000
,
2000
3200
0321
0032
,
2103
3200
0321
0032
,
2103
3200
0321
0032
,
1103
0000
0001
0000
0010
0100
1000
0000
0100
0010
0001
0000
0010
0100
1000
0000
,
0012
0123
1230
2301
,
3012
0123
1230
2301
,
3012
0123
1230
2301
,
3044
0000
0000
0400
,
1333
1100
0110
0011
,
1001
0000
1010
0000
0200
0010
0000
0010
,
0300
1100
0000
0110
0000
0101
0000
1001
,
0000
0000
0010
0001
0000
0000
0100
0010
1000
0000
0100
1000
0000
0000
0010
0000
,
0010
0000
1100
0000
0110
0000
0011
0100
,
1010
0100
1000
1000
0200
000M
0000
000M
,
0300
1100
0000
1010
0000
1001
0000
1000
,
0100
1000
0001
0010
1000
1000
0010
0000
,
1100
0100
0011
0100
0020
0000
0000
0000
,
1130
0100
0011
1000
0200
0000
0000
0000
,
0300
1100
0000
0011
0000
0110
0000
1001
,
0000
0000
0010
0100
0000
0000
1100
0000
0000
0000
0011
0000
1000
0000
0010
0000
,
0200
0300
0010
0100
0001
0200
0010
0301
,
0010
1000
0001
0100
0020
0000
0000
0000
,
0030
1100
0000
0110
0000
0011
0000
1001
,
0000
0000
0010
0000
0100
0010
0100
0000
0001
0000
0010
0000
0100
0000
1000
0000
,
0001
0000
1000
0100
1000
0010
2000
0000
,
3000
1000
0010
0001
0010
1000
0010
0002
,
0000
1003
1000
0100
0020
0000
0032
0000
,
0023
0230
2300
3200
,
0300
0010
0010
0100
0100
0010
0002
0000
,
0003
0000
0100
0100
0010
0010
2000
0000
,
3000
0000
0000
0100
0000
0000
0001
0000
0000
1000
0000
0000
0200
0000
0000
0000
0000
0000
0301
0000
0M00
0010
0000
0000
,
0010
0001
0100
0010
1202
1000
0000
1000
,
1303
1000
0001
0001
0100
0010
0002
0000
,
0203
0000
0320
0000
0031
0001
0200
0000
,
0300
1000
0100
0010
0200
0300
0M10
0001
,
0200
0310
0M02
0003
0001
0001
0020
0000
,
0030
1100
0000
0110
0000
0010
0002
0000
,
0013
1000
0010
0001
1000
0001
0020
0000
,
1030
1000
0100
0000
0010
0000
0001
0000
,
0010
0001
0010
0100
,
2222
0000
0000
0000
0000
0000
0000
3333
,
2000
3200
0321
0032
,
2003
3200
0321
0032
,
1003
0000
0100
1000
0010
0000
0100
0001
0010
0000
0100
1000
0001
0010
0000
0000
,
2000
3200
0321
0032
,
2003
3200
0321
0032
,
2003
3200
0321
0032
,
1003
0000
0000
0000
1000
0000
0000
0000
1000
0100
1000
0100
1000
0100
1000
0000
,
0002
0023
1230
2300
,
3012
0023
1230
2300
,
3012
0023
1230
2300
,
3011
0000
0100
1000
0010
0000
0100
0001
0010
0000
0100
1000
0001
0010
0000
0000
,
2100
3210
0321
0132
,
2103
3210
0321
0132
,
2103
3210
0321
0132
,
1003
0100
1000
0100
1000
0100
1000
0010
0100
0001
0000
0000
,
1000
0010
0100
1000
0001
0100
0010
1000
,
0001
0100
1000
0100
0020
0000
0000
0030
,
0000
1100
0000
0011
0000
0110
0000
1001
,
0000
0000
0010
0100
0000
0000
0010
0001
0000
0100
0010
0100
0000
0001
0000
0000
,
1000
1000
1000
0010
0000
0001
0000
1000
,
0100
1000
0010
0001
0020
0000
0000
0130
,
0000
1100
0000
0110
0000
0101
0000
1100
,
0000
0000
0010
0100
0010
0100
0010
0000
0100
0000
1000
0000
0010
0000
0100
0000
,
0000
0100
1000
0001
0100
0010
0001
0100
,
0010
1000
0010
1000
0002
0000
0000
0000
,
1103
0010
0100
1000
0101
0100
0010
0001
,
1010
0001
0010
1000
0101
0M0M
1000
0010
,
0010
0100
0001
0010
1000
0100
0010
0000
,
0101
1010
0200
0000
,
M304
M000
M000
M000
,
M000
0003
0004
0043
0430
4300
3400
0340
,
0130
0000
00M0
1000
0000
0000
0001
0000
0000
1000
0000
0000
0101
0000
0000
0001
0000
0000
0010
0000
0000
1000
0000
0000
,
0001
0010
1000
0000
0011
0001
0000
0100
,
1000
0100
0001
1000
0101
0001
1000
0100
,
0010
0000
2000
0000
0002
0000
0020
0000
0000
0000
0000
0030
3003
0000
0000
0000
,
1000
0100
0010
0001
1010
1000
0001
0010
,
1000
0100
1000
0000
0011
0001
0000
0000
,
1100
0010
0001
0100
0001
1000
0011
0100
,
0010
1000
0100
1000
0011
1100
0011
1100
,
0000
0010
0000
0000
0000
0010
0000
0000
0002
0000
0000
0000
0000
0000
0000
0000
,
0003
0000
0000
0000
0000
0000
1000
0000
0000
0000
0000
0000
0000
0000
0000
0000
1000
0000
0000
0000
0000
0002
0000
0000
0000
0000
0000
0000
0000
0000
0000
0000
0000
0000
0000
0000
0000
0000
0000
0000
0000
0000
0000
0000
0000
0000
0000
0000
,
2003
3000
0200
0000
0310
1000
0001
0100
,
0010
0100
0001
0000
2000
0200
0002
0000
,
0000
3303
1000
1000
0100
0010
0100
2000
,
0000
0000
0000
0000
3100
0000
0010
0000
1000
0000
0200
0000
0000
0300
0000
0000
,
0000
0000
0000
0100
1000
0100
0020
1000
,
0030
0001
0001
0001
0020
1000
0000
0030
,
0000
0100
0010
0001
0100
1000
0200
0000
,
0000
0301
0020
0030
,
0000
2000
3000
0200
0000
0310
0001
0010
,
1000
0100
0001
0100
0020
0000
0000
0030
,
1000
0100
0001
0010
2000
0000
3000
0000
,
0000
0010
0000
0001
0000
0000
0000
0000
,
1010
0100
1010
0100
0010
1100
0010
0001
,
1000
0011
0011
0011
0012
0000
0000
0003
,
4000
0000
0000
3000
0010
0001
0010
0100
,
1000
0100
0010
0001
0010
0100
1000
0100
,
4000
0000
0000
0000
,
0000
0000
0000
3000
,
0400
0000
0340
0000
,
0034
0000
0000
0000
0000
0000
0000
0000
4003
0000
0000
0000
3000
0000
0100
0010
,
1000
0001
0100
0000
0010
0100
0001
0000
0010
0001
0100
0000
1000
0010
0100
0000
,
0010
0000
0001
1000
0010
0001
0100
0010
1000
0000
0010
0100
1000
0000
0000
0000
,
4000
0000
0000
0000
0000
3100
0010
0001
,
0010
0000
0100
0000
1000
0000
0100
0000
0020
0000
0000
0000
0030
0002
0000
0000
,
0003
0020
0000
0000
0030
0200
0000
0000
0300
2000
0000
0000
0000
0000
0000
3000
,
4000
0000
0000
0000
0000
0000
0000
0000
0000
3000
0001
0001
,
0010
0100
0010
0100
0010
1000
0100
0001
0010
0100
0010
0001
,
0010
0100
0010
1000
0100
1000
0100
0010
0100
1000
0010
0001
,
0001
0001
0000
0000
1000
1000
0000
0001
0000
0001
0000
0000
,
1000
0000
0000
0000
0001
0000
0001
0000
0000
0000
1000
0000
1000
0000
0000
1000
0000
0000
1000
0000
0000
0000
0000
0000
,
0200
0000
0000
0000
0310
0100
1000
0100
,
0010
0001
0010
0100
1000
0100
0010
0001
,
0020
0000
0000
0000
0000
0000
0000
0000
0001
0030
0000
0000
0200
0000
0000
0000
0000
0000
0300
0000
0000
0000
2000
0000
,
0000
0000
0000
3000
0200
0000
0000
0300
0002
0000
0000
0000
,
0003
0010
0000
0100
0000
1000
0000
0100
0000
0010
0000
0001
,
0010
0000
0100
1000
0000
0100
0010
0000
0001
0000
0010
0000
,
1000
0200
0000
0000
0000
0000
0000
0000
0300
1000
0100
0010
,
0100
1000
0100
0010
0100
1000
0100
0010
0100
1000
0100
0000
,
0000
0001
0010
0001
0010
0001
0010
0001
0010
0001
0010
0001
,
0010
0001
0010
0001
0010
0001
0010
0001
0010
0001
0010
0001
,
0020
0000
0000
0000
,
1030
0100
1000
0100
0011
0100
0001
1000
,
0100
0010
0100
1000
0101
0010
0100
1000
,
0100
0000
0000
0010
0000
0000
0100
0000
0000
1000
0000
0000
0101
0000
0000
0010
0000
0000
0100
0000
0000
0000
0010
0000
,
0100
0010
0100
0010
0000
1000
0001
1000
0001
1000
0001
1000
,
0010
0220
0000
0000
0000
0000
0000
0000
0000
0000
0000
0330
,
0000
0010
1000
0010
0001
0010
0200
0000
,
0000
0300
2000
0000
3020
0000
0032
0000
,
1003
1000
0100
0001
0100
2000
3020
0000
,
2030
3200
0320
0032
,
0003
1100
1100
0220
,
0000
0330
0011
0000
0011
0000
2200
0000
,
0000
3300
1010
0000
1010
0000
0101
0000
,
0110
0110
0001
0222
0000
0000
0000
0000
,
1333
0010
0100
0001
1000
0200
0000
0310
,
0002
0013
010M
0001
1000
0100
0002
0000
,
0003
0100
1000
0001
0020
0130
00M1
0200
,
1300
0M10
0100
0001
1000
0100
0020
0000
,
0030
0000
1000
0000
0001
0220
0000
0330
,
0000
0011
0000
0110
0000
0000
2002
0000
,
3003
0010
0001
0010
,
0100
1000
0100
0010
,
2222
0000
0000
0000
0000
0000
0000
3333
,
2000
3200
0320
0032
,
2003
3200
0320
0032
,
0003
0000
0000
0000
,
2000
3200
0320
0032
,
2003
3200
0320
0032
,
2003
3200
0320
0032
,
1003
0000
0000
0000
1000
0000
0000
0000
1000
0100
1000
0100
1000
0100
1000
0000
,
0002
0023
1230
2300
,
3002
0023
1230
2300
,
3002
0023
1230
2300
,
3001
0000
0100
1000
0010
0000
1000
0100
0001
0000
1000
0010
0100
0001
0000
0000
,
2000
3200
0321
0032
,
2103
3200
0321
0032
,
2103
3200
0321
0032
,
2223
0000
0000
0000
0000
0000
0000
0000
0000
3330
0000
0000
0000
0000
0000
0000
,
1000
0100
0001
0010
1100
1000
0100
0010
,
1000
0001
0010
0000
1100
1000
0000
0000
,
0010
0100
1000
0001
1100
1000
0010
0100
,
0010
2000
0020
0200
000M
000M
3330
0000
,
1000
0010
0100
0001
1100
1000
0001
0001
,
0100
1000
0010
0000
1100
1000
0000
0100
,
0011
1000
1000
0101
0010
0001
1100
0010
,
0001
1010
0001
0010
1100
0010
1000
0000
,
0001
0100
1000
0100
0011
0001
1000
0010
,
0100
0001
1000
0000
0011
0001
0000
0000
,
0100
0001
1000
0100
0011
0001
0000
0100
,
1000
0001
0010
1000
0011
0001
0000
0000
,
1000
0001
0100
1000
0011
0001
0000
1000
,
0010
0001
0100
0000
0011
0001
0000
0000
,
1000
0100
0011
0011
0000
0001
1010
0000
,
0101
1000
0011
0100
0011
1100
0000
0000
,
0000
0010
0000
0000
0000
0010
0000
0000
0002
0000
0000
0000
0000
0000
0000
0000
,
0003
0000
0000
1000
0000
0000
0000
0000
1000
0000
0000
0000
0200
0000
0000
0000
0000
0000
0000
0000
0000
0000
0000
0000
,
1300
0000
0001
0000
0100
1000
0100
0010
,
0100
0001
0001
0000
0020
0002
0200
0000
,
0000
0333
0010
0100
0010
0001
0020
0000
,
1000
0030
0000
0100
1000
0002
0000
0000
,
0013
0100
1000
0100
0010
0001
0020
0000
,
0030
1000
0100
0001
1000
0010
0200
0000
,
0300
0001
1000
0010
0100
2000
0000
0010
,
3000
0110
0002
0003
,
0000
0001
0010
1000
0001
0100
0020
0031
,
1000
0100
1000
0001
0200
0000
0000
0300
,
0100
1000
0010
1000
0020
0000
0000
0030
,
0000
0000
0101
0000
0020
0000
0000
0030
,
1100
0011
0011
1000
0101
0010
1100
0010
,
0101
0010
1100
1100
0002
1100
0000
0003
,
1100
1100
1100
1100
0000
1100
0000
1100
,
0000
0000
0020
0002
0200
0000
0000
0000
,
0333
0000
0000
0000
;
