#TITLE:Emotional Lability;
#SUBTITLE:;
#ARTIST:Filthy;
#TITLETRANSLIT:;
#SUBTITLETRANSLIT:;
#ARTISTTRANSLIT:;
#CREDIT:The Cosmic Pope;
#BANNER:Bn-Emotional.png;
#BACKGROUND:Bg-Emotional.png;
#LYRICSPATH:;
#CDTITLE:;
#MUSIC:Emotional Lability.ogg;
#OFFSET:0.147;
#SAMPLESTART:39.465;
#SAMPLELENGTH:15.360;
#SELECTABLE:YES;
#DISPLAYBPM:250.000;
#BPMS:0.000=250.000,260.000=125.000,292.000=250.000;
#STOPS:;
#BGCHANGES:;
// cache tags:
#FIRSTBEAT:16.000;
#LASTBEAT:484.000;
#SONGFILENAME:Songs/Speedcore Rejects/Emotional Lability - [Pope]/Emotional Lability.sm;
#HASMUSIC:1;
#HASBANNER:1;
#MUSICLENGTH:125.354;
// end cache tags

//---------------dance-single - B. Abear----------------
#NOTES:
     dance-single:
     B. Abear:
     Challenge:
     12:
     1.000,1.000,1.000,0.702,0.311,775.000,137.000,88.000,17.000,0.000:

0000
0000
0000
0000
,
0000
0000
0000
0000
,
0000
0000
0000
0000
,
0000
0000
0000
0000
,
0001
0010
0100
1000
0001
0100
0001
1000
,
1001
0001
0010
0000
0001
0010
0000
0001
,
1001
1010
0110
0101
,
1001
1000
0100
0110
0010
0001
1001
0000
,
1000
0010
1000
0010
0200
0300
0002
0003
,
1001
1100
0110
0011
,
1001
0000
0101
0000
0110
0000
0100
0001
,
1000
1100
0110
1100
,
1001
0000
0000
0000
0001
0000
1000
0100
1000
0000
0000
0000
0010
0000
0100
0000
,
0001
0101
1001
1100
,
0110
0000
0011
0000
1001
0000
1000
0100
,
0010
0011
1001
1010
,
2000
3000
0200
0300
0020
0030
0002
0003
,
1100
1001
0101
0110
,
1010
0000
1001
0000
0011
0000
0001
1000
,
0100
1100
0110
0011
,
1001
0000
0000
0000
1000
0000
0001
0100
0001
0000
0000
0000
0100
0000
0010
0000
,
1000
1010
1001
1100
,
0110
0000
0011
0000
1001
0000
1000
0010
,
0100
0101
1001
1100
,
2000
3000
0020
0030
0200
0300
0020
0030
,
1000
0010
1000
0100
0010
0001
1000
0001
,
0100
0000
0010
0000
1000
0000
0100
0000
0010
0000
0001
0000
1000
0001
0100
0001
,
1000
0100
0010
0001
1000
0100
1000
0001
,
0100
0010
1000
0001
0100
0010
1000
0001
,
1000
0000
0100
0000
1000
0000
0100
0000
0010
0000
0001
0000
1000
0001
0010
0001
,
1000
0010
0100
0010
1000
0001
0010
0200
,
0300
0000
0000
0000
,
1000
1000
0001
0100
0010
0010
1000
0001
,
0010
0100
1000
0001
0010
0100
1000
0001
,
0001
0000
1000
0000
0100
0000
0010
0000
0100
0000
1000
0000
0001
1000
0100
1000
,
0001
0100
0010
0100
0001
0001
1000
0100
,
1000
0010
0100
0001
1000
0010
0100
0001
,
0100
0000
0010
0000
1000
0000
0001
0000
1000
0000
1000
0000
0001
0100
0001
1000
,
0001
0010
0100
1000
1000
0001
0100
0001
,
0010
0001
0001
1000
0010
1000
1000
0001
,
0010
0000
0100
0000
0010
0000
0001
0000
1000
0000
1000
0000
0001
1000
0001
0000
,
0000
1001
1100
0110
,
0011
0000
1001
0000
1010
0110
0MM0
0101
,
0000
0000
1001
0000
1100
0110
0000
0011
,
0000
0000
1001
0000
1010
0110
0000
0101
,
0000
1001
0011
0110
,
1100
0000
1001
0000
0101
0110
0MM0
1010
,
0000
0000
1001
0000
1100
0110
0000
0011
,
0000
0000
1001
0000
0011
0110
0000
1100
,
0000
1001
0011
0110
,
1100
0000
1001
0000
0101
0110
0MM0
1010
,
0000
0000
1001
0000
0011
0110
0000
1100
,
0000
0000
1001
0000
0101
0110
0000
1010
,
0000
1001
1100
0110
,
0011
0000
1001
0000
1010
0110
0MM0
0101
,
0000
0000
1001
0000
0011
0110
0000
1100
,
0000
0000
1001
0000
1100
0110
0000
0011
,
0000
0000
0002
0013
0200
1300
0002
0103
,
0020
0130
0002
1003
0200
0320
0031
2000
,
3001
0010
0200
1300
0002
0103
0020
0230
,
0301
0100
0002
0013
0200
1300
0002
0023
,
0031
0100
0020
1030
0200
1300
0020
0130
,
0002
1003
0200
1300
0002
0203
0310
2000
,
3100
1000
0020
0130
0002
1003
0002
0023
,
0130
1000
0002
1003
0200
0000
0000
0000
,
2300
0000
3020
0000
,
0230
0000
0000
0000
0000
0300
0100
0000
0001
0000
0001
0000
0020
0000
0000
0000
,
0230
0000
2300
0000
,
3020
0000
0000
0000
0000
0030
0010
0000
0100
0000
0100
0000
0002
0000
0000
0003
,
0101
0000
1000
0000
,
1100
0000
0000
0110
0000
0000
0011
0000
1001
0000
1000
0000
0020
0000
0000
0030
,
0110
0000
1000
0000
,
1001
0000
0000
0011
0000
0000
0110
0000
0100
0000
0100
0000
2000
0000
0000
3000
,
1001
0000
0002
0000
0103
0020
0000
1030
,
0200
0000
0310
0002
0000
1003
0020
0000
,
0030
0000
0200
0000
0301
2000
0000
3100
,
0020
0000
0031
2000
0000
3010
0200
0000
,
0300
0000
0002
0000
1003
0200
0000
0310
,
0002
0000
1003
0020
0000
0130
0002
0000
,
1003
0000
0200
0000
0310
0002
0000
1003
,
0020
0000
0000
0000
0130
0000
0002
0000
0000
0000
1003
0000
0200
0000
0000
0300
,
1100
1100
2000
0000
3001
0200
0000
0310
,
0200
0000
0301
2000
0000
3001
0020
0000
,
0130
0000
2000
0000
3001
0200
0000
0310
,
2000
0000
0000
0000
3001
0000
0020
0000
0000
0000
0130
0000
2000
0000
0000
3000
,
1001
1001
0002
0000
0103
0020
0000
1030
,
0002
0000
0013
0200
0000
1300
0002
0000
,
0103
0000
0020
0000
1030
0002
0000
0013
,
M100
10M0
0M01
M100
,
0010
1000
0001
1000
0100
0010
0001
1000
,
0010
0000
1000
0000
0100
0000
0010
0000
0001
0000
1000
0000
0001
0000
1000
0100
,
0010
0001
1000
0010
0100
0001
0100
0010
,
1000
0000
0100
0000
1000
0001
0100
0000
0010
0000
0100
0000
0001
0000
0010
0000
,
M100
0010
0001
1000
0010
0100
0010
1000
,
0001
0000
0010
0000
0100
0000
1000
0000
0001
0000
1000
0000
0001
0000
0100
0010
,
1000
0100
0010
0001
1000
0100
1000
0001
,
0100
0000
0010
0000
0100
0001
1000
0001
1000
0000
0001
0000
1000
0100
0040
0000
,
0M31
1000
0010
0100
0001
1000
0100
1000
,
0001
0000
0010
0000
0100
0000
1000
0000
0001
0000
0100
0000
0010
0000
0100
0001
,
1000
0100
0010
0001
1000
0100
0010
0001
,
1000
0000
0010
0000
1000
0001
0010
0000
0100
0000
1000
0000
0001
0000
0100
0010
,
100M
0010
0100
0001
1000
0001
0010
0100
,
1000
0000
0001
0000
0010
0000
0001
0000
1000
0000
0100
0000
1000
0000
0001
0010
,
0100
1000
0001
0100
0010
0100
0001
1000
,
0001
0100
M010
0000
1000
0000
0001
0000
1000
0100
001M
0000
0001
0000
1000
0000
,
0001
0000
0010
0000
0100
1000
0001
0000
0100
0000
0010
1000
0001
0000
0100
0010
,
1000
0010
0100
0001
1000
0000
0100
0000
1000
0000
0001
0010
0100
1000
0004
0000
,
1003
0000
0010
0000
0100
0001
1000
0000
0001
0000
1000
0100
0010
0000
0001
1000
,
0100
1000
0004
0000
0103
0000
0010
0000
0100
0000
0001
1000
0100
0010
0400
0000
,
1300
0000
0001
0000
0100
0010
1000
0000
0001
0000
0010
0001
1000
0000
0100
1000
,
0001
1000
0100
0010
0001
0000
1000
0000
0010
0000
0100
0001
1000
0100
4000
0000
,
3001
0000
0100
0000
0010
0100
0001
0000
1000
0000
0100
0010
0001
0000
1000
0010
,
0100
0001
4000
0000
3010
0000
0100
0000
0010
0000
1000
0001
1000
0100
0040
0000
,
0031
0000
0010
0000
0100
1000
0001
0000
0100
0000
0010
1000
0001
0000
0100
0010
,
1000
0010
0100
0001
1000
0000
0100
0000
1000
0000
0001
0010
0100
1000
0004
0000
,
1003
0000
0010
0000
0100
0001
1000
0000
0001
0000
1000
0100
0010
0000
0001
1000
,
0100
1000
0004
0000
0103
0000
0010
0000
0100
0000
0001
1000
0100
0010
0400
0000
,
1300
0000
0001
0000
0100
0010
1000
0000
0001
0000
0010
0001
1000
0000
0100
1000
,
0001
1000
0100
0010
0001
0000
1000
0000
0010
0000
0100
0001
1000
0100
4000
0000
,
3001
0000
0100
0000
0010
0100
0001
0000
1000
0000
0100
0010
0001
0000
1000
0010
,
0100
0001
1000
0001
1000
0000
0100
0000
0010
0000
0001
1000
0001
0100
0040
0000
,
0030
0000
0000
0000
;
