#TITLE:Horizon (2);
#SUBTITLE:;
#ARTIST:Sanxion7;
#TITLETRANSLIT:;
#SUBTITLETRANSLIT:;
#ARTISTTRANSLIT:;
#CREDIT:;
#BANNER:horizonbanner.png;
#BACKGROUND:Horizonbgday.png;
#LYRICSPATH:;
#CDTITLE:;
#MUSIC:horizonfinalcut.OGG;
#OFFSET:-0.203;
#SAMPLESTART:28.730;
#SAMPLELENGTH:17.280;
#SELECTABLE:YES;
#BPMS:0.000=126.000,132.000=63.000,140.000=126.000;
#STOPS:;
#BGCHANGES:132.000=Horizonbgnight.png=1.000=1=0=1,
140.000=Horizonbgday.png=1.000=1=0=1,
188.000=Horizonbgnight.png=1.000=1=0=1,
99999=-nosongbg-=1.000=0=0=0 // don't automatically add -songbackground-
;
// cache tags:
#FIRSTBEAT:3.500;
#LASTBEAT:191.000;
#SONGFILENAME:Songs/in the groove2/Horizon (2)/horizon.sm;
#HASMUSIC:1;
#HASBANNER:1;
#MUSICLENGTH:96.052;
// end cache tags

//---------------dance-single - Blank----------------
#NOTES:
     dance-single:
     Blank:
     Challenge:
     10:
     0.684,0.820,0.135,0.042,0.682,443.000,13.000,4.000,1.000,0.000:
0000
0000
0000
0000
0000
0000
0000
1010
,
0001
0000
0100
0000
0010
1000
0000
0000
0101
0000
0000
1001
0000
0000
0101
0000
,
0001
0000
0100
0000
1000
0100
0000
0000
0101
0000
0000
0110
0000
0000
0101
0000
,
1000
0000
0000
0000
0100
0000
0000
0001
0000
0000
0100
0000
0000
1000
0000
0000
,
0010
0000
0100
0000
0000
0001
0000
0000
0010
0000
0000
1000
0000
0000
0010
0000
,
0001
1000
0100
0010
0100
0000
1000
0000
0100
0000
0000
0010
0001
0000
0000
0000
,
1000
0000
0010
0000
0000
0100
0000
0000
0101
0000
0000
1000
0010
0000
0000
0000
,
0100
0001
1000
0100
0010
0000
0001
0000
1000
0000
0000
1000
0010
0000
0000
0000
,
0100
0000
0001
0000
1000
0000
0100
0000
0010
0000
0100
0000
1000
0000
0001
0000
0100
0000
0010
0000
0000
1000
0000
0000
,
0001
0100
0010
0100
0001
0000
1000
0000
0100
0000
0010
0000
0001
0000
1000
0000
,
0010
0000
0100
0001
0100
0000
0100
0001
0010
0000
0100
0000
1000
0000
0010
0000
,
0100
0001
1000
0001
0100
0000
0010
0000
1000
0000
0100
0000
0001
0000
0100
0000
,
1000
0000
0010
0100
0001
0000
0001
1000
0200
0000
0000
0000
1300
0000
0010
0000
,
0100
0010
1000
0010
0100
0000
0001
0000
1000
0000
0100
0010
0001
0000
0100
0000
,
0010
0000
1000
0010
0100
0001
0010
0001
1000
0000
0010
0000
0001
0000
0010
0000
,
1000
0100
0010
0100
1000
0000
0001
0000
0100
0000
0010
0100
0001
0000
1000
0000
,
0100
0000
0010
0001
0010
0000
0001
0000
0100
0000
0010
0000
1000
0000
0100
0000
,
0010
0100
1000
0100
0010
0000
0100
0000
1000
0000
0001
0000
1000
0000
0010
0000
,
0100
0000
0001
1000
0100
0000
0100
0010
0001
0000
1000
0000
0010
0000
0100
0000
,
0001
0010
0100
0010
0001
0000
1000
0000
0010
0000
0100
0000
0010
0000
1000
0000
,
0100
0000
0010
0001
0010
0000
0010
0100
2000
0000
0000
0000
3001
0000
0100
0000
,
0001
0010
0100
0010
0100
0000
1000
0000
0001
0000
0100
0010
1000
0000
0010
0000
,
0100
0000
0001
0100
0010
1000
0010
0100
0010
0000
0100
0000
0001
0000
0010
0000
,
0001
0100
0010
0100
0001
0000
1000
0000
0100
0000
0010
0100
1000
0000
0001
0000
,
0100
0000
0010
1000
0010
0000
1000
0000
0100
0000
0010
0000
0001
0000
0100
0000
,
0010
0100
0001
0100
0010
0000
1000
0000
0100
0000
0000
0010
0000
0000
0100
0000
,
0000
0000
0001
0000
0000
0100
0000
0000
1000
0000
0000
0001
0000
0000
0100
0000
,
0011
0000
0000
0000
1010
0000
0000
0101
0000
0000
1000
0000
0000
0010
0000
0000
,
0100
0000
0001
0000
0100
0010
0000
0000
1000
0000
0000
0100
0000
0000
0010
0000
,
0010
0100
1000
0100
0010
0000
0001
0000
1000
0000
0000
0010
0000
0000
0100
0000
,
0000
0000
0001
0000
0000
0100
0000
0000
0010
0000
0000
1000
0000
0000
0100
0000
,
1000
0010
0100
0001
0010
0000
0100
0000
1000
0000
0001
0000
0000
0100
0000
0000
,
1000
0000
0010
0000
0000
0100
0000
0000
0001
0000
0000
1000
0000
0000
0110
0000
,
0001
0010
0100
1000
0100
0000
0010
0000
0001
0000
0100
0000
1000
0000
0100
0000
0001
0000
1000
0100
0010
0000
0010
0001
0100
0000
0010
0000
1000
0000
0100
0000
,
0010
0000
0000
0000
0000
0000
0100
0000
0000
0000
0000
0000
1000
0000
0000
0000
0000
0000
0100
0000
0000
0000
0000
0000
0010
0000
0000
0000
0000
0000
0000
0000
0000
0000
0000
0000
0001
0000
0000
0000
0000
0000
0000
0000
0000
0000
0000
0000
0100
0000
0000
0000
0000
0000
0000
0000
0000
0000
0000
0000
0010
0000
0000
0000
0000
0000
0000
0000
0000
0000
0000
0000
0100
0000
0000
0000
0000
0000
0000
0000
0000
0000
0000
0000
0001
0000
0000
0000
0000
0000
0000
0000
0000
0000
0000
0000
1000
0000
0000
0000
0000
0000
0000
0000
0100
0000
0000
0000
0000
0000
0000
0000
0010
0000
0000
0000
0000
0000
0000
0000
0100
0000
0000
0000
0000
0000
0000
0000
1000
0000
0000
0000
0000
0000
0000
0000
0001
0000
0000
0000
0000
0000
0000
0000
0100
0000
0000
0000
0000
0000
0000
0000
0001
0000
0000
0000
0000
0000
0000
0000
0100
0000
0000
0000
0000
0000
0000
0000
0010
0000
0000
0000
0000
0000
0000
0000
0000
0000
0000
0000
1000
0000
0000
0000
0000
0000
0000
0000
0000
0000
0000
0000
,
0001
1000
0100
1000
0001
0000
0100
0000
0010
0000
1000
0100
0010
0000
0001
0000
,
0100
0000
0010
1000
0100
1000
0010
0100
0001
0000
1000
0000
0100
0000
0010
0000
,
0001
0100
0010
0100
0001
0000
1000
0000
0100
0000
1000
0100
1000
0000
0010
0000
,
0100
0000
0001
0010
0001
0000
1000
0000
0100
0000
0010
0000
0100
0000
1000
0000
,
0001
0100
0010
0100
0001
0000
0100
0000
0010
0000
1000
0000
0100
0000
1000
0000
,
0010
0000
0100
0001
0010
0000
0010
0100
1000
0000
0010
0000
0100
0000
0001
0000
,
1000
0100
0010
0100
1000
0000
0100
0000
0001
0000
0100
0000
1000
0000
0010
0000
,
0100
0000
0001
1000
0100
0000
0100
0010
0002
0000
0000
0000
1003
0000
0100
0000
,
0010
0001
0010
0001
0010
0000
0100
0000
1000
0000
0010
0100
0010
0000
1000
0000
,
0100
0000
0010
0001
1000
0100
0010
0100
1000
0000
0001
0000
1000
0000
0010
0000
,
0100
0001
0010
0001
0100
0000
0010
0000
1000
0000
0100
0010
0001
0000
1000
0000
,
0010
0000
0100
0001
0010
0000
0100
0000
1000
0000
0010
0000
0100
0000
0001
0000
,
0102
0M00
0000
0000
0000
0000
0000
0000
0000
0003
0000
0000
;

//---------------dance-single - ----------------
#NOTES:
     dance-single:
     :
     Hard:
     7:
     0.525,0.593,0.167,0.010,0.370,336.000,16.000,1.000,0.000,0.000:
0000
0000
0000
0000
,
1001
0000
0000
0000
1100
0000
0000
0000
0011
0000
0000
0100
0000
0000
1000
0000
,
0011
0000
0000
0000
1010
0000
0000
0000
1010
0000
0000
0001
0000
0000
1000
0000
,
0110
0000
0000
0000
0101
0000
0000
1010
0000
0000
0001
0000
0000
1000
0000
0000
,
0101
0000
0000
0000
1010
0000
0000
0000
0001
0000
0000
1010
0000
0000
0001
0000
,
1000
0000
0000
1000
0100
0000
0010
0000
0001
0000
0000
1000
0010
0000
0000
0000
,
0100
0000
0001
0000
1000
0000
0100
0000
0010
0000
0000
0010
0100
0000
0000
0000
,
1000
0000
0000
0010
0100
0000
0001
0000
1000
0000
0010
0000
0100
0000
0001
0000
,
1000
0000
0100
0000
1000
0000
0100
0000
1000
0000
0001
0000
1000
0000
0001
0000
1000
0000
0100
0000
0000
1000
0000
0000
,
0010
0000
0000
0010
0100
0000
0000
0000
0001
0000
0000
1000
0100
0000
0000
0000
,
0010
0000
0000
0001
0100
0000
0000
0000
0010
0000
0000
1000
0100
0000
0000
0000
,
0010
0000
0000
0001
0010
0000
0000
0000
0100
0000
0000
0010
0100
0000
0000
0000
,
1000
0000
0000
0010
0100
0000
0000
0000
0010
0000
0000
1000
0100
0000
0000
0000
,
0100
1000
0010
0100
0001
1000
0100
0010
,
0001
0000
0000
1000
0100
0000
0000
0000
0001
0000
0000
1000
0100
0000
0000
0000
,
0001
0100
0010
1000
0100
1000
0001
0010
,
0100
0000
0000
0010
0001
0000
0000
0000
0100
0000
0000
0010
1000
0000
0000
0000
,
1000
0000
0100
0000
0010
0000
0001
0000
0100
0000
0000
0010
1000
0000
0000
0000
,
0100
0000
1000
0000
0010
0000
0100
0000
0001
0000
0000
1000
0100
0000
0000
0000
,
0010
0000
0001
0000
0100
0000
0010
0000
0100
0000
0000
0010
1000
0000
0000
0000
,
0100
0000
0010
0000
0001
0000
0100
0000
0010
0000
0000
0100
0001
0000
0000
0000
,
0100
0000
0001
0000
1000
0000
0010
0000
0100
0000
0000
0100
0001
0000
1000
0000
,
0100
0000
0010
0000
0001
0000
1000
0000
0010
0000
0000
0100
0001
0000
0100
0000
,
0010
0000
1000
0000
0100
0000
1000
0000
0010
0000
0000
1000
0100
0000
0010
0000
,
0100
1000
0010
0100
0001
0010
0100
1000
,
0010
0000
0100
0000
0001
0000
0100
0000
0010
0000
0000
1000
0000
0000
0100
0000
,
0000
0000
0010
0000
0000
0001
0000
0000
0100
0000
0000
0010
0000
0000
1000
0000
,
0110
0000
0000
0000
0101
0000
0000
1100
0000
0000
0010
0000
0000
0100
0000
0000
,
0001
0000
0100
0000
0000
0010
0000
0000
1000
0000
0000
0100
0000
0000
0010
0000
,
0001
0000
0000
1000
0100
0000
0010
0000
0100
0000
0000
1000
0000
0000
0010
0000
,
0100
0000
0001
0000
0000
1000
0000
0000
0001
0000
0000
0100
0000
0000
0010
0000
,
0100
0000
0000
0001
0100
0000
0010
0000
1000
0000
0100
0000
0000
0010
0000
0000
,
0100
0000
1000
0000
0000
0010
0000
0000
0100
0000
0000
0001
0000
0000
0100
0000
,
0010
0000
0000
0000
1000
0000
0000
0000
0100
0000
0000
0000
1000
0000
0000
0000
0010
0000
0000
0100
0001
0000
0000
0001
1000
0000
0000
0000
0100
0000
0000
0000
,
0010
0000
0000
0000
0000
0000
0100
0000
0000
0000
0000
0000
1000
0000
0000
0000
0000
0000
0010
0000
0000
0000
0000
0000
0100
0000
0001
0000
0100
0000
0001
0000
0100
0000
0001
0000
1000
0000
0001
0000
1000
0000
0001
0000
0000
1000
0000
0000
,
0100
0000
0000
1000
0001
0000
0010
0000
0100
0000
0000
0001
0100
0000
0010
0000
,
1000
0000
0100
0000
0010
0000
0100
0000
1000
0000
0000
0001
0100
0000
0010
0000
,
1000
0000
0001
0000
0100
0000
0010
0000
1000
0000
0000
0010
1000
0000
0100
0000
,
0010
0000
0001
0000
0100
0000
0010
0000
0100
0000
0000
0001
0100
0000
0001
0000
,
1000
0000
0100
0000
0010
0000
0100
0000
1000
0000
0000
0010
0100
0000
0010
0000
,
1000
0000
0100
0000
1000
0000
0010
0000
0100
0000
0000
0001
0100
0000
0010
0000
,
0100
0000
0001
0000
0010
0000
0100
0000
0010
0000
0000
0100
0010
0000
0001
0000
,
0100
0000
0010
0000
1000
0000
0010
0000
0100
0000
0000
0001
0010
0000
0100
0000
,
1000
0000
0010
0000
0100
0000
0010
0000
1000
0000
0000
0100
0010
0000
0001
0000
,
0100
0000
0010
0000
1000
0000
0100
0000
1000
0000
0000
0001
0100
0000
0010
0000
,
1000
0000
0100
0000
1000
0000
0100
0000
0010
0000
0000
0001
0010
0000
0100
0000
,
1000
0000
0010
0000
0100
0000
0001
0000
1000
0000
0000
0100
0010
0000
0001
0000
,
0012
0000
0003
0000
;

//---------------dance-single - Blank----------------
#NOTES:
     dance-single:
     Blank:
     Medium:
     4:
     0.379,0.465,0.437,0.000,0.010,213.000,42.000,0.000,0.000,0.000:
0000
0000
0000
0000
,
1001
0010
0100
0010
,
1001
0100
0010
0100
,
1001
0100
1000
0100
,
1100
0001
0100
0001
,
1000
0010
1000
0000
0100
0000
0110
0000
,
1000
0010
0100
1010
,
1000
0100
1000
0000
0010
0000
0101
0000
,
1010
1010
1010
1010
,
1000
0010
1000
0000
0100
0000
0010
0000
,
0010
0100
1000
0100
,
0010
0100
0010
0000
1000
0000
0100
0000
,
0100
1000
0010
0100
,
0001
1000
0001
0000
0100
0000
0010
0000
,
1000
0100
0010
0100
,
1000
0010
0100
0000
0001
0000
1000
0000
,
0100
0010
0100
1000
,
0010
0100
0010
0000
1000
0000
0001
0000
,
1000
0010
0100
0001
,
1000
0001
0100
0000
0010
0000
1000
0000
,
0100
0100
0010
0001
,
0100
0010
1000
0000
0100
0000
0010
0000
,
0100
0010
0001
1000
,
0010
0100
0001
1000
,
0010
0100
0001
1000
,
0100
1000
0100
0000
0011
0000
0011
0000
,
1100
1100
0101
0101
,
1010
1010
0110
0110
,
1100
1100
0011
0011
,
1000
0010
0100
0000
1010
0000
1010
0000
,
0101
0101
0011
0011
,
1000
0001
0100
0000
1010
0000
1010
0000
,
1100
1100
0011
0011
,
1000
0100
1000
0000
0001
0000
0100
0000
0010
0000
1000
0000
0100
0000
0010
0000
,
0001
1000
0001
0000
0100
0000
0001
0000
0011
0000
0011
0000
0011
0000
0011
0000
,
1000
0010
1000
0000
0100
0000
0010
0000
,
0010
0100
1000
0100
,
0010
0100
0010
0000
1000
0000
0100
0000
,
0100
1000
0010
0100
,
0001
1000
0001
0000
0100
0000
0010
0000
,
1000
0100
0010
0100
,
1000
0010
0100
0000
0001
0000
1000
0000
,
0100
0010
0100
1000
,
0010
0100
0010
0000
1000
0000
0001
0000
,
1000
0010
0100
0001
,
1000
0001
0100
0000
0010
0000
1000
0000
,
0100
0100
0010
0001
,
0110
0000
0000
0000
;

//---------------dance-single - Blank----------------
#NOTES:
     dance-single:
     Blank:
     Easy:
     2:
     0.183,0.294,0.156,0.000,0.000,108.000,15.000,0.000,0.000,0.000:
0000
0000
0000
0000
,
1000
0000
0001
0000
,
0100
0000
0010
0000
,
1000
0000
0100
0000
,
0001
0000
0100
0000
,
0010
1000
0000
1100
,
0000
0000
0000
1001
,
0010
1000
0000
1100
,
1001
0000
0000
0000
,
1001
0000
0100
0000
,
0010
0000
1000
0000
,
0100
0001
0100
0000
,
0100
0010
1000
0000
,
0001
0000
1000
0000
,
0010
0000
1000
0000
,
0100
0000
0010
0000
,
0100
0000
1000
0000
,
0010
1000
0010
0000
,
0100
0001
0100
0000
,
0010
0100
0010
0000
,
1000
0100
1000
0000
,
0001
0000
0100
0000
,
0010
0000
1000
0000
,
0100
0000
0010
0000
,
0001
0000
0100
0000
,
0010
0100
0010
0000
,
1000
0000
0010
0000
,
1000
0000
0010
0000
,
0001
0000
0100
0000
,
1000
0100
1000
0000
,
0010
0000
0100
0000
,
0001
0010
0001
0000
,
0100
0000
0010
0000
,
1010
0011
0110
1100
,
0011
1010
0110
1001
,
1100
0000
0001
0000
,
1000
0000
0010
0000
,
0100
0000
0001
0000
,
1000
0000
0100
0000
,
0010
0000
0001
0000
,
1000
0000
0100
0000
,
0010
0001
0100
0000
,
1000
0000
0100
0000
,
1000
0010
1000
0000
,
0100
0000
0001
0000
,
1000
0000
0100
0000
,
1000
0000
0010
0000
,
1010
0000
0000
0000
;
