#TITLE:Clockwork Genesis;
#SUBTITLE:;
#ARTIST:Inspector K;
#TITLETRANSLIT:;
#SUBTITLETRANSLIT:;
#ARTISTTRANSLIT:;
#CREDIT:;
#BANNER:banner.png;
#BACKGROUND:bg.png;
#LYRICSPATH:;
#CDTITLE:;
#MUSIC:Clockwork Genesis.mp3;
#OFFSET:-0.060;
#SAMPLESTART:32.373;
#SAMPLELENGTH:16.540;
#SELECTABLE:YES;
#BPMS:0.000=175.000;
#STOPS:160.000=0.920
,173.000=1.120
,234.000=1.040
;
#BGCHANGES:;
// cache tags:
#FIRSTBEAT:16.000;
#LASTBEAT:301.500;
#SONGFILENAME:Songs/juju steps/Clockwork Genesis/clockwork genesis.sm;
#HASMUSIC:1;
#HASBANNER:1;
#MUSICLENGTH:108.277;
// end cache tags

//---------------dance-single - ----------------
#NOTES:
     dance-single:
     :
     Challenge:
     11:
     0.855,0.905,0.628,0.499,0.799,526.000,68.000,54.000,50.000,0.000:
0000
0000
0000
0000
,
0000
0000
0000
0000
,
0000
0000
0000
0000
,
0000
0000
0000
0000
,
2001
0000
0000
0000
0000
0000
0000
0000
010M
0000
0000
0000
3000
0000
0000
0000
0000
0000
0010
0000
0000
0000
0000
0000
0000
0000
0000
0000
0000
0000
0100
0000
0000
0000
0000
0000
0000
0000
0000
0000
0000
0000
0010
0000
0000
0001
0000
0000
,
0100
0000
0010
0000
0100
0000
0010
0000
0001
0000
0010
0000
0100
0010
1000
0000
,
0100
0000
0000
0000
0010
0000
0000
0000
0000
1000
0000
0000
0000
0000
0000
0010
0000
0000
0000
0000
0000
2002
0000
0000
,
0000
0000
3003
0000
0100
0000
0000
0001
0000
0100
0000
0000
0010
0000
0000
0000
,
0001
0000
0010
1000
0000
0100
0000
0001
,
0000
0000
0100
1000
0010
0000
0100
0000
0000
0010
1000
0000
1000
0001
0100
0000
,
0100
0000
0010
0001
0000
0010
0000
1000
,
2010
0000
0000
0000
00M0
0000
0000
0000
3010
0100
0001
0000
0001
0100
0010
0000
,
2001
0000
301M
1020
0000
M130
0000
0102
,
0000
0000
1M03
0010
0100
0000
0100
0000
0010
0100
0000
0000
0001
1000
0100
0000
,
1200
0000
M310
2001
0000
301M
0000
1020
,
1000
2030
3000
0000
M00M
0000
0000
0000
,
2100
0000
3M01
0201
0000
031M
0000
2100
,
0000
0000
3M10
1000
0001
0000
0001
0000
1000
0100
0000
0000
0100
1000
0001
0000
,
1002
0000
0000
0000
M103
0000
0210
0000
0000
0000
03M1
1000
0010
0000
0202
0000
,
0000
0303
0010
1000
0100
0010
0100
1000
0001
0100
0010
1000
0000
0000
0000
0000
,
1100
0100
1000
0000
0000
0000
0001
0100
0010
0000
0000
0000
1020
0000
1030
0000
,
0001
0000
0010
0001
0000
0001
0100
0000
0010
0000
0010
1000
0000
0000
1000
0000
,
0000
0000
0100
0000
0000
0001
0000
0000
0100
0000
0100
1000
0000
1000
0001
0000
,
1001
0000
0100
0010
0000
0010
1000
0000
0001
0000
0100
0001
0000
0001
1000
0000
,
0000
0000
0010
0000
0100
0000
0010
1000
0001
0000
0100
0010
0000
0010
1000
0000
,
1001
0000
1000
0001
0000
1000
0000
1000
0100
0000
0000
0010
0000
0000
1000
0000
,
0000
0000
0010
0000
0001
0000
0100
0000
0010
0000
0010
0100
0000
0100
0001
0010
,
0100
0000
0100
1000
0000
0000
0010
0000
0000
0000
1000
0000
0010
0100
0001
0000
,
0000
0000
0010
0000
0100
0000
0010
0100
1000
0000
0001
0100
0000
0100
0001
0000
,
1010
0000
1000
0100
0000
1000
0001
0000
0010
0000
0010
0001
0000
0001
0100
0000
,
0000
0000
0010
0000
0000
0100
0000
0000
1000
0000
1000
0100
0000
0100
0001
0000
,
1001
0000
0001
0010
0000
0010
0100
0000
1000
0000
0010
1000
0000
0010
0100
0000
,
0000
0000
0010
0000
0100
0000
0010
0100
0001
0000
0100
0010
0000
0010
1000
0000
,
2001
0000
0100
310M
0000
1000
0000
0000
0100
0000
0000
0001
0000
0000
0100
0000
,
0000
0000
0010
0000
0001
0000
0100
0000
1000
0000
1000
0100
0000
0010
0100
0001
,
1000
0100
0010
0001
0000
0000
1000
0000
0000
0000
1000
0000
1000
0001
0100
0000
,
1001
0000
0010
0000
1000
0000
1100
0000
0010
0000
0010
0001
0000
0100
0010
0000
,
2010
0000
0000
0000
30M0
0000
0000
0020
MM0M
0000
2M0M
0000
3030
0000
1000
0100
,
1200
0000
0000
M000
0000
0000
0010
0000
0300
0000
0000
0000
0M00
0000
0010
0001
,
0010
0000
0000
01M1
0000
0000
2100
0000
0000
0000
0000
0000
0M01
0002
3000
0100
,
0203
M3MM
0010
0000
0010
0000
0000
0000
0000
0000
0000
1000
0001
0000
0011
0000
,
0000
0000
1010
0000
2200
0000
0000
0000
3300
0000
0011
0000
0000
00MM
0000
0000
,
0000
0000
1000
0001
0100
0000
0000
0010
0000
0000
M1MM
0000
0000
0000
0000
0000
,
MM10
1000
0000
0002
0100
0M03
1000
0001
0010
0000
1000
0000
0010
0000
0001
0100
,
0000
0010
0000
0001
0000
0000
0010
0100
0001
0000
0001
0000
0010
0000
0010
0100
,
0000
0100
0000
0001
0100
0000
0010
0001
0100
0000
0010
0000
0001
0000
0010
0020
,
0000
0000
M030
0000
0100
0000
0000
0000
2010
0000
0000
0000
0000
0000
31M0
2000
,
0000
0001
0000
3001
1000
0000
0010
0000
1001
0000
0010
0000
0100
0000
0010
0100
,
0000
0001
0000
0010
0000
0000
0100
0000
0010
0000
0001
0000
0100
0000
0100
0010
,
0000
0010
0000
0010
0100
0000
0100
0001
0010
0000
0010
0000
0100
0000
0100
1000
,
0000
0010
0000
M101
0000
0000
0001
0000
MM22
0000
0000
0000
0030
0000
0000
0000
,
10M3
0100
0010
0000
0010
0001
0100
0000
202M
0000
0000
0000
3030
0000
1001
0000
,
0000
0000
0110
0000
0000
0000
0001
0100
0202
0000
0303
0000
0000
0000
0101
0000
,
0000
0000
1010
0000
0000
0000
1000
0100
2200
0000
0000
0000
3300
0000
1010
0000
,
0000
0000
0101
0000
0000
0000
1000
0100
1100
0000
2000
0000
0100
0000
3002
0200
,
0003
0302
2000
0003
0001
3000
1000
0000
1001
0000
0000
0000
0000
0000
0110
0000
,
0000
0000
0021
0000
0000
0000
013M
0010
0110
0000
0000
0000
0000
0000
0011
0000
,
0000
0000
2100
0000
0000
0000
3M10
1000
1010
0000
0000
0000
0000
0000
1100
0000
,
0000
0000
1001
0000
0000
0000
0001
1000
2MM1
300M
0000
0000
1000
0000
1000
0100
,
0000
0100
0010
0000
0010
0000
0010
0001
0000
0001
0100
0000
0000
0000
1000
0000
,
0000
0100
0000
0000
0001
0000
0001
1000
0000
1000
0100
0000
1001
0000
0001
0100
,
0000
0100
0010
0000
0001
0000
0010
1000
0000
1000
0100
0000
0000
0000
0010
0000
,
0100
0000
0100
0010
0001
0000
0001
0100
0000
0100
0010
0000
1002
0000
0000
M103
,
0000
0010
0000
0000
0001
0000
0000
0010
0000
0000
1000
0000
0000
0000
0100
0000
,
0001
0000
0100
0000
1000
0000
1000
0010
0000
0010
0100
0001
0010
0100
1000
0010
,
0000
0000
0100
0000
0000
0000
0010
0000
1000
0100
1100
0000
0000
0000
1000
0000
,
0100
0000
0001
0000
0100
0000
0100
1000
0000
1000
0100
0000
1010
0000
0010
0100
,
0000
1000
0001
0000
0001
0000
0001
0010
0000
0100
1000
0000
0000
0000
0010
0000
,
0000
0001
0000
0000
0010
0000
1000
0100
0000
1000
0010
0000
1001
0000
0001
0100
,
0000
0100
0010
0000
0010
0000
1000
0100
0000
0100
1000
0000
0000
0000
1000
0000
,
0010
0000
0010
0100
0001
0000
0001
1000
0000
0001
0100
0000
1002
0000
0000
M103
,
0000
0010
0000
0000
0100
0000
0000
1000
0000
0000
0100
0000
0000
0000
0001
0000
,
0010
0000
1000
0000
0010
0000
0100
0010
0000
0010
0001
0100
0010
0000
0010
0100
,
0000
0000
2001
0000
3000
0000
1001
0000
0001
0010
1001
0000
0011
0000
0100
0000
,
0001
0000
1010
0000
0010
0000
0010
0100
0000
0100
0001
0000
2002
0000
0000
0000
,
0000
0000
0000
3003
0000
0000
0000
0000
;
