#TITLE:Yatta!;
#SUBTITLE:;
#ARTIST:Happatai;
#TITLETRANSLIT:Yatta!;
#SUBTITLETRANSLIT:;
#ARTISTTRANSLIT:Happatai;
#CREDIT:Hawk;
#BANNER:yatta1.png;
#BACKGROUND:Yatta-BG.jpg;
#LYRICSPATH:Yatta.lrc;
#CDTITLE:Hawkcd.png;
#MUSIC:Happatai - Yatta (short).mp3;
#OFFSET:-2.870;
#SAMPLESTART:34.980;
#SAMPLELENGTH:12.000;
#SELECTABLE:YES;
#BPMS:0.000=132.972;
#STOPS:;
#BGCHANGES:0.000=Yatta! (short).avi=1.000=0=0=1,
99999=-nosongbg-=1.000=0=0=0 // don't automatically add -songbackground-
;
// cache tags:
#FIRSTBEAT:0.000;
#LASTBEAT:272.000;
#SONGFILENAME:Songs/mongol/Yatta!/yatta.sm;
#HASMUSIC:1;
#HASBANNER:1;
#MUSICLENGTH:128.318;
// end cache tags

//---------------dance-single - ----------------
#NOTES:
     dance-single:
     :
     Easy:
     3:
     0.200,0.238,0.047,0.086,0.000,163.000,6.000,11.000,0.000,0.000:
0001
0000
0000
0000
,
0010
0000
0000
0000
,
1000
0001
1000
0001
,
0100
0000
0000
0000
,
2000
0000
0000
3000
,
0002
0000
0000
0003
,
0200
0000
0000
0300
,
0020
0000
0000
0030
,
1000
0000
0100
0000
,
0010
0000
0001
0000
,
1000
0000
0001
0000
,
0100
0100
0000
1000
,
0000
0001
0000
0010
,
0000
0100
0000
1000
,
0000
1000
0000
0100
,
1000
1000
1000
1000
,
0001
0001
0001
0001
,
0000
0000
0000
1001
,
1000
1000
0001
0001
,
1000
1000
0001
0001
,
1000
1000
0001
0001
,
1000
1000
0001
0001
,
1000
0000
0100
0000
,
0001
0000
0001
0000
,
1000
0000
0010
0000
,
0100
0000
0001
0000
,
1000
1000
0001
0001
,
1000
1000
0001
0001
,
1000
1000
0001
0001
,
1000
1000
0001
0001
,
0010
0000
1000
0000
,
0001
0000
0100
0000
,
1000
0000
0001
0000
,
2000
0000
0000
3000
,
0001
0000
0010
0000
,
1000
0000
0100
0000
,
1001
0000
0010
0000
,
0001
0000
0100
0000
,
0010
0000
1000
0000
,
0100
0000
1001
0000
,
0010
0001
0100
0000
,
1000
1000
1000
1000
,
0001
0001
0001
0001
,
0000
0000
0000
0000
,
1000
1000
0001
0001
,
1000
1000
0001
0001
,
1000
1000
0001
0001
,
1000
1000
0001
0001
,
1000
0000
0010
0000
,
0002
0000
0000
0003
,
1000
0000
0001
0000
,
0110
0000
0000
0000
,
1000
1000
0001
0001
,
1000
1000
0001
0001
,
1000
1000
0001
0001
,
1000
1000
0001
0001
,
0000
1000
0000
0100
,
0000
0010
0000
0001
,
0000
1000
0000
0100
,
0000
1001
0000
0000
0000
0000
0000
0000
,
1000
0000
0000
0000
,
0001
0000
0000
0000
,
0100
0001
0100
0001
,
0010
0000
0000
0000
,
2000
0000
0000
3000
,
0020
0000
0000
0030
,
0002
0003
0002
0003
,
0200
0000
0000
0300
,
1001
0000
0000
0000
;

//---------------dance-single - Standard----------------
#NOTES:
     dance-single:
     Standard:
     Medium:
     5:
     0.374,0.397,0.242,0.132,0.000,288.000,31.000,17.000,0.000,0.000:
0001
0001
0001
0001
,
0010
0000
0010
0000
0010
0000
0010
1000
,
1000
0001
1000
0001
,
0100
0100
0100
0100
,
2001
0001
0001
3001
,
1002
1000
1000
1003
,
0210
0010
0010
0310
,
0120
0100
0100
0130
,
0001
1000
0010
0100
,
0001
0001
1000
1000
,
0010
0100
0001
1000
,
0001
1000
0001
1000
,
0010
0100
0010
0100
,
0010
1000
0010
1000
,
0001
0000
0100
0000
0001
0010
0100
0000
,
1001
1001
1001
1001
,
0110
0110
0110
0110
,
0000
0000
0000
1001
,
1000
1000
0001
0001
,
1000
1000
0001
0001
,
1000
1000
0001
0001
,
1000
1000
0001
0001
,
0010
0000
0001
0000
1000
0000
0100
1000
,
0010
0000
1000
0000
0100
0010
0001
0000
,
0000
0010
0010
0010
0100
0000
0100
0000
,
1001
0010
1001
0100
,
1000
1000
0001
0001
,
1000
1000
0001
0001
,
1000
1000
0001
0001
,
1000
1000
0001
0001
,
0000
0002
0000
1003
1000
0000
0100
0000
,
0001
0010
0000
1000
0000
0000
0010
0000
,
0100
0010
0001
0010
,
2001
0001
0001
3001
,
0002
0000
0010
0010
,
1000
1000
0100
0103
,
1001
0000
2000
0000
0010
0000
0010
0100
,
0001
0001
0100
3100
,
0100
0000
0010
0000
0100
0100
0010
1000
,
1000
0001
0001
1000
2000
0000
0001
0000
,
3010
1010
0101
0101
,
1000
0010
0001
0100
,
1001
1001
1001
1001
,
0020
0000
0000
0030
,
0100
1000
0001
0000
0010
0001
1000
0000
,
0100
0010
0001
0000
1000
0100
0010
0000
,
0100
1000
0100
0000
0010
0001
0010
0000
,
1000
0010
0100
0000
0001
0010
0100
0000
,
0001
0100
0010
1000
,
0002
0010
0010
1000
,
0013
1000
0001
1000
,
0110
0000
0010
0010
,
1000
0001
1000
0000
0001
0010
0001
0000
,
1000
0100
1000
0000
0001
1000
0001
0000
,
0100
0010
0001
0000
0010
1000
0100
0000
,
0001
1000
0010
0000
1000
0010
0100
0000
,
1000
0001
0100
0010
,
0100
0100
0000
0002
0000
0000
0000
0003
,
1000
1000
0100
0100
,
0000
2002
0000
0000
0000
3003
0000
0000
,
1000
1000
1000
1000
,
0001
0000
0001
0000
0001
0000
0001
0100
,
0100
0001
0100
0001
,
0010
0010
0010
0010
,
2000
0001
0010
3001
,
0020
1000
0100
1030
,
0002
1000
0010
1003
,
0110
0110
0110
0110
,
1001
0000
0000
0000
;

//---------------dance-single - Heavy----------------
#NOTES:
     dance-single:
     Heavy:
     Hard:
     7:
     0.500,0.477,0.623,0.249,0.000,337.000,80.000,32.000,0.000,0.000:
0001
0001
0001
0001
,
0010
0000
0010
0000
0010
0000
0010
1000
,
1000
0010
1000
0000
0001
0010
0001
0000
,
0100
0100
0100
0100
,
2001
0000
0001
0000
0001
0010
3001
0000
,
1002
0000
1000
0000
1000
0100
1003
0000
,
0210
0000
0001
0000
0010
0001
0310
0000
,
0120
0100
0100
0130
,
1001
0000
2000
0000
0010
0001
3100
0000
,
0001
0000
0002
0100
1000
0100
1003
0000
,
0010
0000
0100
0100
0001
0000
1000
1000
,
0001
1000
0001
1000
0010
1000
1001
0000
,
0010
0001
0100
0001
0010
1000
0100
1000
,
0010
0000
1000
0001
0010
0000
1000
0100
,
0001
0000
0100
0010
0001
0000
0100
0000
,
1001
1001
1001
1001
,
0110
0110
0110
0110
,
0000
0000
0000
1001
,
1002
1003
2001
3001
,
1002
1003
2001
3001
,
1002
1003
2001
3001
,
1002
1003
2001
3001
,
0010
0001
1001
0000
0100
1000
1001
0000
,
0010
0010
1000
0010
0100
0001
1001
0000
,
0010
1000
0010
0001
0100
1000
0100
0000
,
1001
1010
1001
0101
,
1100
1100
0011
0011
,
1100
1100
0011
0011
,
1010
1100
0011
0101
,
1010
1100
0011
0101
,
0000
0001
0000
0001
1000
1000
0100
0001
,
0010
0100
0000
2000
0000
0000
0010
3000
,
0100
0020
0000
0031
0010
0001
0010
0000
,
2001
0001
0001
3001
,
0002
0000
0000
0000
0010
0003
0010
0000
,
1000
0100
1000
0010
0100
0001
0100
0000
,
1001
0000
2000
0000
0010
3000
0010
1000
,
0001
0000
0001
0010
0100
1000
0100
0000
,
0100
1000
1010
0000
0100
0001
0101
0000
,
1000
0010
0001
0010
1000
0010
0001
0010
,
1010
1010
0101
0101
,
1100
0011
1001
0110
,
1001
1001
1001
1001
,
0002
0000
0000
0003
,
1000
0001
1000
0010
0001
1000
0001
0010
,
1000
0001
1000
0100
0001
1000
0001
0000
,
1100
1100
1010
1010
,
0101
0101
0011
0011
,
0000
1001
0000
0010
0001
0010
1000
0010
,
0002
0000
0010
0000
0010
0000
1000
0100
,
0013
1000
0000
0100
0100
0000
1000
0100
,
0220
0000
0000
0330
,
1000
0010
1000
0000
0001
0100
0001
0000
,
1000
0001
1000
0000
0001
1000
0001
0000
,
1000
0010
1000
0000
0001
0010
0001
0000
,
1000
0100
1000
0000
0001
0010
0001
0000
,
0000
2000
0000
3100
0100
0001
0010
0000
,
0100
0100
0000
0002
0000
0000
0000
0003
,
0000
2000
0000
3100
0100
0100
0100
0000
,
0000
2002
0000
0000
0000
0000
3003
0000
,
1020
1000
1000
1030
,
0201
0000
0001
0000
0001
0000
0301
0100
,
0100
0010
1000
0010
0100
1000
0001
1000
,
0010
0010
0010
0010
,
2000
0000
0001
0001
0010
0000
3001
0000
,
0020
0000
1000
1000
0100
0000
1030
0000
,
0100
0001
1000
0001
0010
0001
0010
0001
,
0110
0110
0110
0110
,
1001
0000
0000
0000
;

//---------------dance-single - Copied from----------------
#NOTES:
     dance-single:
     Copied from:
     Beginner:
     1:
     0.097,0.132,0.008,0.000,0.000,86.000,1.000,0.000,0.000,0.000:
0001
0000
0000
0000
,
0010
0000
0000
0000
,
1000
0000
1000
0000
,
0100
0000
0000
0000
,
1000
0000
0000
0000
,
0001
0000
0000
0000
,
0100
0000
0100
0000
,
0010
0000
0000
0000
,
1000
0000
0000
0000
,
0010
0000
0000
0000
,
1000
0000
0000
0000
,
0100
0000
0000
0000
,
1000
0000
0000
0000
,
0010
0000
0000
0000
,
0001
0000
0000
0000
,
1000
0000
0000
0000
,
0001
0000
0000
0000
,
0000
0000
0000
0000
,
1000
0000
0001
0000
,
1000
0000
0001
0000
,
1000
0000
0001
0000
,
1000
0000
0001
0000
,
0100
0000
0000
0000
,
0010
0000
0000
0000
,
0001
0000
0000
0000
,
1000
0000
0000
0000
,
1000
0000
0001
0000
,
1000
0000
0001
0000
,
1000
0000
0001
0000
,
1000
0000
0001
0000
,
0010
0000
0000
0000
,
0100
0000
0000
0000
,
1000
0000
0000
0000
,
0001
0000
0000
0000
,
0100
0000
0000
0000
,
1000
0000
0000
0000
,
0001
0000
0000
0000
,
0100
0000
0000
0000
,
0010
0000
0000
0000
,
0001
0000
0000
0000
,
1000
0000
0000
0000
,
1000
0000
0000
0000
,
0001
0000
0000
0000
,
0000
0000
0000
0000
,
1000
0000
0001
0000
,
1000
0000
0001
0000
,
1000
0000
0001
0000
,
1000
0000
0001
0000
,
0100
0000
0000
0000
,
0001
0000
0000
0000
,
1000
0000
0000
0000
,
0100
0000
0000
0000
,
1000
0000
0001
0000
,
1000
0000
0001
0000
,
1000
0000
0001
0000
,
1000
0000
0001
0000
,
0010
0000
0000
0000
,
0100
0000
0000
0000
,
1000
0000
0000
0000
,
0000
0000
0000
0000
,
1000
0000
0000
0000
,
0001
0000
0000
0000
,
0100
0000
0100
0000
,
0010
0000
0000
0000
,
1000
0000
0000
0000
,
0010
0000
0000
0000
,
0001
0000
0001
0000
,
0100
0000
0000
0000
,
1001
0000
0000
0000
;
