#TITLE:Eight;
#SUBTITLE:;
#ARTIST:Emotional Joystick;
#TITLETRANSLIT:;
#SUBTITLETRANSLIT:;
#ARTISTTRANSLIT:;
#CREDIT:;
#BANNER:eight-bn.png;
#BACKGROUND:eight-bg.png;
#LYRICSPATH:;
#CDTITLE:!cd-title.png;
#MUSIC:Eight.mp3;
#OFFSET:-0.412;
#SAMPLESTART:52.309;
#SAMPLELENGTH:12.000;
#SELECTABLE:YES;
#BPMS:0.000=92.500,96.000=185.000,128.000=92.500,132.000=185.000,140.000=92.500,148.000=185.000,244.000=92.500,248.000=185.000,272.000=92.500,288.000=185.000,368.000=92.500,370.000=185.000,382.000=92.499;
#STOPS:;
#BGCHANGES:;
// cache tags:
#FIRSTBEAT:0.000;
#LASTBEAT:429.750;
#SONGFILENAME:Songs/Ace Megapack/Eight/Eight.sm;
#HASMUSIC:1;
#HASBANNER:1;
#MUSICLENGTH:199.862;
// end cache tags

//---------------dance-single - ----------------
#NOTES:
     dance-single:
     :
     Hard:
     13:
     1.000,1.000,1.000,0.495,0.680,1034.000,487.000,99.000,0.000,13.000:
1100
1100
1100
1100
1100
1100
1010
0101
,
0110
0110
0110
0110
0110
0110
1010
0110
,
0101
0101
0101
0101
0101
1010
1100
1001
,
0011
0011
0011
0101
0101
0110
1010
1100
,
1001
1001
1001
1001
1001
1001
1100
1010
,
0101
0101
0101
0101
0101
0101
1001
1100
,
1010
1010
1010
1010
1010
1100
1010
0101
,
0011
0011
0011
0110
0110
1100
0110
0011
,
0001
0010
1100
0010
0100
1010
0101
0110
,
1001
0100
0010
1100
0010
0110
0001
1100
,
0011
0000
1001
0000
1001
0000
1001
0000
0011
0000
0000
0011
0000
0000
1100
0000
,
0101
0101
0101
0101
0110
0110
1100
1100
,
1010
0001
1100
0010
0100
1001
1010
1100
,
0101
0010
1000
0101
0010
1100
0010
0101
,
1001
1001
1001
1001
1001
0101
0011
0110
,
1010
1010
1010
0110
0110
0011
0011
0110
,
2100
0100
0100
0100
0100
0100
3102
1203
,
0312
1000
1000
2013
0010
0010
3102
1000
,
2103
0100
0100
0100
0100
3012
0123
1230
,
1302
1000
1000
0213
0010
0010
0010
0010
,
1301
0000
0000
0000
0010
0000
0001
0000
1100
0000
0010
0000
0100
0000
0001
1000
0001
0000
1010
0000
0100
0000
0001
0000
1100
0000
0000
0000
0011
0000
0000
0000
,
1001
0000
0100
0000
0010
0000
0100
0000
1010
0000
0100
0000
0010
0000
0001
0010
0001
0000
1010
0000
0100
0000
0001
0000
0110
0000
0000
0000
1001
0000
0000
0000
,
1010
0000
0100
0000
0001
0000
0100
0000
1100
0000
0010
0000
1000
0000
0001
1000
0001
0000
1010
0000
0100
0000
0001
0000
1100
0000
0000
0000
0110
0000
0000
0000
,
1001
0001
1000
0001
1100
0010
0100
2000
0000
3002
0010
0013
0100
0000
1010
0000
,
1001
0000
0000
0010
0100
0000
0000
0010
1000
0000
0000
0001
0001
0010
0100
1000
,
0100
0000
0001
0000
1010
0000
0100
0000
1001
0000
0010
0000
0100
1000
0100
0010
,
0001
0000
0000
0001
0010
0000
0000
0000
1100
0000
0110
0110
0110
0000
0000
0000
,
1010
0000
1000
0000
0011
0000
1000
0000
0011
0000
1000
0000
0100
0010
0001
0010
,
0100
0000
0000
0001
1000
0000
0000
0010
0100
0000
0000
1000
0100
0010
0100
1000
,
0100
0000
0001
0000
0110
0000
1000
0000
0110
0000
0001
0000
0000
0100
0010
0100
,
0010
0000
0000
0001
0100
0000
0000
0000
1000
1000
0001
0010
0001
0000
0000
0000
,
1010
0000
0100
0000
1010
0000
0100
0000
1010
0000
0100
0000
1000
0010
0100
0010
,
1000
0000
0000
0000
0010
0000
0000
0000
1100
0000
0010
0000
0100
0000
0001
0100
0001
0000
1100
0000
0010
0000
0100
0000
1001
0000
0000
0000
0110
0000
0000
0000
,
1100
0000
0001
0001
0001
0000
0000
0001
0010
0100
0010
0001
1000
0000
0000
0000
,
0101
0000
0010
0000
1100
0000
0001
0000
0110
0000
1000
0000
0001
1000
0001
1000
,
0001
0000
0000
0000
1000
0000
0100
0000
0010
0000
0000
0000
1100
0000
0000
0000
0110
0000
0010
0000
0110
0000
0100
0000
0110
0000
0010
0000
1000
0010
0100
0001
,
1000
0000
0000
0000
0000
0000
0000
0000
0000
0000
0000
0000
0000
0000
0000
0000
0000
0000
0100
0000
0000
0000
0000
0000
0001
0000
0000
0000
0000
0000
0000
0000
0000
0000
0000
0000
0000
0000
0000
0000
0000
0000
0010
0000
0000
0000
0000
0000
1000
0000
0000
0000
0000
0000
0001
0000
0000
0000
0000
0000
0100
0000
0000
0000
0000
0000
0010
0000
0000
0000
0000
0000
1000
0000
0000
0000
0000
0000
0000
0000
0000
0000
0000
0000
0000
0000
0000
0000
0000
0000
0000
0000
0000
0000
0000
0000
1000
0000
0000
0000
0001
0000
0000
0000
1000
0000
0000
0000
0001
0000
0000
0000
1000
0000
0000
0000
0001
0000
0000
0000
1000
0000
0000
0000
0001
0000
0000
0000
1000
0000
0000
0000
0001
0000
0000
0000
1000
0000
0000
0000
0001
0000
0000
0000
1000
0000
0000
0000
0001
0000
0000
0000
1000
0000
0000
0000
0001
0000
0000
0000
1000
0000
0000
0000
0001
0000
0000
0000
1000
0000
0000
0000
0001
0000
0000
0000
1000
0000
0000
0000
0001
0000
0000
0000
1000
0000
0000
0000
0001
0000
0000
0000
,
1000
0000
0010
0000
1100
0000
0001
0000
1010
0000
1100
0000
0010
0100
1001
0000
,
1100
0000
0000
0000
0001
0000
1000
0000
0001
0000
0010
0000
0100
0000
0010
0000
1001
0000
0000
0000
0100
0000
0000
0000
0010
0000
0000
0000
1000
0100
0010
0001
,
1000
0000
1100
0000
0101
0000
0101
0000
0101
0000
0000
1000
0010
0100
0010
0000
,
1100
0000
0000
0001
0010
0100
1000
0000
0101
0000
0110
0000
1010
0000
0100
0001
,
1100
0000
0000
0000
0011
0000
0000
1000
0010
0100
0010
0000
2002
0000
3003
0000
,
1010
0000
1100
0000
1001
0000
0001
0000
0010
0100
0010
0100
1010
0000
0110
0000
,
1001
0000
0000
0000
0110
0000
0000
0001
0010
0100
1000
0000
0101
0000
0000
0000
,
1100
0000
0001
0010
0100
1000
0001
0000
1010
0000
0000
0000
1100
0000
0000
0000
1001
0000
0000
0000
1010
0000
0000
0000
1100
0000
0000
0000
1100
0000
0000
0000
,
1100
0010
0010
0010
1100
0000
1001
0010
,
1100
0000
0000
0000
1001
0000
0000
0000
0100
0010
1000
0000
0101
0101
0101
0101
,
0110
0000
0000
0000
0110
0000
0110
0000
0110
0000
0000
1000
0100
0000
0010
0010
,
0100
0000
2000
3000
0011
0000
0011
0000
0101
0000
1000
0010
1001
0000
1100
1100
,
1100
0000
0000
0000
0101
0000
0010
0000
0000
0000
1100
0000
0010
0001
0010
0000
,
1100
0000
0001
0000
1000
0010
0000
0000
1100
0000
0000
0000
0101
0000
0000
0000
,
1100
0000
0011
0000
1010
0100
1001
1001
,
0110
0000
0000
0000
0000
0000
0000
0000
0000
0000
0000
0000
0000
0000
0000
0000
0000
0000
0000
0000
0000
0000
0000
0000
1000
0000
0000
0000
0000
0000
0000
0000
0000
0000
0000
0000
0001
0000
0000
0000
0000
0000
0000
0000
0000
0000
0000
0000
0100
0000
0000
0000
0000
0000
0000
0000
0000
0000
0000
0000
0100
0000
0000
0000
0000
0000
0000
0000
0000
0000
0000
0000
0000
0000
0000
0000
0000
0000
0000
0000
0100
0000
0000
0000
0000
0000
0000
0000
0000
0000
0000
0000
0000
0000
0000
0000
0100
0000
0000
0000
0000
0000
0000
0000
0000
0000
0000
0000
0000
0000
0000
0000
0100
0000
0000
0000
0000
0000
0000
0000
0000
0000
0000
0000
0000
0000
0000
0000
0100
0000
0000
0000
0000
0000
0000
0000
0000
0000
0000
0000
0000
0000
0000
0000
0000
0000
0000
0000
0000
0000
0000
0000
0000
0000
0000
0000
0001
0000
0000
0000
0000
0000
0010
0000
0000
0000
0000
0000
0100
0000
0000
0000
0000
0000
0010
0000
0000
0000
0000
0000
0001
0000
0000
0000
0000
0000
1000
0000
0000
0000
0000
0000
,
0001
0000
0000
0000
0101
0000
1100
0000
0101
0000
0000
0010
0100
0000
0011
0000
,
0011
0000
0000
0000
1001
0000
1010
0000
0001
0010
0001
0010
0001
0000
0100
0100
,
1001
0000
1100
0000
0101
0110
0000
1100
,
0101
0110
1001
1001
1001
0000
1100
0000
,
0011
0000
0000
0000
1010
0000
0000
0100
1000
0100
1000
0000
0101
0000
0000
0000
,
1100
0000
0000
0000
0000
0000
0000
0000
0101
0000
0000
0000
0110
0000
0000
0000
0000
0000
0000
0000
1010
0000
0000
0000
0110
0000
0000
0000
0001
0010
0100
0010
,
0001
0101
0110
1000
0101
0010
1100
1100
,
0011
1001
1001
0001
1001
0110
0101
0000
,
1001
0000
0000
0000
0010
0000
0100
0000
0010
0000
0000
0000
1100
0000
0001
0010
0001
0000
1100
0000
0010
0000
0100
0000
0020
0000
0000
0000
1000
0000
0000
0000
,
0130
0000
0000
0100
0010
0000
0000
0010
0100
0010
0100
0000
1010
0000
0000
1000
,
0001
0000
0000
0000
1100
0000
0000
0000
1000
0100
0010
0001
0010
0100
1000
0100
0010
0000
0000
0000
1010
0000
0000
0000
1100
0000
0000
0000
1010
0000
0010
0000
,
0010
0000
0000
0000
0000
0000
0000
0000
0000
0000
0000
0000
0000
0000
0000
0000
0010
0000
0000
0000
0000
0000
0000
0000
0000
0000
0000
0000
0000
0000
0000
0000
0010
0000
0000
0000
0000
0000
0000
0000
0000
0000
0000
0000
0000
0000
0000
0000
0010
0000
0000
0000
0000
0000
0000
0000
0000
0000
0000
0000
0000
0000
0000
0000
0010
0000
0000
0000
0000
0000
0000
0000
0000
0000
0000
0000
0000
0000
0000
0000
0010
0000
0000
0000
0000
0000
0000
0000
0000
0000
0000
0000
0000
0000
0000
0000
0010
0000
0000
0000
0000
0000
0000
0000
0000
0000
0000
0000
0000
0000
0000
0000
0000
0000
0000
0000
0000
0000
0000
0000
0000
0000
0000
0000
0000
0000
0000
0000
0000
0000
0000
0000
0100
0000
0000
0000
0000
0000
0000
0000
0000
0000
0000
0000
1000
0000
0000
0000
0000
0000
0000
0000
0000
0000
0000
0000
0000
0000
0000
0000
0000
0000
0000
0000
0000
0000
0000
0000
0001
0000
0000
0000
0000
0000
0010
0000
0000
0000
0000
0000
0100
0000
0000
0000
0000
0000
0010
0000
0000
0000
0000
0000
,
0001
0000
1010
0000
1001
0000
1010
0000
1001
0000
1010
0000
1001
1000
1010
1000
,
1001
0000
0000
0000
0000
0000
0010
0000
1001
0000
0000
0000
0000
0000
0000
0000
1000
0000
0010
0000
0100
0000
0010
0000
1000
0000
0000
0000
0000
0001
0010
0100
,
1000
0010
0101
0110
1000
0101
0101
0101
,
0101
0000
0000
0000
1000
0000
0010
0000
1000
0000
0001
0000
0110
0000
0001
1000
0001
0000
1010
0000
0100
0000
0010
0000
1001
0000
0000
0000
1100
0000
0000
0000
,
0101
0000
0000
0000
0100
0000
0010
0000
1100
0000
0001
0000
0110
0000
0001
0100
0001
0000
1100
0000
0010
0000
0100
0000
0011
0000
0100
0000
1000
0000
0100
0000
,
0011
0000
0000
0000
1010
0000
0001
0000
0110
0000
1000
0000
0110
0000
1000
0100
1000
0000
0101
0000
0010
0000
0100
0000
1010
0000
0000
0000
0110
0000
0000
0000
,
1001
0000
1100
0010
0100
0010
0110
2000
3002
0003
1000
0100
0010
0100
0010
0100
,
1000
0000
0010
0000
1100
0010
0001
0000
1000
0000
0110
0000
0101
0000
0010
0000
,
1100
0000
0000
0000
0010
0000
0000
0000
0101
0000
0000
0000
1000
0000
0000
0000
0110
0000
0000
0000
0001
0000
0000
0000
1001
0000
0000
0000
1000
0100
0010
0001
,
1100
0000
0010
0000
1001
0000
1001
0000
1001
0000
0000
0010
0001
1000
0000
0000
,
0101
0000
0000
1000
0001
0000
0000
0000
0101
0000
0101
0000
0000
0001
1000
0001
,
1100
0000
0000
0000
0011
0000
0000
1000
0010
0000
2000
0000
3002
2003
3002
2003
,
3011
0000
1001
0000
0011
0000
0000
0000
1000
0010
1000
0010
1100
0000
1010
0000
,
1001
0000
0000
0000
0110
0000
0000
1000
0001
1000
0001
0000
1010
0000
0000
0000
,
1000
0000
0000
0001
0010
0100
1000
0000
0101
0000
0000
0000
0100
0000
0000
0000
1001
0000
0000
0000
0010
0000
0000
0000
1100
0000
0000
0000
1100
0000
0000
0000
,
1100
0000
0000
0000
0011
0000
1010
0000
0011
0000
0000
1000
0001
0100
0010
0000
,
1100
0000
0010
0000
1100
0000
0001
0000
0010
0100
0010
0100
1001
0000
0110
0110
,
1001
0000
0000
0000
1010
0000
0100
0000
0101
0000
0011
0000
0000
0010
1000
0001
,
0100
0011
1001
1010
1010
0000
0110
0000
,
0010
0000
0000
0000
1100
0000
0100
0001
0100
0010
0100
0000
1010
0000
0000
0010
,
0100
0000
0010
0000
0001
0000
0000
0000
1100
0000
0000
0000
1100
0000
0000
0000
0000
0000
0000
0000
0101
0000
0000
0000
1010
0000
0000
0000
1000
0100
0010
0100
,
1000
0000
1010
0000
0101
0000
0010
0000
0101
0000
0010
0000
0010
1000
0001
0000
,
1100
0000
1001
0000
0110
0000
0000
0000
1001
0000
0101
0000
1001
0000
0001
0010
,
1100
0000
0000
0000
0101
0000
0010
0000
1001
1001
1001
0000
1010
0100
0001
0100
,
0001
0000
0000
0000
1010
0000
0010
0000
0010
0000
0010
0000
1100
1100
1100
1100
,
1100
0000
0000
0001
0100
0000
0000
0000
0011
0011
0011
0011
0011
0000
0000
0000
,
1010
0000
0001
0000
0100
0000
0010
0000
1000
0000
0000
0000
1000
0001
1000
0001
,
1001
0000
0000
0000
0010
0000
0100
0000
1010
0000
0100
0000
0001
0000
1000
0001
1000
0000
0000
0000
1000
0000
0000
0000
1000
0000
0000
0000
1000
0000
0000
0000
,
1001
0000
0000
0000
1001
1001
1001
1001
1001
0000
0000
1010
0101
0000
0000
0000
,
0000
0000
0000
1000
0000
0000
0001
0000
0000
1000
0000
0000
0010
0000
0000
0000
0000
0000
0000
0000
0000
0000
0000
0000
1000
0000
0001
0000
1000
0000
0001
0000
1000
0000
0001
0000
1000
0000
0001
0000
1000
0000
0001
0000
1000
0000
0001
0000
,
1000
0000
0001
0000
1000
0000
0001
0000
1000
0000
0001
0000
1000
0000
0001
0000
1000
0000
0001
0000
1000
0000
0001
0000
2200
0000
0000
3300
0000
0000
0011
0000
0000
0000
0000
0000
0011
0000
0000
0000
0000
0000
0011
0000
0000
0000
0000
0000
,
0011
0000
0011
0000
2020
3030
2200
3300
2002
3003
1001
0000
1001
0000
0202
0303
,
0101
0000
0101
0000
0220
0330
0110
0000
2002
3003
1001
0000
1001
0000
1001
0000
,
1001
0000
2002
3003
2020
3030
2200
3300
0022
0033
0011
0000
0011
0000
2020
3030
,
1010
0000
1010
0000
1010
0000
0022
0033
1000
0000
0010
0000
0110
0000
0001
0000
,
0010
0000
0101
0000
0110
0000
1001
0000
1010
0000
1010
0000
1010
0000
0220
0330
,
0110
0000
0022
0033
0011
0000
2002
3003
2200
3300
1100
0000
1100
0000
1100
0000
,
0220
0330
0000
0202
0303
0000
2020
3030
2002
3003
1001
0000
1001
0000
1001
0000
,
2200
3300
1100
0000
2020
3030
1010
0000
0100
0000
0010
0000
0110
0000
0010
0000
,
1000
0000
0022
0033
0220
0330
2020
3030
0220
0330
0110
0000
0110
0000
2002
3003
,
1001
0000
0202
0303
0011
0000
2020
3030
0110
0000
0110
0000
0110
0000
0110
0000
,
0110
0000
2002
3003
0220
0330
2020
3030
0202
0303
0101
0000
0101
0000
2002
3003
,
1001
0000
0202
0303
0101
0000
2200
3300
0000
0000
0000
0000
0000
0000
0000
0000
;
