#TITLE:Northern Comfort;
#SUBTITLE:By Nicholas Mihaila;
#ARTIST:Children of Bodom;
#TITLETRANSLIT:;
#SUBTITLETRANSLIT:;
#ARTISTTRANSLIT:;
#CREDIT:;
#BANNER:Northern Comfort - Banner.gif;
#BACKGROUND:Northern Comfort - Background.gif;
#LYRICSPATH:;
#CDTITLE:cdtitle.gif;
#MUSIC:Children Of Bodon - Northern Comfort.mp3;
#OFFSET:0.000;
#SAMPLESTART:100.000;
#SAMPLELENGTH:12.000;
#SELECTABLE:YES;
#BPMS:0.000=186.501,4.000=185.001,43.250=184.001,53.000=184.400,84.500=184.320,100.500=184.240,117.000=184.160,131.000=183.800,229.000=184.100;
#STOPS:417.500=0.340
,418.500=0.340
;
#BGCHANGES:;
// cache tags:
#FIRSTBEAT:1.000;
#LASTBEAT:687.750;
#SONGFILENAME:Songs/toune 5/Children Of Bodom - Northern Comfort (v2)/Children Of Bodon - Northern Comfort.sm;
#HASMUSIC:1;
#HASBANNER:1;
#MUSICLENGTH:228.239;
// end cache tags

//---------------dance-single - Copied from----------------
#NOTES:
     dance-single:
     Copied from:
     Challenge:
     13:
     1.000,1.000,1.000,1.000,0.631,1332.000,264.000,235.000,0.000,5.000:
0000
1100
1010
0101
,
0011
0000
1000
0100
1001
0000
0001
0010
,
1001
0000
0010
1000
0110
0000
0100
0001
,
0110
0000
1000
0010
0101
0000
0001
0100
,
1010
0000
0001
0010
1100
0000
1000
0100
,
0011
0000
1000
0001
1001
0000
0001
1000
,
1001
0000
0010
0100
0011
0000
0100
0010
,
1100
0000
0100
0001
1010
0000
0010
1000
,
0101
0000
1000
0000
1000
0011
0100
0011
,
0100
0011
2200
3300
2020
3030
0202
0303
,
0022
0000
0033
0000
2200
0000
3300
0000
2020
0000
3030
0000
0000
0202
0000
0000
,
0000
0303
2200
3300
2020
3030
0202
0303
,
2200
3300
0022
0000
1033
0100
0010
0001
,
0010
0100
2002
3003
2020
3030
0202
0303
,
0022
0000
0033
0000
2002
0000
3003
0000
2020
0000
3030
0000
0000
0202
0000
0000
,
0000
0303
2002
3003
2020
3030
0202
0303
,
2002
0000
0000
3003
0000
0000
0022
0000
0000
1033
0100
0010
0001
0000
0000
0000
0000
0000
0000
0000
0000
0000
0000
0000
,
0000
0000
0100
0010
0001
1000
0010
0100
,
0001
1000
0100
0001
0100
0010
1000
0010
,
0100
0001
2200
0000
0000
3300
0022
0000
,
0000
0033
2200
0000
0000
3300
0022
0000
,
0000
0033
1000
0010
0100
0001
0010
1000
,
0001
0100
0010
1000
0100
0001
0010
1000
,
0100
0001
2020
0000
0000
3030
0202
0000
,
0000
0303
2020
0000
0000
3030
0202
0000
,
0000
0303
0010
0100
0001
1000
0010
0001
,
0010
1000
0100
1000
0010
0100
0001
1000
,
0010
0000
0001
0000
1000
0100
1000
0100
1000
0100
1000
0100
0001
0010
0001
0010
,
0001
0010
0001
0010
1000
0100
1000
0100
1000
0100
1000
0100
0001
0010
0001
0010
,
0001
0010
0001
0010
1000
0000
0001
0000
0100
0000
0010
0000
0001
0000
0100
0000
,
1000
0010
0100
0010
0001
0100
1000
0010
,
0100
0000
0010
0000
1000
0001
1000
0001
1000
0001
1000
0001
0010
0100
0010
0100
,
0010
0000
0000
0100
0000
0000
0010
0000
0000
0100
0000
0000
1000
0000
0000
0001
0000
0000
1000
0000
0000
0001
0000
0000
1000
0000
0000
0001
0000
0000
1000
0000
0000
0001
0000
0000
1000
0000
0100
0000
0010
0000
0001
0000
0000
0000
0000
0000
,
1000
0001
2200
3300
2020
3030
0202
0303
,
0022
0000
0033
0000
2200
0000
3300
0000
2020
0000
3030
0000
0000
0202
0000
0000
,
0000
0303
2200
3300
2020
3030
0202
0303
,
2200
3300
0001
1000
0001
1000
0001
1000
,
0001
1000
0220
0330
2020
3030
0202
0303
,
0022
0000
0033
0000
2002
0000
3003
0000
2020
0000
3030
0000
0000
0202
0000
0000
,
0000
0303
0220
0330
2020
3030
0202
0303
,
2002
0000
0000
3003
0000
0000
0022
0000
0000
1033
0100
0010
0001
0000
0000
0010
0000
0000
0200
0000
0000
2000
0000
0000
,
0000
0000
0000
3300
0010
0000
0100
0000
0001
0000
0010
0000
1000
0000
0001
0000
,
0100
0010
1000
0100
1000
0010
0001
1000
,
0010
0100
2002
0000
0000
3003
0220
0000
,
0000
0330
2002
0000
0000
3003
0220
0000
,
0000
0330
1000
0001
0010
0001
0100
0010
,
1000
0010
0001
0100
0010
1000
0100
1000
,
0010
0001
2020
0000
0000
3030
0202
0000
,
0000
0000
0303
0000
2020
0000
0000
0000
0000
0000
3030
0000
0001
0010
0100
1000
,
0011
0000
1000
0100
1010
0000
0000
0000
,
1010
0000
0001
0100
0011
0000
0000
0000
,
0011
0000
0100
0010
1001
0000
0000
0000
,
1001
0000
0010
0001
0110
0000
0100
1000
,
0110
0000
0001
0010
1100
0000
0000
0000
,
1100
0000
1000
0010
0101
0000
0000
0000
,
0101
0000
0010
0001
1100
0000
0000
0000
,
1100
0000
0000
0000
0001
0010
0100
1000
0100
0010
0002
0010
0100
1000
0100
0010
,
0100
1000
0103
0010
0100
0010
0001
1000
0100
0001
0010
0100
1000
0010
0100
1000
,
0010
0100
0001
0010
0100
0001
0010
0100
1000
0001
0010
1000
0100
0001
0010
0100
,
0001
0010
0100
0001
1000
0010
0100
1000
0010
0001
0100
0010
0001
0100
1000
0010
,
0100
1000
0010
0001
0100
0010
1000
0100
0001
1000
0010
0100
0001
1000
0100
0001
,
0010
0100
1000
0010
0100
0001
1000
0100
0010
0001
0100
1000
0001
0010
0100
0001
,
1000
0100
0010
1000
0001
0010
0100
1000
0001
0010
0100
0001
1000
0100
0010
0001
,
0100
1000
0010
0100
0001
0010
0100
1000
0010
0100
1000
0001
0100
1000
0010
0001
,
0100
1000
0001
0010
1000
0100
0010
0001
1000
0100
0010
0001
2000
0000
0000
0000
,
0000
0000
0000
0000
3010
0001
0100
1000
0010
0001
0100
1000
0010
0100
0001
0010
,
1000
0100
0010
0001
0100
0010
1000
0001
0100
0010
0001
1000
0010
0001
0100
1000
,
0010
0100
1000
0001
0010
1000
0100
0010
0001
0100
0010
1000
0001
0010
1000
0001
,
0100
0010
0001
1000
0100
0001
0010
0100
1000
0010
0001
0100
1000
0001
0010
1000
,
0100
0001
0010
0100
1000
0001
0010
0100
0001
1000
0100
0010
1000
0001
0010
1000
,
0100
0010
0001
0100
0010
0001
1000
0100
0010
1000
0100
0001
0010
0100
0001
0010
,
0100
1000
0010
0001
1000
0010
0100
1000
0001
0010
0100
0001
0010
0100
1000
0010
,
0100
1000
0001
0010
1000
0100
0010
0001
0010
0100
1000
0100
0010
0001
0010
0100
,
1000
0002
0000
0000
1103
0000
0010
0100
,
0011
0000
1000
0010
1001
0000
0010
0001
,
0110
0000
0100
1000
0101
0000
0010
0001
,
1010
0000
0100
1000
0110
0000
0001
0100
,
1001
0000
0010
1000
0011
0000
0100
0001
,
1100
0000
0010
0100
1010
0000
0001
1000
,
0101
0000
0010
0001
0110
0000
1000
0100
,
1001
0000
1100
0011
1100
0011
1100
0011
,
1100
0011
2200
3300
2020
3030
0202
0000
,
0000
0000
0303
0000
2200
0000
3300
0000
2020
0000
3030
0000
0000
2200
0000
0000
,
0000
3300
2200
3300
2020
3030
0202
0303
,
2200
3300
0001
1000
0001
1000
0001
1000
,
0001
1000
2002
3003
2020
3030
0202
0000
,
0000
0000
0303
0000
2002
0000
3003
0000
2020
0000
3030
0000
0000
0022
0000
0000
,
0000
0033
2002
3003
2020
3030
0202
0303
,
2002
0000
0000
3003
0000
0000
0022
0000
0000
1033
0100
0010
0001
0000
0000
1100
0000
0000
0000
0000
0000
1100
0000
0000
,
0110
0011
1000
0001
0100
0010
1000
0100
,
0010
0001
0100
0010
1000
0100
1000
0010
,
0001
0010
2200
0000
0000
3300
0022
0000
,
0000
0033
2200
0000
0000
3300
0022
0000
,
0000
0033
0100
1000
0010
0100
0010
0001
,
0100
1000
0010
0100
0001
1000
0100
1000
,
0010
0100
2002
0000
0000
3003
0220
0000
,
0000
0330
2002
0000
0000
3003
0220
0000
,
0000
0330
0001
1000
0100
0010
0100
0001
,
1000
0010
0001
0100
0010
1000
0100
1000
,
0010
0000
0100
0000
0001
0010
0100
1000
0001
0010
0100
1000
1000
0100
0010
0001
,
1000
0100
0010
0001
0001
0010
0100
1000
0001
0010
0100
1000
1000
0100
0010
0001
,
1000
0100
0010
0001
1000
0000
0010
0000
0100
0000
0010
0000
1000
0000
0001
0000
,
0100
0010
0100
1000
0001
0010
1000
0100
,
0001
0000
0100
0000
1000
0010
1000
0010
1000
0010
1000
0010
0001
0100
0001
0100
,
0001
0100
0001
0100
1010
0000
1010
0000
0101
0000
0101
0000
1100
0000
1000
0000
,
1010
1000
0101
1000
0011
1000
0101
1000
,
0110
1000
1010
1000
0011
1000
1100
1000
,
1010
1000
0101
1000
0011
1000
0101
1000
,
0110
1000
1010
1000
0011
1000
2200
0000
,
0000
3300
2020
0000
0000
3030
0202
0000
,
0000
0303
0022
0000
0000
0033
2200
0000
,
0000
3300
0011
1100
0011
1100
0012
0000
,
1003
0100
0010
0000
0010
0100
1100
0010
,
0100
0001
1010
0100
0010
1000
0101
0010
,
0100
1000
0011
0100
0010
0001
1100
0010
,
0001
0100
1010
0100
0010
1000
0101
0010
,
1000
0100
0011
1000
0010
0001
1100
0010
,
0001
0100
1010
0001
0010
1000
0101
0010
,
0001
0100
0011
1000
0010
0001
1100
0010
,
0100
0001
1010
0100
1000
0010
0101
0010
,
0100
0000
0000
1000
0000
0000
0001
0010
0100
1000
0000
0000
0001
0010
0100
1000
0000
0000
0011
0000
0000
0000
0000
0000
,
0101
1010
1100
1100
,
1010
0000
0101
0000
0011
0000
1001
1001
,
0000
0110
0110
0000
2000
0000
0002
3000
,
0000
0100
0000
1000
0000
0100
0000
0010
,
0000
0100
0000
1000
0000
0100
2003
0010
,
0000
0001
0000
0010
0000
0100
0000
0010
,
3001
0010
0100
1000
0100
0010
0001
0010
0100
1000
0100
0010
0002
0000
0000
0000
,
0000
0100
0000
1000
0000
0100
0000
0010
,
0000
0100
0000
1000
0000
0100
2003
0010
,
0000
0000
0001
0000
0000
0000
0010
0000
0000
0000
0100
0000
3001
0010
0100
1000
,
0001
0010
0100
1000
0001
0010
0100
1000
0001
0010
0100
1000
0001
1000
0001
1000
,
0001
1000
0001
0010
0100
1000
0100
0010
0001
0000
0000
0000
1001
0100
1000
0010
,
1000
0001
1000
0010
1000
0100
1000
0010
1000
0001
1000
0010
1001
0100
0001
1000
,
0001
0100
0001
0010
0001
0100
0001
1000
0001
0100
0001
0010
1001
0010
0100
1000
,
0010
0100
0001
0010
0100
0001
1000
0100
0010
1000
0001
0010
0100
0001
0010
1000
,
0100
0010
1000
0001
0010
1000
0100
0010
0001
0100
1000
0001
0100
0010
0001
0100
,
1000
0001
0010
1000
0100
0010
1000
0100
0001
0010
0100
1000
0010
0100
0001
0010
,
0100
0001
1000
0100
0010
1000
0001
0010
0100
0001
0010
0100
2000
0000
0000
0000
,
0000
0000
0001
0010
0001
0100
0001
0010
,
0001
0100
0001
0010
0001
0100
3001
0010
,
0100
1000
0100
0010
0001
0010
2200
3300
,
2020
3030
0202
0303
0022
0033
1100
0000
,
0110
0011
0000
0101
,
0110
1010
0000
1100
,
0110
0000
0011
0000
0000
0000
1001
0100
,
0010
1001
0010
0100
1001
0100
0011
0000
,
0110
0000
1100
0000
0000
0000
0010
0001
,
1000
0001
0010
0000
0000
0000
0100
1000
,
0010
1000
0100
0000
0000
0000
1100
0010
,
1000
0110
0001
0100
0011
0000
1001
0100
,
0010
0100
0001
0100
0010
0100
0110
0010
,
0100
0010
1000
0010
0100
0010
1001
0100
,
0010
0001
0010
0100
0010
0001
0110
0010
,
0100
1000
0100
0010
0100
1000
1001
0010
,
0001
1000
0001
0010
0001
1000
0110
0100
,
1000
0001
1000
0100
1000
0001
1001
0100
,
0010
0000
1000
0000
0001
0000
0100
0000
0010
0000
1000
0000
0001
0010
0100
1000
,
0001
0010
0100
1000
0001
0000
0002
0000
0000
0000
0003
0000
1100
0000
0001
0000
,
0010
0100
1000
0100
0010
0001
0011
1000
,
0100
0010
0001
0010
0100
1000
1100
0010
,
0100
0010
0100
1000
0100
1000
0011
0100
,
0010
0100
0010
0001
0010
0001
1100
0010
,
0001
0100
1000
0010
0001
0100
0011
0100
,
1000
0010
0001
0100
1000
0010
1100
0001
,
0010
0000
0001
0000
1000
0000
0001
0000
0010
0000
0001
0000
1000
0001
1000
0001
,
1000
0001
1000
0001
1000
0001
1000
0001
1000
0001
1000
0001
2200
0000
3300
0000
,
2020
3030
0202
0303
0022
0033
0022
0033
,
0202
0303
2020
3030
2200
3300
0010
0100
,
0010
0100
0010
0100
1001
1001
0010
0101
,
0000
0000
0100
0000
1010
0000
0000
0000
0220
0000
0000
0330
2002
0000
0000
3003
,
0010
0100
0010
1000
0001
0010
0100
0001
1000
0100
0010
0100
2002
0000
0000
3003
;

//---------------dance-single - Copied from Copied f----------------
#NOTES:
     dance-single:
     Copied from Copied f:
     Hard:
     13:
     1.000,1.000,1.000,1.000,0.386,1220.000,264.000,235.000,0.000,5.000:
0000
1100
1010
0101
,
0011
0000
1000
0100
1001
0000
0001
0010
,
1001
0000
0010
1000
0110
0000
0100
0001
,
0110
0000
1000
0010
0101
0000
0001
0100
,
1010
0000
0001
0010
1100
0000
1000
0100
,
0011
0000
1000
0001
1001
0000
0001
1000
,
1001
0000
0010
0100
0011
0000
0100
0010
,
1100
0000
0100
0001
1010
0000
0010
1000
,
0101
0000
1000
0000
1000
0011
0100
0011
,
0100
0011
2200
3300
2020
3030
0202
0303
,
0022
0000
0033
0000
2200
0000
3300
0000
2020
0000
3030
0000
0000
0202
0000
0000
,
0000
0303
2200
3300
2020
3030
0202
0303
,
2200
3300
0022
0000
1033
0100
0010
0001
,
0010
0100
2002
3003
2020
3030
0202
0303
,
0022
0000
0033
0000
2002
0000
3003
0000
2020
0000
3030
0000
0000
0202
0000
0000
,
0000
0303
2002
3003
2020
3030
0202
0303
,
2002
0000
0000
3003
0000
0000
0022
0000
0000
1033
0100
0010
0001
0000
0000
0000
0000
0000
0000
0000
0000
0000
0000
0000
,
0000
0000
0100
0010
0001
1000
0010
0100
,
0001
1000
0100
0001
0100
0010
1000
0010
,
0100
0001
2200
0000
0000
3300
0022
0000
,
0000
0033
2200
0000
0000
3300
0022
0000
,
0000
0033
1000
0010
0100
0001
0010
1000
,
0001
0100
0010
1000
0100
0001
0010
1000
,
0100
0001
2020
0000
0000
3030
0202
0000
,
0000
0303
2020
0000
0000
3030
0202
0000
,
0000
0303
0010
0100
0001
1000
0010
0001
,
0010
1000
0100
1000
0010
0100
0001
1000
,
0010
0000
0001
0000
1000
0100
1000
0100
1000
0100
1000
0100
0001
0010
0001
0010
,
0001
0010
0001
0010
1000
0100
1000
0100
1000
0100
1000
0100
0001
0010
0001
0010
,
0001
0010
0001
0010
1000
0000
0001
0000
0100
0000
0010
0000
0001
0000
0100
0000
,
1000
0010
0100
0010
0001
0100
1000
0010
,
0100
0000
0010
0000
1000
0001
1000
0001
1000
0001
1000
0001
0010
0100
0010
0100
,
0010
0000
0000
0100
0000
0000
0010
0000
0000
0100
0000
0000
1000
0000
0000
0001
0000
0000
1000
0000
0000
0001
0000
0000
1000
0000
0000
0001
0000
0000
1000
0000
0000
0001
0000
0000
1000
0000
0100
0000
0010
0000
0001
0000
0000
0000
0000
0000
,
1000
0001
2200
3300
2020
3030
0202
0303
,
0022
0000
0033
0000
2200
0000
3300
0000
2020
0000
3030
0000
0000
0202
0000
0000
,
0000
0303
2200
3300
2020
3030
0202
0303
,
2200
3300
0001
1000
0001
1000
0001
1000
,
0001
1000
0220
0330
2020
3030
0202
0303
,
0022
0000
0033
0000
2002
0000
3003
0000
2020
0000
3030
0000
0000
0202
0000
0000
,
0000
0303
0220
0330
2020
3030
0202
0303
,
2002
0000
0000
3003
0000
0000
0022
0000
0000
1033
0100
0010
0001
0000
0000
0010
0000
0000
0200
0000
0000
2000
0000
0000
,
0000
0000
0000
3300
0010
0000
0100
0000
0001
0000
0010
0000
1000
0000
0001
0000
,
0100
0010
1000
0100
1000
0010
0001
1000
,
0010
0100
2002
0000
0000
3003
0220
0000
,
0000
0330
2002
0000
0000
3003
0220
0000
,
0000
0330
1000
0001
0010
0001
0100
0010
,
1000
0010
0001
0100
0010
1000
0100
1000
,
0010
0001
2020
0000
0000
3030
0202
0000
,
0000
0000
0303
0000
2020
0000
0000
0000
0000
0000
3030
0000
0001
0010
0100
1000
,
0011
0000
1000
0100
1010
0000
0000
0000
,
1010
0000
0001
0100
0011
0000
0000
0000
,
0011
0000
0100
0010
1001
0000
0000
0000
,
1001
0000
0010
0001
0110
0000
0100
1000
,
0110
0000
0001
0010
1100
0000
0000
0000
,
1100
0000
1000
0010
0101
0000
0000
0000
,
0101
0000
0010
0001
1100
0000
0000
0000
,
1100
0000
0000
0000
0001
0010
0100
1000
0100
0010
0002
0010
0100
1000
0100
0010
,
0100
1000
0103
0010
0100
0000
0001
0000
0100
0000
0010
0000
1000
0000
0100
0000
,
0010
0001
0100
0010
1000
0010
0100
0010
,
0001
0100
1000
0100
0010
0100
0001
1000
,
0100
0010
0100
1000
0001
0010
0001
0100
,
0010
1000
0100
1000
0010
0100
0001
0100
,
1000
0010
0001
0100
0001
0100
1000
0010
,
0100
0010
0001
0100
0010
1000
0100
0010
,
0100
0000
0001
0000
1000
0100
0010
0001
1000
0100
0010
0001
2000
0000
0000
0000
,
0000
0000
3010
0100
0001
0100
0010
0001
,
1000
0010
0100
1000
0100
0001
0010
0100
,
0001
1000
0010
0100
0001
0010
0001
1000
,
0100
0001
0100
0010
1000
0001
1000
0010
,
0100
0001
1000
0010
0001
0100
1000
0010
,
0100
0001
0010
1000
0001
0100
0010
0001
,
0100
0010
1000
0100
0001
0100
0010
1000
,
0100
0000
0001
0000
1000
0100
0010
0001
0010
0100
1000
0100
0010
0001
0010
0100
,
1000
0002
0000
0000
1103
0000
0010
0100
,
0011
0000
1000
0010
1001
0000
0010
0001
,
0110
0000
0100
1000
0101
0000
0010
0001
,
1010
0000
0100
1000
0110
0000
0001
0100
,
1001
0000
0010
1000
0011
0000
0100
0001
,
1100
0000
0010
0100
1010
0000
0001
1000
,
0101
0000
0010
0001
0110
0000
1000
0100
,
1001
0000
1100
0011
1100
0011
1100
0011
,
1100
0011
2200
3300
2020
3030
0202
0000
,
0000
0000
0303
0000
2200
0000
3300
0000
2020
0000
3030
0000
0000
2200
0000
0000
,
0000
3300
2200
3300
2020
3030
0202
0303
,
2200
3300
0001
1000
0001
1000
0001
1000
,
0001
1000
2002
3003
2020
3030
0202
0000
,
0000
0000
0303
0000
2002
0000
3003
0000
2020
0000
3030
0000
0000
0022
0000
0000
,
0000
0033
2002
3003
2020
3030
0202
0303
,
2002
0000
0000
3003
0000
0000
0022
0000
0000
1033
0100
0010
0001
0000
0000
1100
0000
0000
0000
0000
0000
1100
0000
0000
,
0110
0011
1000
0001
0100
0010
1000
0100
,
0010
0001
0100
0010
1000
0100
1000
0010
,
0001
0010
2200
0000
0000
3300
0022
0000
,
0000
0033
2200
0000
0000
3300
0022
0000
,
0000
0033
0100
1000
0010
0100
0010
0001
,
0100
1000
0010
0100
0001
1000
0100
1000
,
0010
0100
2002
0000
0000
3003
0220
0000
,
0000
0330
2002
0000
0000
3003
0220
0000
,
0000
0330
0001
1000
0100
0010
0100
0001
,
1000
0010
0001
0100
0010
1000
0100
1000
,
0010
0000
0100
0000
0001
0010
0100
1000
0001
0010
0100
1000
1000
0100
0010
0001
,
1000
0100
0010
0001
0001
0010
0100
1000
0001
0010
0100
1000
1000
0100
0010
0001
,
1000
0100
0010
0001
1000
0000
0010
0000
0100
0000
0010
0000
1000
0000
0001
0000
,
0100
0010
0100
1000
0001
0010
1000
0100
,
0001
0000
0100
0000
1000
0010
1000
0010
1000
0010
1000
0010
0001
0100
0001
0100
,
0001
0100
0001
0100
1010
0000
1010
0000
0101
0000
0101
0000
1100
0000
1000
0000
,
1010
1000
0101
1000
0011
1000
0101
1000
,
0110
1000
1010
1000
0011
1000
1100
1000
,
1010
1000
0101
1000
0011
1000
0101
1000
,
0110
1000
1010
1000
0011
1000
2200
0000
,
0000
3300
2020
0000
0000
3030
0202
0000
,
0000
0303
0022
0000
0000
0033
2200
0000
,
0000
3300
0011
1100
0011
1100
0012
0000
,
1003
0100
0010
0000
0010
0100
1100
0010
,
0100
0001
1010
0100
0010
1000
0101
0010
,
0100
1000
0011
0100
0010
0001
1100
0010
,
0001
0100
1010
0100
0010
1000
0101
0010
,
1000
0100
0011
1000
0010
0001
1100
0010
,
0001
0100
1010
0001
0010
1000
0101
0010
,
0001
0100
0011
1000
0010
0001
1100
0010
,
0100
0001
1010
0100
1000
0010
0101
0010
,
0100
0000
0000
1000
0000
0000
0001
0010
0100
1000
0000
0000
0001
0010
0100
1000
0000
0000
0011
0000
0000
0000
0000
0000
,
0101
1010
1100
1100
,
1010
0000
0101
0000
0011
0000
1001
1001
,
0000
0110
0110
0000
2000
0000
0002
3000
,
0000
0100
0000
1000
0000
0100
0000
0010
,
0000
0100
0000
1000
0000
0100
2003
0010
,
0000
0001
0000
0010
0000
0100
0000
0010
,
3001
0010
0100
1000
0100
0010
0001
0010
0100
1000
0100
0010
0002
0000
0000
0000
,
0000
0100
0000
1000
0000
0100
0000
0010
,
0000
0100
0000
1000
0000
0100
2003
0010
,
0000
0000
0001
0000
0000
0000
0010
0000
0000
0000
0100
0000
3001
0010
0100
1000
,
0001
0010
0100
1000
0001
0010
0100
1000
0001
0010
0100
1000
0001
1000
0001
1000
,
0001
1000
0001
0010
0100
1000
0100
0010
0001
0000
0000
0000
1001
0100
1000
0010
,
1000
0001
1000
0010
1000
0100
1000
0010
1000
0001
1000
0010
1001
0100
0001
1000
,
0001
0100
0001
0010
0001
0100
0001
1000
0001
0100
0001
0010
1001
0010
0100
1000
,
0010
0100
0001
0010
0100
0001
1000
0100
0010
1000
0001
0010
0100
0001
0010
1000
,
0100
0010
1000
0001
0010
1000
0100
0010
0001
0100
1000
0001
0100
0010
0001
0100
,
1000
0001
0010
1000
0100
0010
1000
0100
0001
0010
0100
1000
0010
0100
0001
0010
,
0100
0001
1000
0100
0010
1000
0001
0010
0100
0001
0010
0100
2000
0000
0000
0000
,
0000
0000
0001
0010
0001
0100
0001
0010
,
0001
0100
0001
0010
0001
0100
3001
0010
,
0100
1000
0100
0010
0001
0010
2200
3300
,
2020
3030
0202
0303
0022
0033
1100
0000
,
0110
0011
0000
0101
,
0110
1010
0000
1100
,
0110
0000
0011
0000
0000
0000
1001
0100
,
0010
1001
0010
0100
1001
0100
0011
0000
,
0110
0000
1100
0000
0000
0000
0010
0001
,
1000
0001
0010
0000
0000
0000
0100
1000
,
0010
1000
0100
0000
0000
0000
1100
0010
,
1000
0110
0001
0100
0011
0000
1001
0100
,
0010
0100
0001
0100
0010
0100
0110
0010
,
0100
0010
1000
0010
0100
0010
1001
0100
,
0010
0001
0010
0100
0010
0001
0110
0010
,
0100
1000
0100
0010
0100
1000
1001
0010
,
0001
1000
0001
0010
0001
1000
0110
0100
,
1000
0001
1000
0100
1000
0001
1001
0100
,
0010
0000
1000
0000
0001
0000
0100
0000
0010
0000
1000
0000
0001
0010
0100
1000
,
0001
0010
0100
1000
0001
0000
0002
0000
0000
0000
0003
0000
1100
0000
0001
0000
,
0010
0100
1000
0100
0010
0001
0011
1000
,
0100
0010
0001
0010
0100
1000
1100
0010
,
0100
0010
0100
1000
0100
1000
0011
0100
,
0010
0100
0010
0001
0010
0001
1100
0010
,
0001
0100
1000
0010
0001
0100
0011
0100
,
1000
0010
0001
0100
1000
0010
1100
0001
,
0010
0000
0001
0000
1000
0000
0001
0000
0010
0000
0001
0000
1000
0001
1000
0001
,
1000
0001
1000
0001
1000
0001
1000
0001
1000
0001
1000
0001
2200
0000
3300
0000
,
2020
3030
0202
0303
0022
0033
0022
0033
,
0202
0303
2020
3030
2200
3300
0010
0100
,
0010
0100
0010
0100
1001
1001
0010
0101
,
0000
0000
0100
0000
1010
0000
0000
0000
0220
0000
0000
0330
2002
0000
0000
3003
,
0010
0100
0010
1000
0001
0010
0100
0001
1000
0100
0010
0100
2002
0000
0000
3003
;
