#TITLE:Anguish;
#SUBTITLE:;
#ARTIST:DJ Myosuke;
#TITLETRANSLIT:;
#SUBTITLETRANSLIT:;
#ARTISTTRANSLIT:;
#CREDIT:;
#BANNER:anguish bn.png;
#BACKGROUND:anguish bg.png;
#LYRICSPATH:;
#CDTITLE:;
#MUSIC:Anguish.ogg;
#OFFSET:-0.531;
#SAMPLESTART:64.175;
#SAMPLELENGTH:17.256;
#SELECTABLE:YES;
#BPMS:0.000=222.513;
#STOPS:;
#BGCHANGES:;
// cache tags:
#FIRSTBEAT:4.000;
#LASTBEAT:552.000;
#SONGFILENAME:Songs/SPEEEDCOOOORE 3/Anguish - [Aoreo]/Anguish.sm;
#HASMUSIC:1;
#HASBANNER:1;
#MUSICLENGTH:150.463;
// end cache tags

//---------------dance-single - J. Nero----------------
#NOTES:
     dance-single:
     J. Nero:
     Challenge:
     17:
     1.000,1.000,0.199,0.199,1.000,1308.000,30.000,30.000,10.000,0.000:

0000
0000
0000
0000
,
1001
0001
1000
0100
0000
1000
1010
0000
,
0110
0100
0001
0010
0000
0100
1100
0000
,
1001
0001
0100
0010
0000
0100
0101
0000
,
1010
0010
0100
0001
0000
0010
0110
0000
,
1100
1000
0001
0100
0000
0001
0101
0000
,
0110
0100
0001
0010
0000
0100
1100
0000
,
1001
0001
0100
0010
0000
0100
0101
0000
,
0011
0010
0100
1000
0000
0001
1001
0000
,
1000
0100
0010
0100
1000
0001
0100
0010
,
0100
0000
0001
0000
1000
0000
0001
0000
0010
0000
0100
0000
1000
0000
0001
0100
,
0001
1000
0100
0010
0001
1000
0010
0100
,
0010
1000
0010
0000
0100
0000
0001
0000
0010
0000
0100
1000
0001
0000
0100
0000
,
0010
0100
0010
0000
1000
0000
0001
0000
0010
0000
0100
0000
1000
0000
0001
0000
,
0100
0000
0010
0000
0100
0000
0001
0000
0010
0000
0100
0000
1000
0001
0400
0000
,
0310
0000
1000
0000
0010
0000
0100
0000
0001
0000
0010
0000
0100
0000
1000
0001
,
0200
0300
0000
0000
0000
0000
0000
0000
0200
0300
0000
0000
0000
0000
0000
0000
0001
0000
0000
0000
1000
0000
0000
0000
0010
0000
0000
0000
0000
0000
0000
0000
,
1000
0001
1000
0000
0001
0000
0010
0000
0100
0000
0010
0001
1000
0000
0040
0030
,
0100
0001
0100
0000
0010
0000
1000
0001
1000
0000
0100
0000
0040
0030
0001
1000
,
0001
0100
0010
1000
0001
0000
0100
0010
0100
0000
0001
0000
1000
0100
0040
0030
,
0001
0000
0100
0000
0010
1000
0001
0100
0001
0000
1000
0000
0010
0000
0400
0300
,
0001
1000
0001
0100
0010
0100
0001
1000
0100
0010
0100
1000
0001
0010
0100
1000
,
0001
1000
0100
0010
0001
1000
0001
0100
0010
0100
0001
1000
0010
0100
0001
1000
,
0001
0010
0100
1000
0010
0100
0001
0010
0100
1000
0010
0100
0001
1000
0100
0010
,
0004
0000
0000
0000
0000
0000
0000
0003
,
2002
3003
0000
0000
0000
0000
0000
0000
0000
0000
0000
0000
0000
0000
0000
0000
,
0000
0000
0000
0000
,
0000
0000
0000
0000
,
0000
0000
0000
0000
,
0000
0000
0000
0000
,
0000
0000
0000
0000
,
0000
0000
0000
0000
,
0000
0000
0000
0000
,
2000
0000
3001
0000
0020
0030
0001
0000
0100
0000
0010
0000
1000
0000
0001
0000
,
1000
0100
1000
0001
0100
0010
0100
0001
,
2000
0000
3010
0000
0200
0300
0001
0000
0010
0000
0100
0000
0010
0000
0001
0000
,
0100
0010
1000
0100
1000
0001
0100
0010
,
2000
0000
3001
0000
0200
0300
0001
0000
1000
0000
0001
0000
0100
0000
0010
0000
,
1000
0100
0010
0100
1000
0001
0100
0010
,
2000
0000
3100
0000
0020
0030
0100
0000
1000
0000
0010
0000
0100
0000
0010
0000
,
1000
0001
0010
0001
0100
0010
1000
0001
,
2000
0000
3001
0000
0020
0030
0001
0000
0100
0000
0010
0000
1000
0000
0001
0000
,
1000
0100
1000
0001
0100
0010
0100
0001
,
2000
0000
3010
0000
0200
0300
0001
0000
0010
0000
0100
0000
0010
0000
0001
0000
,
0100
0010
1000
0100
1000
0001
0100
0010
,
2000
0000
3001
0000
0200
0300
0001
0000
1000
0000
0001
0000
0100
0000
0010
0000
,
1000
0100
0010
0100
1000
0001
0100
0010
,
2000
0000
3100
0000
0020
0030
0100
0000
1000
0000
0010
0000
0100
0000
0010
0000
,
1000
0001
0010
0001
0100
0010
1000
0001
,
1001
0000
0000
0001
,
1001
0000
0000
0000
,
0000
0000
1100
0000
,
0110
0000
0000
0000
,
0011
0000
0000
0001
,
1001
0000
0000
0000
,
0000
0000
1100
0000
,
1001
0000
0000
0000
,
0002
0000
0000
0000
0M00
0M00
0000
0000
,
0000
0000
0000
0000
0000
0000
0000
0000
0M00
0000
0000
0000
0000
0000
0000
0000
0M00
0M00
0M00
0000
0000
0000
0000
0000
0000
0000
0000
0000
0000
0000
0000
0000
,
1003
0100
1000
0001
0100
0010
1000
0001
0100
0001
1000
0010
0100
0010
1000
0001
,
1000
0100
0010
0001
1000
0001
0010
0100
0010
0001
1000
0001
0100
0001
1000
0010
,
0100
0010
1000
0001
0100
0001
1000
0010
0100
0010
1000
0001
1000
0100
0010
0001
,
1000
0001
1000
0010
0100
0010
1000
0001
0010
0100
1000
0001
1000
0100
1000
0001
,
0010
0001
1000
0100
0010
0001
1000
0001
0100
0010
0100
0001
1000
0001
1000
0010
,
0100
0001
0100
0010
1000
0001
1000
0100
0010
0001
1000
0100
1000
0001
0010
0100
,
1000
0001
1000
0010
0100
0010
1000
0001
1000
0100
0010
0001
1000
0001
0100
0001
,
1000
0010
0100
0010
1000
0001
0100
0001
1000
0100
1000
0001
0010
0100
1000
0010
,
0100
0001
0100
0010
1000
0001
1000
0100
0010
0001
1000
0001
0100
0001
0100
0010
,
1000
0001
1000
0100
1000
0001
0010
0100
1000
0001
0100
0001
1000
0010
0100
0010
,
1000
0001
0100
0001
1000
0100
1000
0001
0010
0100
1000
0001
0010
0001
1000
0100
,
0010
0001
1000
0001
0100
0010
1000
0001
1000
0001
0100
0001
1000
0010
0100
0010
,
1000
0001
1000
0100
0010
0100
1000
0001
0010
0001
1000
0100
0010
0001
1000
0001
,
0100
0010
0100
0001
1000
0001
0100
0001
1000
0100
0010
0001
1000
0001
0100
0001
,
1000
0010
0100
0010
1000
0001
0100
0001
1000
0100
1000
0001
0010
0100
1000
0001
,
0010
0001
1000
0100
0010
0001
1000
0001
0100
0010
0100
0001
1000
0000
0001
0000
,
1000
0010
0100
0001
0010
0100
1000
0010
,
0100
0000
0001
0000
1000
0000
0001
0100
0001
0000
1000
0000
0010
0000
0100
0000
,
0001
0010
0100
1000
0001
0100
0010
0100
,
0001
0000
1000
0000
0100
0000
1000
0100
0010
0000
0001
0000
0100
0001
0100
0010
,
1000
0010
0100
0010
1000
0001
0010
0100
,
1000
0000
0001
0000
0100
0000
0010
1000
0010
0000
0100
0000
0001
0000
1000
0100
,
1000
0000
0000
0000
0001
0000
0000
0000
0010
0000
0000
0000
0100
0000
0000
0000
1000
0000
0000
0000
0001
0000
0000
0000
0010
0000
0000
0000
0002
0003
0000
0000
,
0100
0010
1000
0100
1000
0040
0130
0001
,
1001
1000
0010
0100
0010
1000
0001
0010
,
0100
0000
1000
0000
0001
0000
0100
0010
0100
0001
1000
0001
0100
0000
0010
0000
,
1000
0100
1000
0001
0010
0100
1000
0001
,
0100
0000
0010
0000
0100
0000
0001
1000
0001
0000
1000
0000
0100
0010
0100
0010
,
0001
1000
0001
0100
0010
0100
0001
0010
,
0100
1000
0001
0100
0001
1000
0010
0100
,
0010
0000
1000
0000
0100
0000
0010
0000
0100
0000
1000
0000
0001
0000
0100
0010
,
0100
0001
1000
0001
0010
0400
1300
0001
,
1000
0100
1000
0001
0010
0100
1000
0001
0100
0010
0100
0001
1000
0100
0010
0001
,
1000
0001
0100
0001
1000
0010
0100
0010
1000
0001
1000
0100
0010
0001
1000
0100
,
1000
0001
0100
0010
0100
0001
1000
0010
0100
0001
1000
0001
0010
0100
0010
0001
,
1000
0100
0010
0001
1000
0100
1000
0001
0100
0001
1000
0001
1000
0100
0010
0001
,
0100
0010
1000
0001
0100
0001
1000
0100
0010
0100
1000
0001
0010
0100
1000
0001
,
1000
0100
1000
0001
1000
0001
0100
0010
0100
0001
1000
0010
0100
0010
1000
0001
,
0100
0001
1000
0001
0010
0100
1000
0001
1000
0100
0010
0001
1000
0001
0100
0001
,
1000
0010
0100
0010
1000
0001
0100
0001
1000
0001
1000
0100
1000
0001
0100
0010
,
1000
0100
0010
0001
1000
0100
1000
0001
1000
0001
0100
0010
0100
0001
1000
0001
,
0010
0100
1000
0001
0100
0010
0100
0001
1000
0010
0100
0001
1000
0001
0010
0100
,
1000
0001
0010
0001
1000
0001
0100
0010
0100
0001
1000
0010
0100
0001
1000
0100
,
0010
0001
1000
0010
0100
0010
1000
0001
0010
0100
1000
0001
1000
0001
0100
0010
,
0100
0001
1000
0100
0010
0001
1000
0001
0100
0010
0100
0001
1000
0100
0010
0100
,
1000
0001
1000
0010
0100
0010
1000
0001
1000
0100
1000
0001
0010
0001
1000
0100
,
0010
0001
1000
0010
0100
0001
1000
0001
0100
0010
1000
0001
0010
0100
1000
0001
,
1000
0010
0100
0001
1000
0100
1000
0001
0010
0100
1000
0001
1000
0000
0001
0000
,
1000
0010
0100
0001
0100
0001
1000
0100
1000
0001
0010
0001
1000
0001
0100
0010
,
0100
0001
1000
0001
0100
0010
1000
0001
0010
0100
1000
0001
1000
0010
0100
0001
,
0100
0001
1000
0100
1000
0001
0010
0100
1000
0001
1000
0010
0100
0010
1000
0001
,
1000
0100
0010
0001
1000
0001
0100
0001
1000
0010
0100
0001
1000
0100
0010
0001
,
0100
0010
1000
0001
0100
0001
1000
0100
1000
0001
0010
0100
1000
0001
1000
0010
,
0100
0001
0100
0010
1000
0001
1000
0100
1000
0001
0010
0100
1000
0001
0100
0001
,
1000
0010
0100
0010
1000
0001
0100
0001
1000
0100
1000
0001
0010
0001
1000
0100
,
0010
0001
1000
0001
0100
0010
0100
0001
1000
0010
0100
0001
1000
0100
0010
0001
,
0100
0010
1000
0001
0010
0001
0100
0010
1000
0100
0010
0001
1000
0001
0100
0010
,
0100
0001
1000
0100
1000
0001
0010
0100
1000
0001
0100
0010
0100
0001
1000
0001
,
0010
0100
0010
0001
1000
0010
0100
0010
1000
0001
1000
0100
0010
0001
0100
0010
,
0100
0001
1000
0001
0010
0100
1000
0001
1000
0010
0100
0001
0010
0100
1000
0010
,
0100
0001
1000
0100
1000
0001
0100
0010
1000
0001
1000
0100
0010
0001
0100
0001
,
1000
0010
0100
0010
1000
0001
0100
0001
1000
0100
1000
0001
0010
0100
1000
0001
,
0100
0001
1000
0010
0100
0010
1000
0001
0010
0001
1000
0100
1000
0001
0100
0001
,
1000
0010
0100
0001
1000
0100
0010
0001
4000
0000
0000
0000
0000
0000
0000
0000
,
3001
0100
0010
0100
0001
0100
0010
0100
,
0001
0010
0100
1000
0100
0010
0100
1000
,
0001
0100
0010
0100
0001
0100
0010
0100
,
0001
0010
0100
1000
0100
0010
0100
1000
,
0001
0100
0001
1000
0001
0100
0001
1000
,
0010
0100
0010
0100
0001
0010
0100
1000
,
0001
0100
0001
1000
0001
0100
0001
1000
,
0010
0100
0010
0100
0001
0010
0100
1000
,
0002
0003
0020
0030
0000
0000
0000
0000
,
0000
0000
0000
0000
,
0200
0300
2000
3000
0000
0000
0000
0000
,
0000
0000
0000
0000
,
0002
0003
0200
0300
0000
0000
0000
0000
,
0000
0000
0000
0000
,
0020
0030
2000
3000
0000
0000
0000
0000
,
MMMM
0000
0000
0000
;
