#TITLE:gigadelic;
#SUBTITLE:;
#ARTIST:teranoid feat. MC Natsack;
#TITLETRANSLIT:;
#SUBTITLETRANSLIT:;
#ARTISTTRANSLIT:;
#CREDIT:Darkmage;
#BANNER:gigadelic-bn.png;
#BACKGROUND:gigadelic-bg.png;
#LYRICSPATH:;
#CDTITLE:!darkmagetitle2.png;
#MUSIC:gigadelic.ogg;
#OFFSET:-1.476;
#SAMPLESTART:83.387;
#SAMPLELENGTH:17.245;
#SELECTABLE:YES;
#BPMS:0.000=167.030;
#STOPS:;
#BGCHANGES:0.000=gigadelic-bg.png=1.000=0=0=1,
99999=-nosongbg-=1.000=0=0=0 // don't automatically add -songbackground-
;
// cache tags:
#FIRSTBEAT:4.000;
#LASTBEAT:800.000;
#SONGFILENAME:Songs/Archmage and Dark0wl Hammer of Thor UltraHyperMegaPack/gigadelic/giga.sm;
#HASMUSIC:1;
#HASBANNER:1;
#MUSICLENGTH:105.000;
// end cache tags

//---------------dance-single - Darkmage----------------
#NOTES:
     dance-single:
     Darkmage:
     Challenge:
     17:
     1.000,1.000,1.000,1.000,1.000,1845.000,655.000,347.000,0.000,121.000:
0000
0000
0000
0000
,
2000
0000
0000
0000
,
3020
0000
0000
0000
,
0230
0000
0000
0000
,
0302
0000
0203
0000
,
2300
0000
0000
0000
,
3020
0000
0000
0000
,
0032
0000
0000
0000
,
0000
0000
2003
0000
,
3020
0000
0000
0000
,
0230
0000
0000
0000
,
0302
0000
0000
0000
,
2003
0000
0000
0000
,
3002
0000
0000
0000
,
0000
0000
2003
0000
,
3200
0000
0000
0000
,
0302
0000
0000
0000
,
1103
0000
0000
1010
0000
0000
1100
0000
1010
1100
0000
1100
,
1010
0000
0000
0000
0000
0000
1100
0000
0000
0000
0000
0000
1010
0000
0110
0000
1010
0000
0110
0000
0000
0000
1000
0100
,
0011
0000
0000
0000
0000
0000
0101
0000
0000
0000
0000
0000
0011
0000
1001
0000
0101
0000
0011
0000
0000
0000
1000
0100
,
0011
0000
0110
0000
1001
0000
0011
0000
0000
0000
1000
0100
0011
0000
0000
0000
0000
0000
0101
0000
0000
0000
0011
0000
,
1001
0000
0000
0000
0000
0000
0101
0000
0000
0000
0000
0000
0110
0000
0000
0000
1100
0000
0101
0000
0000
0000
0001
1000
,
0101
0000
0000
0000
0000
0000
1010
0000
0000
0000
0000
0000
0110
0000
0101
0000
0110
0000
1010
0000
0000
0000
1000
0010
,
1100
0000
0000
0000
0000
0000
0110
0000
0000
0000
0000
0000
0101
0000
0110
0000
1100
0000
1001
0000
0000
0000
1000
0100
,
0011
0000
0101
0000
0110
0000
1010
0000
0000
0000
0010
0100
0011
0000
0000
0000
0000
0000
0101
0000
0000
0000
0110
0000
,
2200
3300
0000
0000
0000
0000
0022
0033
0000
0000
0000
0000
2200
3300
0000
0000
0001
0010
2200
3300
0011
0000
1010
0000
,
0202
0303
0000
0000
0000
0000
2020
3030
0000
0000
0000
0000
0202
0303
0011
0000
0110
0000
2020
3030
0000
0000
0100
0010
,
2002
3003
0000
0000
0000
0000
0202
0303
0000
0000
0000
0000
2020
3030
1100
0000
0011
0000
0202
0303
0000
0000
1000
0100
,
0022
0033
1100
0000
0011
0000
0202
0303
0000
0000
0001
0010
2200
3300
0000
0000
0000
0000
0202
0303
0000
0000
0110
0000
,
2020
3030
0000
0000
0000
0000
2200
3300
0000
0000
0000
0000
2020
3030
0000
0000
0001
0010
2200
3300
0000
0000
0010
0001
,
2200
3300
0000
0000
0000
0000
0202
0303
0000
0000
0000
0000
2020
3030
0011
0000
1010
0000
2002
3003
0000
0000
1000
0010
,
0202
0303
0000
0000
0000
0000
0022
0033
0000
0000
0000
0000
2200
3300
1010
0000
0110
0000
0202
0303
0000
0000
0001
0010
,
2200
3300
0011
0000
1100
0000
2020
3030
0000
0000
0100
0010
2200
3300
0000
0000
0000
0000
0202
0303
0000
0000
0011
0000
,
0202
0300
0000
0000
0000
0000
0010
0000
0000
0200
0000
0000
1300
0000
0000
1000
0010
0000
1000
0000
0000
0010
0100
0000
,
2103
0000
0000
0000
0000
0000
0001
0000
0000
0000
0000
0000
0001
0000
0010
0000
0100
0000
0001
0000
0000
0000
0100
0001
,
3210
0000
0000
0000
0000
0000
1000
0000
0000
0001
0000
0000
0010
0000
0000
0001
0010
0000
1000
0000
1000
0000
0010
0000
,
0312
0000
0010
0000
0100
0000
0010
0000
0000
0000
1000
0100
1000
0000
0000
0000
0000
0000
0100
0000
0000
0000
0010
0000
,
1013
0000
0000
0000
0000
0000
0101
0000
0000
1000
0000
0000
0011
0000
0000
1000
0001
0000
0101
0000
0000
1000
0001
0000
,
0011
0000
0000
0000
0000
0000
1001
0000
0000
0000
0000
0000
0001
0000
1001
0000
0101
0000
1000
0000
0000
0000
0001
1000
,
0101
0000
0000
0000
0000
0000
0011
0000
0000
0100
0000
0000
1010
0000
0010
0100
0010
0000
0010
0000
0000
0100
0010
1000
,
0010
1000
0010
1000
0010
1000
0012
0000
0000
0100
0000
0010
,
0113
0000
0000
0000
0000
0000
0101
0000
0000
0010
0000
0000
1100
0000
0100
0010
0001
0000
0101
0000
0000
0010
0100
0000
,
1100
0000
0100
0000
0010
0000
1001
0000
0000
0000
0000
0000
0100
0010
0001
0000
1000
0000
0011
0000
0000
0000
1000
0100
,
1002
0000
0000
0000
0000
0000
1000
0000
0000
0100
0000
0000
1000
0000
0010
0000
1000
0000
0100
0000
0000
0010
1000
0100
,
1013
0000
0100
0000
0010
0000
1010
0000
0000
0000
0001
0010
1001
0000
0000
0000
0010
0000
0010
0000
0000
0000
0010
0000
,
0201
0000
0000
0000
,
0000
0000
0000
0000
0000
0000
0312
0010
0010
0010
0010
0010
,
2013
0001
0001
0001
0001
0001
0001
0001
0001
0001
0001
0001
,
3021
0000
0001
0000
0001
0000
0001
0000
0001
0000
0001
0000
0031
1000
0001
1000
0001
1000
0001
1000
0001
1000
0001
1000
,
0102
0003
0000
0000
0000
0000
0002
0003
0000
0000
0000
0000
0002
0003
0000
0000
0000
0000
0002
0003
0000
0000
0000
0000
,
0002
0003
0000
0000
0000
0000
0002
0003
0000
0000
0000
0000
0002
0003
0000
0000
0000
0000
0002
0003
0000
0000
0002
0003
,
2000
3000
0000
0000
0000
0000
2000
3000
0000
0000
0000
0000
2000
3000
0000
0000
0000
0000
2000
3000
0000
0000
0000
0000
,
2000
3000
0000
0000
0000
0000
2000
3000
0000
0000
0000
0000
2000
3000
0000
0000
2000
3000
0002
0003
0000
0000
2000
3000
,
0200
0300
0000
0000
0000
0000
0200
0300
0000
0000
0000
0000
0200
0300
0000
0000
0000
0000
0200
0300
0000
0000
0000
0000
,
0201
0300
0010
0000
0001
0000
1200
0300
0010
0000
0001
0000
0210
0300
0001
0000
1000
0000
0210
0300
0001
0000
0200
0300
,
1020
0030
0001
0000
0100
0000
1020
0030
0001
0000
0100
0000
0021
0030
0001
0000
0100
0000
1020
0030
0100
0000
0001
0000
,
1020
0031
0100
0001
1000
0100
1020
0031
0100
0001
1000
0100
1002
0000
0000
0000
0000
0000
0000
0000
0000
0000
0000
0000
,
1013
0000
0000
0110
0000
0000
1010
0110
1100
1010
0000
1010
,
1100
0110
0101
0110
1010
1100
0110
0000
0000
0101
0000
0110
,
1010
0000
0000
0110
0000
1010
0110
0101
0110
1010
0000
0101
,
0110
1010
0110
0101
0110
1010
0201
0000
0000
0000
0000
0000
,
0311
0000
0000
0110
0000
0000
0011
0110
0011
0101
0000
0011
,
0101
0110
0101
0011
0101
0110
0011
0000
0011
0110
0000
0110
,
0011
0000
0000
0101
0000
0000
0011
0110
0011
0101
0000
0011
,
0110
0101
0011
0101
0011
0110
2001
0000
0000
0000
0000
0000
,
3101
0000
0000
0000
0000
0000
1100
0000
0000
0000
0000
0000
0001
0010
0100
0000
1010
0000
0101
0000
0000
0000
1000
0100
,
0011
1100
0110
0011
1001
0101
1100
0000
0000
0101
0000
0011
,
1100
0000
0000
0000
0000
0000
0011
0000
0000
0000
0000
0000
1100
0000
0110
0000
0101
0000
0011
0000
0000
0000
1000
0010
,
0101
1010
0110
0011
1100
0110
0201
0000
0000
0000
0000
0000
,
0311
0000
0000
0000
0000
0000
0101
0000
0000
0000
0000
0000
0011
0000
0110
0000
1100
0000
0101
0000
0000
0000
0100
1000
,
0011
0000
0110
0000
1010
0000
0101
0000
0011
0000
1010
0000
0011
0000
0000
0000
1000
0010
0101
0000
0000
0000
0001
0100
,
1010
0000
0000
1100
0000
0000
1010
0110
0101
1100
0000
0000
,
1010
0110
0101
0110
0011
1100
0220
0000
0000
0000
0000
0000
,
1331
0000
2000
0010
3200
0000
2320
3232
2323
3232
0303
0000
,
1001
0000
0200
1310
0002
0003
2010
3012
0123
0231
2310
3120
,
2031
3000
1020
0131
2010
3000
0120
2130
3201
0322
0003
0000
,
1032
0000
0000
1003
1000
2000
3002
0000
2003
3002
0000
0000
,
1103
0000
0020
0100
0032
0000
1203
0312
0123
2230
0300
0000
,
3110
0000
2000
0010
3002
0000
0123
1230
0312
0123
0132
0213
,
0311
0000
0200
0011
2300
0000
3012
0123
2230
3311
0000
0000
,
1000
0000
1000
0000
1000
0000
2000
0000
0000
0000
0000
0000
,
3011
0000
0012
1100
0213
0000
0312
0223
1332
1103
0000
0000
,
1010
0000
0120
0131
1020
0030
2010
3201
0321
0132
0123
2230
,
3311
0000
0120
1130
0022
0033
0011
2020
3132
1103
0000
0000
,
0022
1233
2320
3231
0322
1233
1310
0011
1010
1100
0101
1100
,
1001
0000
0201
1001
1320
0000
2031
3201
0321
1032
0003
0000
,
1100
0000
0012
1103
1020
0030
1200
0321
1032
1203
2310
3120
,
0131
0000
0021
0131
2010
3000
0201
0312
2013
3101
0001
0001
,
0001
1000
0001
1000
0001
1000
0100
1000
0100
1000
0010
1000
0001
1000
0010
1000
0100
1000
0001
1000
0001
1000
0001
1000
,
0120
1000
0001
1000
,
2031
0010
0100
0010
,
3201
0010
1000
0010
,
0001
0000
0000
0010
0000
0000
0310
0000
0010
0100
0000
0000
,
1002
0010
0100
1000
,
0123
0001
1000
0100
,
2031
0010
0100
0001
,
3001
0001
0001
0001
0001
0001
1000
1000
1000
1000
1000
1000
,
2010
0001
0010
0100
,
3021
0100
1000
0001
,
1230
0010
1000
0010
,
1302
0100
0013
0000
,
0101
0010
0100
0010
0100
0010
0100
0010
0100
0010
0100
0010
0100
0010
0100
1010
0000
0000
1100
0000
0000
0000
0000
0000
,
2010
0001
0010
0100
,
3012
1000
0100
0010
,
1000
0100
2013
0000
,
3102
0000
0000
0000
,
2003
0000
0000
0000
,
3020
0000
0000
0000
,
0230
0000
0000
0000
,
0302
0000
0000
0000
,
0000
0000
2003
0000
,
3210
0010
0010
0010
0010
0010
0010
0010
0010
0010
0010
0010
,
0301
0100
0001
0100
0001
0100
0001
0100
0001
0100
0001
0100
0001
0100
0001
0100
0001
0100
0001
0100
0001
0100
0001
0100
,
1002
0000
0000
0000
,
2003
0000
0000
0000
,
3002
0000
0000
0000
,
0203
0000
0000
0000
,
0320
0000
0000
0000
,
2030
0000
0000
0000
,
3002
0000
0000
0000
,
0000
0000
2003
0000
,
3020
0000
0000
0000
,
0032
0000
0000
0000
,
2003
0000
0000
0000
,
3002
0000
0000
0000
,
0203
0000
0000
0000
,
0000
0000
0302
0000
,
0203
0000
0000
0000
,
0321
0000
0000
0000
,
1130
0000
0000
0000
0000
0000
1100
0000
0000
0000
0000
0000
1010
0000
0000
0000
1100
0000
1010
0000
0000
0000
1000
0100
,
0011
0000
0000
0000
0000
0000
0101
0000
0000
0000
0000
0000
0011
0000
0011
0000
0011
0000
0101
0000
0000
0000
0100
0010
,
0101
0000
0000
0000
0000
0000
0110
0000
0000
0000
0000
0000
1010
0000
0110
0000
0110
0000
1010
0000
0000
0000
0001
0010
,
1100
0000
0110
0000
0101
0000
0101
0000
0000
0000
0000
0000
0011
0000
0000
0000
0000
0000
0101
0000
0000
0000
0010
0100
,
1001
0000
0000
1100
0000
0000
1010
0000
1100
1010
0000
1100
,
1010
0000
0000
0000
0000
0000
0101
0000
0000
0000
0000
0000
1100
0000
1100
0000
1100
0000
1001
0000
0000
0000
0100
0001
,
1010
0000
0000
0000
0000
0000
1100
0000
0000
0000
0000
0000
1000
0100
0011
0000
1100
0000
0011
0000
0000
0000
0011
0000
,
1200
2310
3102
0123
2031
3210
0312
1023
2130
3102
0213
2310
,
3201
0000
0000
0000
0000
0000
0000
0000
0001
0000
0000
0000
0000
0000
0000
0000
0001
2000
0000
0000
3000
0000
0000
0000
0001
2000
0000
0000
3000
0000
0000
0000
,
0321
2000
0000
0000
3000
0000
0000
0000
0001
0000
0000
0000
0000
0000
0000
0000
0001
0000
0000
0000
0000
0000
0000
0000
0001
0000
0000
0000
0000
0000
0000
0000
,
2031
0000
0000
0000
0000
0000
0000
0000
0001
0000
0000
0000
0000
0000
0000
0000
0001
0200
0000
0000
0300
0000
0000
0000
0001
0200
0000
0000
0300
0000
0000
0000
,
3201
0001
0001
0001
,
0322
0033
0000
0000
0000
0000
0202
0303
0000
0000
0000
0000
2020
3030
0000
0000
0000
0000
2200
3300
0000
0000
0000
0000
,
0202
0303
0000
0000
0000
0000
0022
0033
0000
0000
0000
0000
0202
0303
0000
0000
0000
0000
2020
3030
0000
0000
1010
0000
,
0202
0303
0000
0000
0000
0000
0022
0033
0000
0000
0000
0000
0202
0303
0000
0000
0000
0000
2002
3003
0000
0000
0000
0000
,
2200
3300
0000
0000
0000
0000
2020
3030
0000
0000
0000
0000
0202
0303
0000
0000
1100
0000
0022
0033
0000
0000
0110
0000
,
2002
0000
0000
0000
,
0000
0000
0000
3000
0000
0000
0003
0000
,
1010
0000
0000
1010
0110
0101
0011
0000
0000
0101
0110
1010
,
1100
0000
0000
0110
0011
0101
0011
0000
0000
1100
0110
0101
,
0011
0000
0000
0101
0110
1010
0110
0101
0011
0110
1010
0110
,
0011
0011
0011
0011
0011
0011
0022
0000
0000
0000
0000
0000
,
1133
0000
0011
0000
0101
0000
1000
0010
0001
0010
1000
0010
0001
0010
1000
0010
0001
0010
1000
0010
0001
0010
1000
0001
,
1010
0000
0110
0000
0101
0000
0001
1000
0001
1000
0001
1000
0001
0000
0011
0000
0011
0000
1001
0000
1100
0000
1010
0000
,
1001
0000
0101
0000
0110
0000
1010
0000
0101
0000
1001
0000
0100
0001
1000
0001
0100
0001
1000
0001
0100
0001
1000
0001
,
0110
1010
0110
0101
0011
0101
1001
1100
1100
1100
1100
1100
,
1100
0000
0110
0000
0101
0000
1000
0010
0001
0010
1000
0010
0001
0010
1000
0010
0001
0010
1000
0010
0001
0010
1000
0010
,
0101
0000
0110
0000
1010
0000
0100
0001
0100
0001
0100
0001
0010
1000
0010
0001
0010
1000
0010
0001
0010
1000
0010
0100
,
1010
0000
1100
0000
0011
0000
0101
0000
1010
0000
1100
0000
0001
0100
0001
1000
0001
1000
0100
0010
0100
1000
0001
1000
,
0110
0101
0110
1010
1100
0011
1100
0110
0110
0110
0110
0110
,
0110
0000
0011
0000
0110
0000
1000
0100
0010
1000
0010
0001
1000
0001
0010
1000
0010
0100
0010
0001
1000
0001
0010
1000
,
0010
0000
0110
0000
1010
0000
0001
0100
1000
0100
0001
0100
1000
0100
0001
0100
1000
0100
0001
0100
1000
0100
0001
0100
,
1010
0000
0110
0000
0101
0000
0011
0000
0110
0000
1100
0000
0010
1000
0010
0100
0010
1000
0010
0100
0010
1000
0010
0100
,
0010
1100
1010
0101
0011
0101
1001
0110
0110
0110
0110
0110
,
0101
0000
0011
0000
0110
0000
0010
0100
0010
0001
0010
0100
0010
0001
0010
0100
0010
0001
0010
0100
1000
0010
0100
0001
,
1010
0000
0110
0000
0101
0000
0001
0100
0001
0100
0001
1000
0100
0001
0100
0001
0100
0001
0100
0001
0100
0001
0100
0001
,
1100
0000
0110
0000
0101
0000
0011
0000
1100
0000
0110
0000
0001
0100
0001
0100
0001
0100
0001
0100
0001
0100
0001
0100
,
0001
1100
0110
0101
0011
0110
0110
0101
0101
0101
0101
0101
,
1001
0110
0000
2002
3003
0110
0000
0110
0000
2002
3003
0110
,
0000
0110
0000
2002
3003
0110
0000
0110
0000
2002
3003
0110
,
0000
0110
0000
2002
3003
0110
0000
0110
0000
2002
3003
0110
,
1010
0110
0101
0011
0110
1010
0021
0000
0000
0000
0000
0100
,
1031
0101
0011
0101
0110
1010
0110
0101
0011
0110
1010
0110
,
0101
0011
0110
1100
1010
0110
0101
0110
1010
0110
0101
0110
,
1010
1100
1010
1100
1100
1100
1010
0110
0101
0011
0011
0011
,
0210
0000
0000
0320
0000
0000
0001
0032
0000
2003
0000
0000
,
3010
0100
0010
1000
0010
0100
0001
1000
0100
1000
0010
1000
0100
0010
0001
0010
0100
0010
0001
0100
0010
0001
0010
0100
,
0001
0100
1000
0100
0001
0100
1000
0100
0001
0100
1000
0100
0001
0100
1000
0100
0001
0100
1000
0100
0001
0100
1000
0100
,
0010
0100
0001
0100
0010
0100
0001
0100
0010
0100
0001
0100
0010
0100
0001
0100
0010
0100
0001
0100
0010
0100
0001
0100
,
1000
0100
0010
0100
1000
0100
0010
0100
1000
0100
0010
0100
1000
0001
0010
1000
0100
0010
0001
0100
1000
0001
0010
0100
,
1010
0001
0100
0010
0100
0001
0010
0100
0010
0001
1000
0010
1000
0001
0100
1000
0100
0010
0100
0001
0100
1000
0100
0010
,
1000
0010
0001
0010
0100
0010
1000
0001
0100
1000
0100
0010
1000
0100
1000
0100
0010
0100
0010
1000
0010
0100
0010
0001
,
0010
0100
0001
0100
1000
0100
0001
0100
1000
0100
0001
0100
1000
0001
0100
0001
1000
0100
0001
0100
1000
0001
0100
0001
,
1000
0001
0100
1000
0100
0001
0010
0100
0010
0001
0100
1000
0100
0001
0010
0100
0010
0001
0010
0100
1000
0100
0010
0001
,
1000
0001
0100
0001
0010
0001
1000
0001
0100
0001
0010
0001
1000
0001
0100
0001
0010
0001
1000
0001
0100
0001
0010
0001
,
0100
0010
0100
0001
0100
0010
0100
0001
0100
0010
0100
0001
1000
0001
1000
0001
1000
0001
1000
0001
1000
0001
1000
0001
,
1000
0010
0100
0010
1000
0010
0100
0010
1000
0010
0100
0010
0001
0010
0001
0010
0001
0010
0001
0010
0001
0010
0001
0010
,
0001
0010
1000
0100
0010
0001
0100
1000
0001
0010
1000
0100
0010
0001
0100
0010
1000
0100
0010
0001
0100
0010
1000
0100
,
0010
0100
0010
0100
0010
0001
0100
0010
0100
0010
0100
0001
1000
0010
1000
0010
1000
0010
0100
0001
0100
0001
0100
0001
,
1000
0100
1000
0100
1000
0100
0010
0001
0100
0001
0010
0001
0100
0010
0100
0010
0100
0010
1000
0100
0010
0100
0010
0001
,
0100
0010
0100
0010
0100
0010
1000
0010
1000
0010
1000
0010
0100
0010
0100
0010
0100
0010
0001
0010
0001
0010
0001
0010
,
1000
0010
0001
1000
0100
0001
0010
0100
1000
0010
0100
0001
0010
0001
0100
1000
0001
0010
1000
0100
0010
0001
1000
0100
,
0010
0100
0010
0100
0010
0100
1000
0100
1000
0100
1000
0100
0010
1000
0010
1000
0010
1000
0010
0100
0010
0100
0010
0100
,
1000
0010
1000
0010
1000
0010
0100
0010
0100
0010
0100
0010
0001
0010
0001
0010
0001
0010
1000
0010
1000
0010
1000
0010
,
0100
1000
0100
0001
0010
0001
0100
1000
0100
0001
0010
0001
0100
1000
0100
0001
0010
0001
0100
1000
0100
0001
0010
0001
,
0100
0001
1000
0010
1000
0001
0100
0001
1000
0010
1000
0001
0100
0001
1000
0010
1000
0001
0100
0001
1000
0010
1000
0001
,
0100
0001
0001
1000
0001
0001
1000
0010
0010
0100
0001
0001
0010
0100
1000
1000
0010
0100
0001
0001
0010
0100
0010
0010
,
0100
0100
1000
1000
0100
0100
0010
0010
0001
0001
0100
0100
0001
0001
1000
1000
0001
0001
1000
1000
0001
0001
0010
0010
,
0100
0100
0100
0100
0100
0100
0100
0100
0100
0100
0100
0100
0010
0010
0010
0010
0010
0010
0010
0010
0010
0010
0010
0010
,
0001
0100
0001
0100
0001
0100
0001
0100
0001
0100
0001
0100
0001
0100
0001
0100
0001
0100
1010
0010
1010
0010
1010
0010
,
2002
0000
0000
0000
,
3003
0000
0000
0000
;

//---------------dance-single - Darkmage----------------
#NOTES:
     dance-single:
     Darkmage:
     Hard:
     12:
     1.000,1.000,1.000,0.667,1.000,1246.000,342.000,70.000,0.000,9.000:
0000
0000
0000
0000
,
2000
0000
0000
0000
,
3020
0000
0000
0000
,
0230
0000
0000
0000
,
0302
0000
2003
0000
,
3200
0000
0000
0000
,
0320
0000
0000
0000
,
0032
0000
0000
0000
,
0000
0000
2003
0000
,
3002
0000
0000
0000
,
0023
0000
0000
0000
,
0230
0000
0000
0000
,
2300
0000
0000
0000
,
3002
0000
0000
0000
,
0000
0000
2003
0000
,
3200
0000
0000
0000
,
0320
0000
0000
0000
,
0031
0000
0000
1000
0000
0000
0001
0000
1000
0010
0000
0100
,
0001
0000
0000
1000
0000
0000
0001
0010
0001
0010
0000
0100
,
1000
0000
0000
0001
0000
0000
0100
0010
1000
0001
0000
1000
,
0100
1000
0010
0100
0000
0001
0010
0000
0000
0100
0000
1000
,
0001
0000
0000
1000
0000
0000
0010
0000
0100
0001
0000
0100
,
0010
0000
0000
1000
0000
0000
0001
0010
0001
0010
0000
0100
,
1000
0000
0000
0001
0000
0000
0100
0010
0100
0001
0000
1000
,
0100
1000
0010
0100
0000
0001
0010
0000
0000
0100
0000
1000
,
0001
0000
0000
1000
0000
0000
0010
0000
0100
0001
0000
0100
,
0010
0000
0000
1000
0000
0000
0001
0010
0001
0010
0000
0100
,
1000
0000
0000
0001
0000
0000
1000
0010
1000
0100
0000
0010
,
0001
1000
0010
1000
0000
0001
0010
0000
0000
0100
0000
1000
,
0010
0000
0000
1000
0000
0000
0001
0000
1000
0010
0000
1000
,
0100
0000
0000
0001
0000
0000
0100
1000
0010
0100
0000
0001
,
0100
0000
0000
0010
0000
0000
1000
0100
0010
0001
0000
1000
,
0010
0100
0001
0100
0000
0010
1000
0000
0000
0001
0000
1000
,
1100
1100
1100
1100
,
1010
0000
0000
1010
0000
0000
1010
0000
0000
1010
0000
1010
,
0110
0110
0110
0110
,
0101
0000
0000
0101
0000
0000
0101
0000
0101
0101
0000
0101
,
0011
0011
0011
0011
,
0101
0000
0000
0101
0000
0000
0101
0000
0000
0101
0000
0101
,
0110
0110
0110
0110
,
1010
1010
1010
0000
,
1001
1001
2010
3020
,
2030
0000
0000
3001
0000
0000
1000
0100
1000
0100
0000
0010
,
0001
1001
0201
0302
,
0103
0010
0100
0010
0000
0000
1000
0000
1000
1000
0000
0001
,
0002
0000
0000
0000
,
0000
0000
2003
0000
,
3001
0100
0001
0100
0001
0100
0010
1000
0010
1000
0010
1000
,
0001
0000
0010
0000
0001
0000
0010
0000
0001
0000
0010
0000
0100
1000
0100
1000
0100
1000
0100
1000
0100
1000
0100
1000
,
0011
0001
1000
0001
,
0100
0000
0000
0010
0000
0000
0100
0000
0000
0010
0000
1000
,
0100
1000
0100
1000
,
0001
0000
0000
0100
0000
0000
0001
0000
0010
0100
0000
1000
,
0001
1000
0001
1000
,
0010
0100
0001
1000
,
0001
0010
0001
0010
0001
0010
0100
1000
0100
1000
0100
1000
,
0010
0100
0010
0100
0010
0100
0010
0100
0010
0100
0010
0100
0022
0000
0000
0000
0000
0000
0000
0000
0000
0000
0000
0000
,
1133
0000
0000
1010
0000
0000
0001
0100
0001
0010
0000
0001
,
1000
0100
1000
0010
1000
0001
0100
0000
0000
0101
0000
0001
,
1010
0000
0000
0110
0000
0000
0010
0100
0001
0100
0000
0010
,
1000
0010
0100
0001
1000
0100
0022
0000
0000
0000
0000
0000
,
1133
0000
0000
0011
0000
0000
0100
1000
0010
0100
0000
0010
,
1000
0010
0100
0001
1000
0100
1000
0000
0001
0100
0000
1000
,
0110
0000
0000
0101
0000
0000
0010
0100
0001
0100
0000
1000
,
0010
0100
0001
0100
0010
1000
0202
0000
0000
0000
0000
0000
,
1313
0000
0000
1100
0000
0000
0100
0010
1000
0100
0000
0010
,
0001
0010
0100
0001
0100
0010
0001
0000
0000
0101
0000
0001
,
1100
0000
0000
1010
0000
0000
1000
0100
0010
1000
0000
0001
,
0010
0100
1000
0100
0010
0100
0022
0000
0000
0000
0000
0000
,
1133
0000
0000
0011
0000
0000
1000
0010
0001
0010
0000
0100
,
0001
0010
0001
0100
1000
0100
0010
0000
1000
0001
0000
1000
,
0101
0000
0000
0011
0000
0000
1000
0010
0001
0010
0000
0001
,
1000
0010
0100
1000
0100
0010
2200
0000
0000
0000
0000
0000
,
3311
0000
1100
0000
1010
0000
0001
0100
1000
0100
0000
0000
,
0011
0000
1100
0000
1010
0000
1000
0010
0001
0010
0100
0001
,
0110
0000
1100
0000
0011
0000
1000
0010
0001
0010
0000
0000
,
0101
0000
0000
1000
1000
0001
1000
0000
0010
0000
0100
0000
,
0101
0000
0110
0000
1010
0000
1000
0100
0001
0100
0000
0000
,
0110
0000
0011
0000
1010
0000
0100
0010
0100
1000
0100
0010
,
1100
0000
0011
0000
0101
0000
1000
0010
0100
1000
0000
0000
,
1010
0000
1001
0000
0101
0000
0220
0000
0000
0000
0000
0000
,
1331
0000
0011
0000
1100
0000
0010
0100
0001
0100
0000
0000
,
0011
0000
1100
0000
1010
0000
0010
0100
1000
0100
0010
1000
,
0101
0000
0011
0000
1100
0000
0010
0100
0001
0100
0000
0000
,
0010
0100
1000
0100
0010
1000
0001
0010
1000
0010
0001
0010
,
0101
0000
0011
0000
1100
0000
0010
0100
1000
0100
0000
0000
,
0011
0000
0101
0000
1010
0000
0010
0100
1000
0100
0010
1000
,
0101
0000
0011
0000
1100
0000
0010
0001
0100
1000
0000
0000
,
0100
0010
0100
0010
1000
0001
1000
0001
0100
0010
0100
0010
1000
0001
1000
0001
1000
0001
1000
0001
1000
0001
1000
0001
,
0110
0110
0110
0110
,
1010
1010
1010
1010
,
0101
0101
0101
0101
,
0011
0000
0000
0011
0000
0000
1001
0000
0001
1000
0000
0000
,
1010
1010
1010
1010
,
0110
0110
0110
0110
,
0101
0101
0101
0101
,
0100
0010
0100
0001
0100
0001
1000
0100
1000
0010
0100
0010
,
1100
1100
1100
1100
,
0011
0011
0011
0011
,
0101
0101
0101
0101
,
0110
0110
1010
0000
,
0100
0001
0100
0001
0100
0001
0100
0001
0100
0001
0100
0001
0100
0001
0100
0001
0000
0000
0101
0000
0000
0000
0000
0000
,
1010
1010
1010
1010
,
1100
1100
1100
1100
,
0101
0101
0110
0000
,
2010
0000
0000
0000
,
3020
0000
0000
0000
,
0230
0000
0000
0000
,
0302
0000
0000
0000
,
2003
0000
0000
0000
,
0000
0000
3002
0000
,
1003
0010
1000
0010
1000
0010
0100
0001
0100
0001
0100
0001
,
0010
0000
0001
0000
0010
0000
0001
0000
0010
0000
0001
0000
1000
0100
1000
0100
1000
0100
1000
0100
1000
0100
1000
0100
,
0012
0000
0000
0000
,
2003
0000
0000
0000
,
3020
0000
0000
0000
,
0230
0000
0000
0000
,
0302
0000
0000
0000
,
2003
0000
0000
0000
,
3200
0000
0000
0000
,
0000
0000
0320
0000
,
0032
0000
0000
0000
,
2003
0000
0000
0000
,
3020
0000
0000
0000
,
0230
0000
0000
0000
,
0302
0000
0000
0000
,
0000
0000
2003
0000
,
3200
0000
0000
0000
,
0312
0000
0000
0000
,
1013
0000
0000
0101
0000
0000
0010
0100
0010
0100
0000
0001
,
1100
0000
0000
0011
0000
0000
1000
0100
1000
0100
0000
0010
,
0101
0000
0000
0011
0000
0000
0001
0010
0001
0010
0000
0001
,
0100
0010
0100
0001
0000
0100
0010
0000
0000
1010
0000
0001
,
0110
0000
0000
1010
0000
0000
1100
0000
0010
0001
0000
1000
,
0010
0000
0000
1010
0000
0000
1000
0010
1000
0010
0000
0100
,
0011
0000
0000
1100
0000
0000
0001
0010
0001
0010
0000
0001
,
0100
1000
0100
0010
1000
0001
0010
1000
0010
0001
0010
0100
,
1010
1010
1020
2030
,
3020
1030
0010
1000
,
0101
0101
0021
0032
,
0023
0031
0010
0001
,
1100
1010
1100
1010
,
0110
0000
0000
0101
0000
0000
0110
0000
0000
0101
0000
0011
,
1100
1010
1100
1010
,
0110
0000
0000
0101
0000
0000
0110
0000
0110
1010
0000
1010
,
2001
3200
0320
0032
,
0000
0000
0000
0000
,
1013
0000
0000
1000
0010
0001
0010
0000
0000
0100
0001
0100
,
1000
0000
0000
0100
0010
1000
0100
0000
0000
0010
0100
0001
,
0100
0000
0000
0010
0001
1000
0010
0001
0010
0100
0001
0010
,
0101
1010
1100
0011
0101
0110
1001
0000
0000
0000
0000
0000
,
1010
0000
0000
0100
0010
1000
0001
0010
1000
0010
0100
0010
,
0001
1000
0010
0100
1000
0100
0010
1000
0001
0010
0001
1000
,
0010
0100
1000
0100
0010
1000
0001
0010
1000
0010
0001
1000
,
0010
0001
1000
0010
0100
0001
1100
1000
0001
0100
0010
1000
,
0101
0001
0100
0010
1000
0001
0010
0100
0001
0100
0010
0001
,
1000
0010
0100
0001
0100
1000
0100
0010
1000
0001
0010
0001
,
1000
0010
0100
0001
0100
0010
1000
0001
0010
1000
0010
0001
,
1000
0010
0100
0001
0100
0010
1010
1000
0001
0100
0010
0100
,
0011
0000
0001
1100
0000
1000
0110
0001
1000
0101
0000
1000
,
0011
0000
0001
1100
0000
0010
0101
1000
0010
1100
0000
1000
,
0101
0000
0010
1100
0000
0001
0110
1000
0100
0011
0000
0001
,
1100
0000
1000
0110
0000
0100
0011
0001
1000
0001
0100
0001
,
1100
0000
1000
0101
0000
0001
1100
1000
0001
0101
0000
0001
,
1010
0000
1000
0011
0000
0001
1010
1000
0001
0011
0000
0001
,
1100
0000
1000
0110
0000
0100
0011
0001
1000
1100
0000
0010
,
1001
0000
1000
0101
0000
0010
1100
0100
1000
0001
0100
0010
,
1000
0001
1000
0110
0010
0100
0001
0100
0010
0110
0100
0010
,
1000
0010
0100
0101
1000
0001
0100
0001
1000
1100
0001
1000
,
0010
1000
0001
0101
0100
0010
1000
0001
0010
0101
0010
0001
,
1010
0100
0001
0110
1000
0100
0011
0100
1000
0001
0100
0001
,
1010
0000
0000
1010
0000
0000
0001
0000
1000
0001
0000
0000
,
0011
0000
0000
0011
0000
0000
1000
0000
0001
1000
0000
0000
,
1010
0000
0110
0101
0000
0101
0011
0000
0011
1100
0000
1100
,
1010
0000
0000
0110
0000
0000
1010
0110
0000
0011
0000
0000
,
1010
0000
1100
0000
0011
0000
1000
0010
0100
1000
0000
0000
,
1100
0000
0110
0000
0101
0000
0001
0010
1000
0010
0100
1000
,
0101
0000
0110
0000
1010
0000
1000
0010
0001
0010
0000
0000
,
0100
1000
0100
0001
0100
0010
1000
0010
0001
0010
1000
0001
,
1010
0000
1100
0000
0011
0000
1000
0100
0001
0100
0000
0000
,
0011
0000
1100
0000
1010
0000
0010
0100
1000
0100
0010
1000
,
0101
1000
0101
1000
,
1000
0010
0100
1000
0100
0010
1000
0001
0010
1000
0010
0001
,
1100
0000
0101
0000
1010
0000
0100
0010
1000
0001
0000
0000
,
1100
0000
0011
0000
0101
0000
0010
0100
0001
0100
1000
0100
,
1010
0000
1100
0000
0011
0000
0001
0010
1000
0010
0000
0000
,
0001
0100
1000
0100
0100
0010
1000
0001
1000
0100
0010
0100
,
0011
0000
1100
0000
0101
0000
0001
0010
0100
0001
0000
0000
,
1010
0000
0011
0000
0101
0000
0001
0100
1000
0100
0010
1000
,
0110
0000
1100
0000
0011
0000
0010
0100
1000
0100
0000
0000
,
0011
0000
1100
0000
0101
0000
1001
0000
0000
0000
0000
0000
,
1010
0000
0110
0000
0101
0000
0001
0010
0100
1000
0000
0000
,
0011
0000
1100
0000
1010
0000
1000
0010
0001
0010
0100
0001
,
1010
0000
1100
0000
0011
0000
0001
0100
1000
0100
0000
0000
,
0011
0100
1000
0001
0001
1000
0010
0100
0001
0010
0100
1000
,
0011
0000
1100
0000
1010
0000
0101
0101
1010
1010
0000
0000
,
1100
0000
0011
0000
0101
0000
1010
1010
1100
0011
0011
1100
,
1010
0000
0101
0000
0011
0000
1100
1100
0011
0011
0000
0000
,
1000
0000
0001
0000
1000
0000
0001
0000
1000
0000
0001
0000
1000
0100
0010
0001
1000
0100
0010
0001
1000
0100
0010
0001
,
0220
0000
0000
0000
,
0330
0000
0000
0000
;

//---------------dance-single - Darkmage----------------
#NOTES:
     dance-single:
     Darkmage:
     Edit:
     25:
     1.000,1.000,1.000,1.000,1.000,1841.000,1129.000,394.000,0.000,299.000:
0000
0000
0000
0000
,
2000
0000
0000
0000
,
3020
0000
0000
0000
,
0230
0000
0000
0000
,
0302
0000
0203
0000
,
2300
0000
0000
0000
,
3020
0000
0000
0000
,
0032
0000
0000
0000
,
0000
0000
2003
0000
,
3020
0000
0000
0000
,
0230
0000
0000
0000
,
0302
0000
0000
0000
,
2003
0000
0000
0000
,
3002
0000
0000
0000
,
0000
0000
2003
0000
,
3200
0000
0000
0000
,
0302
0000
0000
0000
,
1103
0000
0000
1010
0000
0000
1100
0000
1010
1100
0000
1100
,
1010
0000
0000
0000
0000
0000
1100
0000
0000
0000
0000
0000
1010
0000
0110
0000
1010
0000
0110
0000
0000
0000
1000
0100
,
0011
0000
0000
0000
0000
0000
0101
0000
0000
0000
0000
0000
0011
0000
1001
0000
0101
0000
0011
0000
0000
0000
1000
0100
,
0011
0000
0110
0000
1001
0000
0011
0000
0000
0000
1000
0100
0011
0000
0000
0000
0000
0000
0101
0000
0000
0000
0011
0000
,
1001
0000
0000
0000
0000
0000
0101
0000
0000
0000
0000
0000
0110
0000
0000
0000
1100
0000
0101
0000
0000
0000
0001
1000
,
0101
0000
0000
0000
0000
0000
1010
0000
0000
0000
0000
0000
0110
0000
0101
0000
0110
0000
1010
0000
0000
0000
1000
0010
,
1100
0000
0000
0000
0000
0000
0110
0000
0000
0000
0000
0000
0101
0000
0110
0000
1100
0000
1001
0000
0000
0000
1000
0100
,
0011
0000
0101
0000
0110
0000
1010
0000
0000
0000
0010
0100
0011
0000
0000
0000
0000
0000
0101
0000
0000
0000
0110
0000
,
2200
3300
0000
0000
0000
0000
0022
0033
0000
0000
0000
0000
2200
3300
0000
0000
0001
0010
2200
3300
0011
0000
1010
0000
,
0202
0303
0000
0000
0000
0000
2020
3030
0000
0000
0000
0000
0202
0303
0011
0000
0110
0000
2020
3030
0000
0000
0100
0010
,
2002
3003
0000
0000
0000
0000
0202
0303
0000
0000
0000
0000
2020
3030
1100
0000
0011
0000
0202
0303
0000
0000
1000
0100
,
0022
0033
1100
0000
0011
0000
0202
0303
0000
0000
0001
0010
2200
3300
0000
0000
0000
0000
0202
0303
0000
0000
0110
0000
,
2020
3030
0000
0000
0000
0000
2200
3300
0000
0000
0000
0000
2020
3030
0000
0000
0001
0010
2200
3300
0000
0000
0010
0001
,
2200
3300
0000
0000
0000
0000
0202
0303
0000
0000
0000
0000
2020
3030
0011
0000
1010
0000
2002
3003
0000
0000
1000
0010
,
0202
0303
0000
0000
0000
0000
0022
0033
0000
0000
0000
0000
2200
3300
1010
0000
0110
0000
0202
0303
0000
0000
0001
0010
,
2200
3300
0011
0000
1100
0000
2020
3030
0000
0000
0100
0010
2200
3300
0000
0000
0000
0000
0202
0303
0000
0000
0011
0000
,
2202
3300
0000
0000
0000
0000
0110
0000
0000
0200
0000
0000
1010
0000
0000
2300
0010
0000
0100
0000
0000
3020
0100
0000
,
2103
0000
0000
0030
0000
0000
0101
0000
0000
0000
0000
0000
0001
0000
0011
0000
0110
0000
0001
0000
0000
0000
0100
0010
,
3201
0000
0000
0000
0000
0000
1010
0000
0000
2000
0000
0000
0011
0000
0000
3002
0010
0000
1010
0000
0000
2003
0010
0000
,
0312
0000
0010
3000
0100
0000
0010
0000
0000
0000
1000
0100
0010
0000
0000
0000
0000
0000
0110
0000
0000
0000
0010
0000
,
2013
0000
0000
0000
0000
0000
0101
0000
0000
0200
0000
0000
0011
0000
0000
0320
0001
0000
0101
0000
0000
0230
0001
0000
,
3021
0000
0000
0300
0000
0000
1001
0000
0000
0000
0000
0000
0001
0000
1001
0000
0101
0000
1000
0000
0000
0000
0001
1000
,
0231
0000
0000
0000
0000
0000
0011
0000
0000
0002
0000
0000
1010
0000
0010
2003
0010
0000
0010
0000
0000
3002
0010
1000
,
0010
0000
1000
0003
0010
0000
1000
0000
0010
0000
1000
0000
0312
0000
0000
0000
0000
0000
1100
0000
0000
0000
0010
0000
,
1123
0000
0000
0000
0000
0000
0101
0000
0000
0002
0000
0000
1100
0000
0100
2003
0001
0000
0101
0000
0000
3002
0100
0000
,
2130
0000
0100
0003
0010
0000
0101
0000
0000
0000
0000
0000
0100
0010
0001
0000
0100
0000
0011
0000
0000
0000
0010
0100
,
3012
0000
0000
0000
0000
0000
1100
0000
0000
0020
0000
0000
1000
0000
0100
2030
0010
0000
0100
0000
0000
3020
1000
0100
,
2103
0000
0100
0030
0010
0000
0110
0000
0000
0000
0001
0010
0101
0000
0000
0000
0010
0000
0010
0000
0000
0000
0010
0000
,
3211
0000
0000
0000
,
0000
0000
0000
0000
0000
0000
0312
0010
0010
0010
0010
0010
,
2013
0001
0001
0001
0001
0001
0001
0001
0001
0001
0001
0001
,
3021
0000
0001
0000
0001
0000
0001
0000
0001
0000
0001
0000
0001
1000
0001
1000
0001
1000
0001
1000
0001
1000
0001
1000
,
0132
0003
0000
0000
0000
0000
0002
0003
0000
0000
0000
0000
0002
0003
0000
0000
0000
0000
0002
0003
0000
0000
0000
0000
,
0002
0003
0000
0000
0000
0000
0002
0003
0000
0000
0000
0000
0002
0003
0000
0000
0000
0000
0002
0003
0000
0000
0002
0003
,
2000
3000
0000
0000
0000
0000
2000
3000
0000
0000
0000
0000
2000
3000
0000
0000
0000
0000
2000
3000
0000
0000
0000
0000
,
2000
3000
0000
0000
0000
0000
2000
3000
0000
0000
0000
0000
2000
3000
0000
0000
2000
3000
0002
0003
0000
0000
2000
3000
,
0200
0300
0000
0000
0000
0000
0200
0300
0000
0000
0000
0000
0200
0300
0000
0000
0000
0000
0200
0300
0000
0000
0000
0000
,
0201
0300
0010
0000
0001
0000
1200
0300
0010
0000
0001
0000
0210
0300
0001
0000
1000
0000
0210
0300
0001
0000
0200
0300
,
1020
0030
0001
0000
0100
0000
1020
0030
0001
0000
0100
0000
0021
0030
0001
0000
0100
0000
1020
0030
0100
0000
0001
0000
,
1020
0031
0100
0001
1000
0100
1020
0031
0100
0001
1000
0100
1112
0000
0000
0000
0000
0000
0000
0000
0000
0000
0000
0000
,
1113
0000
0000
0110
0000
0000
1010
0110
1100
1010
0000
1010
,
1100
0110
0101
0110
1010
1100
0110
0000
0000
0101
0000
0110
,
1010
0000
0000
0110
0000
1010
0110
0101
0110
1010
0000
0101
,
0110
1010
0110
0101
0110
1010
1201
0000
0000
0000
0000
0000
,
1311
0000
0000
0110
0000
0000
0011
0110
0011
0101
0000
0011
,
0101
0110
0101
0011
0101
0110
0011
0000
0011
0110
0000
0110
,
0011
0000
0000
0101
0000
0000
0011
0110
0011
0101
0000
0011
,
0110
0101
0011
0101
0011
0110
2101
0000
0000
0000
0000
0000
,
3111
0000
0000
0000
0000
0000
1100
0000
0000
0000
0000
0000
0001
0010
0100
0000
1010
0000
0101
0000
0000
0000
1000
0100
,
0011
1100
0110
0011
1001
0101
1100
0000
0000
0101
0000
0011
,
1100
0000
0000
0000
0000
0000
0011
0000
0000
0000
0000
0000
1100
0000
0110
0000
0101
0000
0011
0000
0000
0000
1000
0010
,
0101
1010
0110
0011
1100
0110
1201
0000
0000
0000
0000
0000
,
1311
0000
0000
0000
0000
0000
0101
0000
0000
0000
0000
0000
0011
0000
0110
0000
1100
0000
0101
0000
0000
0000
0100
1000
,
0011
0000
0110
0000
1010
0000
0101
0000
0011
0000
1010
0000
0011
0000
0000
0000
1000
0010
0101
0000
0000
0000
0001
0100
,
1010
0000
0000
1100
0000
0000
1010
0110
0101
1100
0000
0000
,
1010
0110
0101
0110
0011
1100
1221
0000
0000
0000
0000
0000
,
1331
0000
2000
0011
3200
0000
2320
3232
2323
3232
0303
0000
,
1001
0000
0200
1310
0002
0003
2010
3012
0123
0231
2310
3120
,
2031
3000
1020
0131
2010
3000
0120
2130
3201
0322
0003
0000
,
1032
0000
0000
1003
1000
2000
3002
0000
2003
3002
0000
0000
,
1103
0000
0020
1100
0032
0000
1203
0312
0123
2230
0300
0000
,
3110
0000
2000
0110
3002
0000
0123
1230
0312
0123
0132
0213
,
0311
0000
0200
0011
2300
0000
3012
0123
2230
3311
0000
0000
,
1000
0000
1000
0000
1000
0000
2000
0000
0000
0000
0000
0000
,
3011
0000
0012
1100
0213
0000
0312
0223
1302
1133
0000
0000
,
1010
0000
0120
0131
1020
0030
2010
3201
0321
0132
0123
2230
,
3311
0000
0120
1130
0022
0033
0011
2020
3132
1103
0000
0000
,
0022
1233
2320
3231
0322
1233
1310
0011
1010
1100
0101
1100
,
1001
0000
0201
1001
1320
0000
2031
3201
0321
1032
0003
0000
,
1100
0000
0012
1103
1020
0030
1200
0321
1032
1203
2310
3120
,
0131
0000
0021
0131
2010
3000
0201
0312
2013
3101
0001
0001
,
0011
1000
0011
1000
0011
1000
0101
1000
0101
1000
0110
1000
0101
1000
0011
1000
0110
1000
0011
1000
0101
1000
0101
1000
,
0121
1100
0101
1100
,
2131
0110
0101
0011
,
3211
1010
1001
0011
,
1001
0000
0000
0011
0000
0000
0310
0000
0010
0100
0000
0000
,
1102
0110
1100
1010
,
1123
1001
0101
1100
,
2131
0011
0110
0101
,
3001
0001
0001
0001
0001
0001
1000
1000
1000
1000
1000
1000
,
2110
0101
0011
0101
,
3121
1100
1001
1100
,
1231
0011
1001
0011
,
1312
0110
1113
0000
,
1102
0010
0100
0010
0100
0010
0100
0010
0100
0010
0100
0010
0100
0010
0100
1010
0000
0000
1100
0000
0000
0000
0000
0000
,
2113
0101
0011
0101
,
3112
1010
0110
1010
,
1100
0110
2113
0000
,
3112
0000
0000
0000
,
2003
0000
0000
0000
,
3020
0000
0000
0000
,
0230
0000
0000
0000
,
0302
0000
0000
0000
,
0000
0000
2003
0000
,
3210
0010
0010
0010
0010
0010
0010
0010
0010
0010
0010
0010
,
0320
0100
0001
0100
0001
0100
0001
0100
0001
0100
0001
0100
0001
0100
0001
0100
0001
0100
0001
0100
0001
0100
0001
0100
,
1132
0000
0000
0000
,
2003
0000
0000
0000
,
3002
0000
0000
0000
,
0203
0000
0000
0000
,
0320
0000
0000
0000
,
2030
0000
0000
0000
,
3002
0000
0000
0000
,
0000
0000
2003
0000
,
3020
0000
0000
0000
,
0032
0000
0000
0000
,
2003
0000
0000
0000
,
3002
0000
0000
0000
,
0203
0000
0000
0000
,
0000
0000
0302
0000
,
0203
0000
0000
0000
,
1321
0000
0000
0000
,
1131
0000
0000
0000
0000
0000
1100
0000
0000
0000
0000
0000
1010
0000
0000
0000
1100
0000
1010
0000
0000
0000
1000
0100
,
0011
0000
0000
0000
0000
0000
0101
0000
0000
0000
0000
0000
0011
0000
0011
0000
0011
0000
0101
0000
0000
0000
0100
0010
,
0101
0000
0000
0000
0000
0000
0110
0000
0000
0000
0000
0000
1010
0000
0110
0000
0110
0000
1010
0000
0000
0000
0001
0010
,
1100
0000
0110
0000
0101
0000
0101
0000
0000
0000
0000
0000
0011
0000
0000
0000
0000
0000
0101
0000
0000
0000
0010
0100
,
1001
0000
0000
1100
0000
0000
1010
0000
1100
1010
0000
1100
,
1010
0000
0000
0000
0000
0000
0101
0000
0000
0000
0000
0000
1100
0000
1100
0000
1100
0000
1001
0000
0000
0000
0100
0001
,
1010
0000
0000
0000
0000
0000
1100
0000
0000
0000
0000
0000
1000
0100
0011
0000
1100
0000
0011
0000
0000
0000
0011
0000
,
1200
2310
3102
0123
2031
3210
0312
1023
2130
3102
0213
2310
,
3211
0000
0001
0000
2001
3000
2001
3000
,
2321
3000
0001
0000
0001
0000
0001
0000
,
2031
0000
0001
0000
0021
0030
0021
0030
,
3221
0030
0001
0000
0001
0000
0001
0000
,
0322
0033
0000
0000
0000
0000
0202
0303
0000
0000
0000
0000
2020
3030
0000
0000
0000
0000
2200
3300
0000
0000
0000
0000
,
0202
0303
0000
0000
0000
0000
0022
0033
0000
0000
0000
0000
0202
0303
0000
0000
0000
0000
2020
3030
0000
0000
1010
0000
,
0202
0303
0000
0000
0000
0000
0022
0033
0000
0000
0000
0000
0202
0303
0000
0000
0000
0000
2002
3003
0000
0000
0000
0000
,
2200
3300
0000
0000
0000
0000
2020
3030
0000
0000
0000
0000
0202
0303
0000
0000
1100
0000
0022
0033
0000
0000
0110
0000
,
2222
0000
0000
0000
,
0000
0000
0000
3000
0300
0030
0003
0000
,
1110
0000
0000
1010
0110
0101
0011
0000
0000
0101
0110
1010
,
1100
0000
0000
0110
0011
0101
0011
0000
0000
1100
0110
0101
,
0011
0000
0000
0101
0110
1010
0110
0101
0011
0110
1010
0110
,
0011
0011
0011
0011
0011
0011
0122
0000
0000
0000
0000
0000
,
1133
0000
0011
0000
0101
0000
1100
0010
0001
0010
1100
0010
0001
0010
1100
0010
0001
0010
1100
0010
0001
0010
1100
0001
,
1010
0000
0110
0000
0101
0000
0011
1000
0011
1000
0011
1000
0011
0000
0011
0000
0011
0000
1001
0000
1100
0000
1010
0000
,
1001
0000
0101
0000
0110
0000
1010
0000
0101
0000
1001
0000
0110
0001
1010
0001
0110
0001
1010
0001
0110
0001
1010
0001
,
0110
1010
0110
0101
0011
0101
1021
1100
1100
1100
1100
1100
,
1130
0000
0110
0000
0101
0000
1100
0010
0101
0010
1100
0010
0101
0010
1100
0010
0101
0010
1100
0010
0101
0010
1100
0010
,
0101
0000
0110
0000
1010
0000
1100
0001
1100
0001
1100
0001
0110
1000
0110
0001
0110
1000
0110
0001
0110
1000
0011
0100
,
1010
0000
1100
0000
0011
0000
0101
0000
1010
0000
1100
0000
0011
0100
0011
1000
0011
1000
0101
0010
0101
1000
0101
1000
,
0110
0101
0110
1010
1100
0011
1102
0110
0110
0110
0110
0110
,
0113
0000
0011
0000
0110
0000
1010
0100
0011
1000
0110
0001
1100
0001
0110
1000
0011
1000
0110
0001
1100
0001
0110
1000
,
0011
0000
0110
0000
1010
0000
0011
0100
1010
0100
0011
0100
1010
0100
0011
0100
1010
0100
0011
0100
1010
0100
0011
0100
,
1010
0000
0110
0000
0101
0000
0011
0000
0110
0000
1100
0000
0011
1000
0011
0100
0011
1000
0011
0100
0011
1000
0011
0100
,
0011
1100
1010
0101
0011
0101
2011
0110
0110
0110
0110
0110
,
3111
0000
0011
0000
0110
0000
1010
0100
1010
0001
1010
0100
1010
0001
1010
0100
1010
0001
1010
0100
0001
1010
0100
0001
,
1010
0000
0110
0000
0101
0000
0011
0100
0011
0100
0011
1000
0110
0001
1100
0001
1100
0001
1100
0001
1100
0001
1100
0001
,
1100
0000
0110
0000
0101
0000
0011
0000
1100
0000
0110
0000
0011
1100
0011
1100
0011
1100
0011
1100
0011
1100
0011
1100
,
0011
1100
0110
0101
0011
0110
1120
0101
0101
0101
0101
0101
,
1131
0110
0000
2222
3333
0110
0000
0110
0000
2222
3333
0110
,
0000
0110
0000
2222
3333
0110
0000
0110
0000
2222
3333
0110
,
0000
0110
0000
2222
3333
0110
0000
0110
0000
2222
3333
0110
,
1010
0110
0101
0011
0110
1010
1021
0000
0000
0000
0000
1100
,
1031
0101
0011
0101
0110
1010
0110
0101
0011
0110
1010
0110
,
0101
0011
0110
1100
1010
0110
0101
0110
1010
0110
0101
0110
,
1010
1100
1010
1100
1100
1100
1010
0110
0101
0011
0011
0011
,
0211
0000
0000
0320
0000
0000
0001
0032
0000
2003
0000
0000
,
3011
0100
0011
1000
0011
0100
0011
1000
0110
1000
0011
1000
0110
0001
1010
0001
0110
0001
1010
0100
1010
0001
1010
0100
,
0011
0100
1000
0100
0011
0100
1000
0100
0011
0100
1000
0100
0011
0100
1000
0100
0011
0100
1000
0100
0011
0100
1000
0100
,
1010
0100
0001
0100
1010
0100
0001
0100
1010
0100
0001
0100
1010
0100
0001
0100
1010
0100
0001
0100
1010
0100
0001
0100
,
1010
0100
0011
0100
1010
0100
0011
0100
1010
0100
0011
0100
1000
0010
0001
0100
1000
0010
0001
0100
1000
0010
0001
0100
,
1010
0001
1100
0010
1100
0001
1010
0100
1010
0001
1100
0010
1100
0001
0110
1000
0101
0010
1100
0001
0110
1000
0101
0010
,
1100
0010
0101
0010
1100
0010
1100
0001
0110
1000
0101
0010
1100
0010
0101
1000
0011
0100
0011
1000
0110
1000
0011
0100
,
1010
0100
0011
0100
1010
0100
0011
0100
1010
0100
0011
0100
1010
0001
0110
0001
1010
0100
0011
0100
1010
0001
1100
0001
,
1010
0001
0110
1000
0101
1000
0110
0001
1010
0001
0110
1000
0101
1000
0110
0001
1010
0001
0110
1000
0101
1000
0110
0001
,
1010
0001
1100
0001
1010
0001
1100
0001
1010
0001
1100
0001
1010
0001
1100
0001
1010
0001
1100
0001
1010
0001
1100
0001
,
1100
0010
1100
0001
1100
0010
1100
0001
1100
0010
1100
0001
1100
0011
1100
0011
1100
0011
1100
0011
1100
0011
1100
0011
,
1100
0010
1001
0010
0101
0010
1001
0010
0101
0010
1001
0010
0101
1010
0101
1010
0101
1010
0101
1010
0101
1010
0101
1010
,
0101
0010
1000
0100
0001
0010
1000
0100
0001
0010
1000
0100
0001
0010
0100
1000
0001
0010
0100
1000
0001
0010
0100
1000
,
0011
1100
0011
1100
0011
1000
0101
1010
0101
1010
0101
1000
0101
0010
1100
0010
0101
0010
1100
0011
1100
0011
1100
0011
,
1000
0101
1000
0101
1000
0101
1010
0001
1100
0001
1010
0001
1100
0011
1100
0011
1100
0011
1000
0101
1010
0100
0011
1000
,
0101
0010
0101
0010
0101
0010
1001
0010
1001
0010
1001
0010
1100
0010
1100
0010
1100
0010
1001
0010
1001
0010
1001
0010
,
1000
0010
0001
0100
1000
0010
0100
0001
0010
1000
0100
0001
0010
0001
0100
1000
0010
0001
0100
1000
0010
0001
0100
1000
,
0011
0100
0011
0100
0011
0100
1010
0100
1010
0100
1010
0100
0011
1000
0011
1000
0011
1000
0110
1000
0110
1000
0110
1000
,
0101
0010
0101
0010
0101
0010
1100
0010
1100
0010
1100
0010
0101
0010
0101
0010
0101
0010
1100
0010
1100
0010
1100
0010
,
1001
0100
1001
0010
1001
0100
1001
0010
1001
0100
1001
0010
1001
0100
1001
0010
1001
0100
1001
0010
1001
0100
1001
0010
,
1100
0001
1000
0011
1000
0001
1100
0001
1000
0011
1000
0001
1100
0001
1000
0011
1000
0001
1100
0001
1000
0011
1000
0001
,
1100
0011
0101
1010
0101
0011
1100
0110
0011
0101
1010
1100
0011
0101
1010
1100
0011
0101
1010
1100
0011
0101
1010
0110
,
0101
0110
1010
0110
0101
0110
1010
0110
0101
0110
1010
0110
0101
0110
1010
0110
0101
0110
1010
0110
0101
0110
1010
0110
,
0011
1010
0011
1010
0011
1010
0011
1010
0011
1010
0011
1010
1100
0101
1100
0101
1100
0101
1100
0101
1100
0101
1100
0101
,
1001
0110
1001
0110
1001
0110
1001
0110
1001
0110
1001
0110
1001
0110
1001
0110
1001
0110
1111
1111
1111
1111
1111
1111
,
2222
0000
0000
0000
,
3333
0000
0000
0000
;
