#TITLE:Critical Crystal;
#SUBTITLE:;
#ARTIST:Seiryuu;
#TITLETRANSLIT:;
#SUBTITLETRANSLIT:;
#ARTISTTRANSLIT:;
#CREDIT:;
#BANNER:../banner.png;
#BACKGROUND:../bg.png;
#LYRICSPATH:;
#CDTITLE:;
#MUSIC:Critical Crystal.ogg;
#OFFSET:0.744;
#SAMPLESTART:147.500;
#SAMPLELENGTH:20.300;
#SELECTABLE:YES;
#BPMS:0.000=191.000;
#STOPS:;
#BGCHANGES:;
// cache tags:
#FIRSTBEAT:4.000;
#LASTBEAT:645.500;
#SONGFILENAME:Songs/Cirque du Lykan/Critical Crystal - [Zaia]/Critical Crystal.sm;
#HASMUSIC:1;
#HASBANNER:1;
#MUSICLENGTH:205.714;
// end cache tags

//---------------dance-single - Zaia - 14(high)----------------
#NOTES:
     dance-single:
     Zaia - 14(high):
     Challenge:
     14:
     1.000,1.000,0.029,0.865,1.000,1906.000,6.000,178.000,0.000,0.000:
0000
0000
0000
0000
,
1000
0000
0001
0000
0100
0010
0100
0010
1000
0000
0001
0010
0100
0000
1000
0000
,
0001
0100
0001
0000
1000
0100
1000
0000
0010
0000
0100
0000
0001
0000
0001
0000
,
1000
0100
0010
0001
1000
0001
0100
0010
0100
0001
0010
0001
1000
0100
1000
0001
,
0100
0010
1000
0001
0010
0100
0010
0001
1000
0000
0010
0000
0100
0001
0100
0001
,
1000
0000
0001
0000
1000
0000
0010
0200
0000
0300
0001
0000
1000
0001
0010
0100
,
1000
0000
0001
0000
0100
0000
0001
0100
0020
0000
2030
0000
3002
0000
0023
0000
,
0130
1000
0010
0100
0001
1000
0001
0010
0100
0000
1000
0000
0001
0000
1000
0000
,
0001
0010
0001
1000
0010
0100
0010
1000
0001
0000
0010
0000
0100
1000
0100
1000
,
0001
0000
0000
0000
0000
0000
0100
0000
0000
0000
0000
0000
0020
0000
0000
0030
0000
0000
4000
0000
0000
0000
3000
0000
0001
0000
0000
0000
0000
0000
0010
0000
0000
0000
0000
0000
0001
0000
0000
0000
0000
0000
0100
0000
0000
0000
0000
0000
,
0010
1000
0100
1000
0001
0010
0001
0100
0001
0000
1000
0000
0100
0000
1000
0000
,
0001
0000
1000
0010
0000
1000
0100
1000
0001
0000
0100
0000
0010
0000
0100
0000
,
0001
0000
1000
0100
0000
1000
0010
1000
0001
0000
1000
0000
0100
0000
0010
0000
,
0100
0000
1000
0010
0000
1000
0100
0010
0001
0000
0100
0000
0010
0000
1000
0000
,
0001
0000
1000
0100
0000
1000
0010
0100
0001
0000
1000
0000
0001
0000
0010
0000
,
0200
0300
0000
0000
2000
3000
0000
0000
0200
0300
0000
0000
2000
3000
0000
0000
0200
0300
0000
0000
2000
3000
0000
0000
0020
0030
0000
0000
0200
0300
0000
0000
,
0020
0030
0000
0000
0200
0300
0000
0000
0020
0030
0000
0000
0200
0300
0000
0000
0020
0030
0000
0000
0200
0300
0000
0000
0020
0030
0000
0000
0200
0300
0000
0000
,
0002
0003
0000
0000
0200
0300
0000
0000
0001
0000
1000
0000
0010
0000
1000
0000
0002
0003
0000
0000
0200
0300
0000
0000
0002
0003
0000
0000
0020
0030
0000
0000
,
0002
0003
0000
0000
0020
0030
0000
0000
0200
0300
0000
0000
2000
3000
0000
0000
0020
0030
0000
0000
0200
0300
0000
0000
0001
0000
0000
0000
0010
0000
0000
0000
,
0100
1000
0001
1000
0100
0010
0001
1000
0010
1000
0001
0100
0001
0010
0001
1000
,
0100
1000
0010
0100
0001
1000
0001
0010
0100
0010
0001
0100
0010
1000
0001
0010
,
0001
1000
0001
0100
0010
0100
0001
1000
0100
1000
0001
0010
0001
0100
0001
1000
,
0010
0100
0001
0010
0001
0100
0010
1000
,
0001
0010
0001
1000
0001
0010
0100
1000
0001
0100
0001
1000
0010
1000
0100
1000
,
0001
0010
0001
0100
0010
1000
0001
1000
0100
0010
0100
1000
0010
0100
0001
1000
,
0100
1000
0001
1000
0010
0100
0010
1000
0001
0010
0001
1000
0100
1000
0010
1000
,
0001
0000
0100
0000
0010
1000
0010
1000
0001
0000
0010
0000
0100
0000
1000
0000
,
0010
0100
0001
1000
0100
1000
0001
0100
,
0010
0000
0000
0000
0000
0000
1000
0000
0000
0000
0000
0000
1000
0000
0000
0000
0000
0000
0001
0000
0000
0000
0000
0000
0020
0000
0000
0030
0000
0000
0400
0000
0000
0000
0300
0000
1000
0000
0000
0010
0000
0000
1000
0000
0000
0001
0000
0000
,
0100
0010
1000
0001
0010
0001
1000
0010
,
0100
0000
0000
0000
0000
0000
0001
0000
0000
0000
0000
0000
0001
0000
0000
0000
0000
0000
1000
0000
0000
0000
0000
0000
0400
0000
0000
0000
0300
0000
1000
0000
0000
0001
0000
0000
0010
0000
0000
0001
0000
0000
0100
0000
0000
0010
0000
0000
,
1000
0001
0100
0010
1000
0001
0010
0100
,
1100
0000
0000
0000
0000
0000
1000
0000
0000
0000
0000
0000
0001
0000
0000
0000
0000
0000
0100
0000
0000
0000
0000
0000
0020
0000
0000
0030
0000
0000
4000
0000
3000
0001
0000
0000
0100
0000
0000
0001
0000
0000
0010
0000
0000
0100
0000
0000
,
1000
0010
0100
0001
0110
1000
0110
0001
,
0000
0001
0000
1000
0000
0010
0000
0100
,
0001
0010
0100
1000
0010
0100
0001
0010
,
0000
0100
0000
0010
0000
0100
0010
0001
,
0100
0010
1000
0001
1000
0100
0010
0001
,
0000
1000
0000
0001
0000
0100
0010
1000
,
0001
0010
0001
0100
0010
1000
0100
0010
,
0000
0001
0000
0010
0000
0100
1000
0001
,
0100
0010
0100
0001
0010
0100
1000
0001
,
0000
0100
0000
0001
0000
1000
0100
0010
,
0001
0000
1000
0010
1000
0001
0010
0100
,
0000
0100
0000
0100
0000
0000
0000
0000
,
0000
0000
0000
0000
,
1000
0100
0010
0001
1000
0001
0100
0010
0100
0001
0010
0100
1000
0001
1000
0001
,
0010
0001
0100
0010
1000
0001
0010
0100
1000
0010
1000
0001
0010
0100
1000
0001
,
0100
0010
0100
0001
1000
0001
0010
0100
0010
0001
0100
0010
1000
0001
1000
0001
,
0100
0001
0010
0100
1000
0001
0100
0010
1000
0100
1000
0001
0100
0010
1000
0001
,
0010
0001
0100
0010
1000
0001
1000
0100
0010
0100
1000
0010
0100
0001
1000
0001
,
1000
0010
1000
0100
0010
0001
1000
0010
0100
0001
0010
0001
1000
0010
0100
0001
,
1000
0100
0010
0100
1000
0001
1000
0010
0100
0010
1000
0100
0010
0001
1000
0001
,
1000
0100
1000
0010
0100
0001
1000
0100
0010
0001
0100
0001
1000
0100
0010
0001
,
0200
0000
0302
0000
2003
0000
3200
0000
1300
0001
0010
0100
1000
0001
1000
0001
,
0200
0000
0302
0000
0023
0000
0032
0000
1003
0010
1000
0001
0010
0100
1000
0001
,
0200
0000
0000
0000
0320
0000
0000
0000
2030
0000
0000
0000
3002
0000
0000
0003
0010
0000
0001
0000
0100
0000
0010
0000
1000
0000
0001
0000
1000
0000
0001
0000
,
0200
0000
0000
0000
0302
0000
2003
0000
3001
0010
0001
1000
0010
0100
0001
1000
,
0100
1000
0010
0100
0001
1000
0001
0010
0100
0010
0001
0100
0010
1000
0001
1000
,
0001
0100
0001
0010
0100
1000
0001
0100
0001
1000
0100
1000
0001
0100
0010
1000
,
0001
0010
0100
0010
0001
1000
0001
0100
0010
1000
0001
0010
0100
1000
0001
1000
,
0001
0100
0010
1000
0001
0100
0001
0010
0100
1000
0001
0100
0001
1000
0100
1000
,
0001
0000
0010
0000
0001
1000
0001
1000
0010
0000
0100
0001
1000
0000
0100
0000
,
0010
0100
1000
0001
1000
0010
0100
0001
2000
0000
3000
0000
0001
0000
0001
0000
,
1000
0100
0010
0001
1000
0001
0100
0010
0100
0001
0010
0100
1000
0001
1000
0001
,
0010
0001
0100
0010
1000
0001
0010
0100
1000
0010
1000
0001
0010
0100
1000
0001
,
0100
0010
0100
0001
1000
0001
0010
0100
0010
0001
0100
0010
1000
0001
1000
0001
,
0100
0001
0010
0100
1000
0001
0100
0010
1000
0100
1000
0001
0100
0010
1000
0001
,
0010
0001
0100
0010
1000
0001
1000
0100
0010
0100
1000
0010
0100
0001
1000
0001
,
1000
0010
1000
0100
0010
0001
1000
0010
0100
0001
0010
0001
1000
0010
0100
0001
,
1000
0100
0010
0100
1000
0001
1000
0010
0100
0010
1000
0100
0010
0001
1000
0001
,
1000
0000
0100
0000
1000
0010
0100
0010
0100
0000
0001
0000
0010
0100
1000
0001
,
1000
0001
0100
0001
0010
0001
1000
0010
0100
0001
1000
0100
0010
0100
1000
0001
,
0100
0010
1000
0001
0010
0100
1000
0010
0100
0001
1000
0001
0010
0001
1000
0010
,
1000
0001
0010
0001
0100
0001
1000
0100
0010
0001
1000
0010
0100
0010
1000
0001
,
0010
0100
1000
0001
0100
0010
1000
0100
0010
0001
1000
0001
0100
0001
1000
0100
,
0010
0100
1000
0001
1000
0010
0100
0001
,
1000
0100
1000
0010
0100
0001
0010
0001
,
1000
0010
1000
0010
0100
0001
0010
0100
1000
0001
1000
0001
0010
0001
0100
0010
,
2000
3002
0023
0130
1100
2000
3020
0230
,
0320
2030
3200
0310
0011
0002
0203
0320
,
2030
0000
3002
0000
0023
0000
0031
0000
1001
0000
2000
0000
3010
0100
0010
0100
,
0002
0000
0000
0000
0000
0000
0023
0000
0000
0000
0000
0000
0430
0000
0300
0000
0000
0000
2000
0000
0000
0000
0000
0000
3002
0000
0000
0000
0000
0000
0203
0000
0000
0000
0000
0000
0310
0000
0000
1000
0000
0000
0001
0000
0000
1000
0000
0000
,
0100
0000
0000
0000
,
1000
0010
0100
0001
1000
0001
0010
0100
0010
0001
0100
0001
1000
0010
1000
0001
,
0010
0000
0100
1000
0000
0001
0100
0001
1000
0000
0010
0000
0100
0000
0010
0000
,
1000
0100
0010
0001
1000
0001
0100
0010
0100
0001
0010
0001
1000
0100
1000
0001
,
0100
0000
0000
0000
0000
0000
0010
0000
0000
0000
0000
0000
1000
0000
0000
0001
0000
0000
1000
0000
0000
0100
0000
0000
0010
0000
0000
0000
0000
0000
0001
0000
0000
0000
0000
0000
2000
0000
0000
3000
0000
0000
0020
0000
0000
0000
0030
0000
,
1000
0000
0000
0100
0000
0000
0010
0000
0000
0001
0000
0000
1000
0000
0000
0001
0000
0000
0100
0000
0000
0010
0000
0000
1000
0000
0000
0000
0000
0000
0001
0000
0000
0000
0000
0000
0020
0000
0000
0030
0000
0000
0200
0000
0000
0000
0300
0000
,
1000
0010
0100
0001
1000
0001
0010
0100
0010
0001
0100
0001
1000
0010
1000
0001
,
0010
0100
1000
0001
1000
0001
0100
0010
0100
0001
0010
0100
1000
0010
0100
0001
,
1000
0000
0001
0100
0001
0100
0001
1000
0020
0000
2030
0000
3002
0000
0023
0000
,
0230
0300
0000
0000
2000
3000
0000
0000
0200
0300
0000
0000
2000
3000
0000
0000
0200
0300
0000
0000
2000
3000
0000
0000
0020
0030
0000
0000
0200
0300
0000
0000
,
0020
0030
0000
0000
0200
0300
0000
0000
0020
0030
0000
0000
0200
0300
0000
0000
0020
0030
0000
0000
0200
0300
0000
0000
0020
0030
0000
0000
0200
0300
0000
0000
,
0002
0003
0000
0000
0020
0030
0000
0000
0002
0003
0000
0000
0020
0030
0000
0000
0002
0003
0000
0000
0020
0030
0000
0000
0002
0003
0000
0000
2000
3000
0000
0000
,
0001
0100
0010
1000
0001
0010
0001
1000
0001
0100
0010
1000
0001
0010
0001
1000
,
0020
0030
0000
0000
2000
3000
0000
0000
0020
0030
0000
0000
2000
3000
0000
0000
0020
0030
0000
0000
2000
3000
0000
0000
0200
0300
0000
0000
0020
0030
0000
0000
,
0200
0300
0000
0000
0020
0030
0000
0000
0200
0300
0000
0000
0020
0030
0000
0000
0200
0300
0000
0000
0020
0030
0000
0000
0200
0300
0000
0000
0020
0030
0000
0000
,
0002
0003
0000
0000
0020
0030
0000
0000
0002
0003
0000
0000
0020
0030
0000
0000
0002
0003
0000
0000
0020
0030
0000
0000
0002
0003
0000
0000
2000
3000
0000
0000
,
0001
0000
0100
0000
0010
1000
0001
1000
0010
0000
0100
0000
0002
0000
0000
0003
,
1000
0010
0100
0001
1000
0001
0010
0100
0010
0001
0100
0010
1000
0001
1000
0001
,
0400
0000
0300
0010
0000
0000
0400
0000
0300
0010
0000
0000
1000
0000
0000
1000
0000
0000
0001
0000
0000
0001
0000
0000
,
1000
0100
0010
0001
1000
0001
0100
0010
0100
0001
0010
0100
1000
0001
1000
0001
,
0020
0030
0000
0000
0000
0000
0200
0300
0000
0000
0000
0000
0020
0030
0000
0000
0000
0000
0200
0300
0000
0000
0000
0000
2000
3000
0000
0000
0000
0000
0002
0003
0000
0000
0000
0000
2000
3000
0000
0000
0000
0000
0002
0003
0000
0000
0000
0000
,
1000
0000
0000
0001
0000
0000
0010
0000
0000
0100
0000
0000
1000
0000
0000
0001
0000
0000
1000
0000
0000
0010
0000
0000
0100
0000
0000
0010
0000
0000
1000
0000
0000
0100
0000
0000
0040
0000
0000
0000
0030
0000
0001
0000
0000
0000
0000
0000
,
2000
3020
0230
0302
0023
0230
1300
0001
,
1000
0010
0100
0010
1000
0001
1000
0100
0010
0100
1000
0010
0100
0001
1000
0001
,
1000
0000
0010
0000
1000
0100
0010
0100
0010
0000
0001
0000
0100
0010
1000
0001
,
1000
0001
0010
0001
0100
0001
1000
0100
0010
0001
1000
0010
0100
0010
1000
0001
,
0010
0100
1000
0001
0100
0010
1000
0100
0010
0001
0100
0010
1000
0001
1000
0001
,
0100
0010
0100
0001
0010
0001
1000
0010
0100
0001
1000
0100
0010
0100
1000
0001
,
0100
0010
1000
0001
0010
0100
1000
0010
0100
0001
1000
0001
0010
0100
0010
0100
,
1000
0001
0100
0001
0010
0001
1000
0010
0100
0010
1000
0001
1000
0100
0010
0001
,
0100
0010
1000
0001
0010
0100
1000
0001
0100
0010
1000
0100
0010
0001
0010
0001
,
1000
0010
1000
0001
0010
0100
1000
0001
1000
0010
0100
0001
1000
0100
0010
0000
,
0000
0001
0000
1000
0020
0130
0001
0010
,
0002
0103
0002
1003
0002
0013
0200
1300
,
0000
0000
0000
0000
,
0001
0010
0100
1000
0001
1000
0010
0100
0010
1000
0100
0010
0001
1000
0001
1000
,
0100
1000
0010
0100
0001
1000
0100
0010
0001
0100
0001
1000
0100
0010
0001
1000
,
0010
0100
0010
1000
0001
1000
0100
0010
0100
1000
0010
0100
0001
1000
0001
1000
,
0010
1000
0100
0010
0001
1000
0010
0100
0001
0010
0001
1000
0010
0100
0001
1000
,
0100
1000
0010
0100
0001
1000
0001
0010
0100
0010
0001
0100
0010
1000
0001
1000
,
0001
0100
0001
0010
0100
1000
0001
0100
0010
1000
0100
1000
0001
0100
0010
1000
,
0001
0010
0100
0010
0001
1000
0001
0100
0010
0100
0001
0010
0100
1000
0001
1000
,
0001
0010
0001
0100
0010
1000
0001
0010
0100
1000
0010
1000
0001
0010
0100
1000
,
0001
0000
0000
0000
0100
0000
0000
0000
0001
1000
0010
0100
0001
1000
0001
1000
,
0200
0000
0000
0000
0000
0000
0300
0000
0000
0000
0000
0000
0020
0000
0000
0000
0000
0000
0030
0000
0000
0000
0000
0000
0000
0000
0000
0000
0000
0000
0000
0000
0000
0000
0000
0000
0000
0000
0000
0000
0000
0000
0000
0000
0000
0000
0000
0000
0002
0000
0000
0000
0000
0000
0003
0000
0000
0000
0000
0000
2000
0000
0000
0000
0000
0000
3000
0000
0000
0000
0000
0000
0000
0000
0000
0000
0000
0000
0000
0000
0000
0000
0000
0000
0000
0000
0000
0000
0000
0000
0000
0000
0000
0000
0000
0000
0002
0000
0000
0000
0000
0000
0000
0000
0003
0000
0000
0000
0020
0000
0000
0000
0000
0000
0000
0000
0030
0000
0000
0000
0002
0000
0000
0000
0000
0000
0000
0000
0003
0000
0000
0000
2000
0000
0000
0000
0000
0000
0000
0000
3000
0000
0000
0000
0020
0000
0000
0030
0000
0000
0000
0000
0000
0000
0000
0000
0200
0000
0000
0300
0000
0000
0000
0000
0000
0000
0000
0000
0002
0000
0000
0003
0000
0000
0000
0000
0000
0000
0000
0000
2000
0000
0000
3000
0000
0000
0000
0000
0000
0000
0000
0000
,
0100
0010
0100
1000
0001
1000
0010
0100
0010
1000
0100
0010
0001
1000
0001
1000
,
0200
0000
0000
0300
0000
0000
0000
0000
0000
0000
0000
0000
2000
0000
0000
3000
0000
0000
0000
0000
0000
0000
0000
0000
0020
0000
0000
0030
0000
0000
0000
0000
0000
0000
0000
0000
0200
0000
0000
0300
0000
0000
0000
0000
0000
0000
0000
0000
0002
0000
0000
0000
0000
0000
0000
0000
0003
0000
0000
0000
2000
0000
0000
0000
0000
0000
0000
0000
3000
0000
0000
0000
0200
0000
0000
0000
0000
0000
0000
0000
0300
0000
0000
0000
0020
0000
0000
0000
0000
0000
0000
0000
0030
0000
0000
0000
0001
0000
0000
0000
0000
0000
0000
0000
0000
0000
0000
0000
0100
0000
0000
0000
0000
0000
0000
0000
0000
0000
0000
0000
0001
0000
0000
0000
0000
0000
0000
0000
0000
0000
0000
0000
1000
0000
0000
0000
0000
0000
0000
0000
0000
0000
0000
0000
0100
0000
0000
0000
0000
0000
0000
0000
0000
0000
0000
0000
0010
0000
0000
0000
0000
0000
0000
0000
0000
0000
0000
0000
0001
0000
0000
0000
0000
0000
0000
0000
0000
0000
0000
0000
1000
0000
0000
0000
0000
0000
0000
0000
0000
0000
0000
0000
,
0010
1000
0100
0010
0001
1000
0001
0100
0010
0100
0001
0010
0100
1000
0001
1000
,
0001
0010
0001
0100
0010
1000
0001
0010
0100
1000
0010
1000
0001
0010
0100
1000
,
0001
0100
0010
0100
0001
1000
0001
0010
0100
0010
0001
0100
0010
1000
0001
1000
,
0001
0100
0001
0010
0100
1000
0001
0100
0010
1000
0100
1000
0001
0100
0010
1000
,
0001
0000
0010
0000
0100
1000
0100
1000
0001
0000
0010
0001
1000
0000
0010
0000
,
0100
0001
0010
0100
1000
0010
0100
0001
2000
0000
0000
0000
3000
0000
0000
0000
,
0001
0100
0010
1000
0001
1000
0100
0010
0100
1000
0010
0100
0001
1000
0001
1000
,
0010
1000
0100
0010
0001
1000
0010
0100
0001
0010
0001
1000
0010
0100
0001
1000
,
0100
0010
0100
1000
0001
1000
0010
0100
0010
1000
0100
0010
0001
1000
0001
1000
,
0100
1000
0010
0100
0001
1000
0100
0010
0001
0100
0001
1000
0100
0010
0001
1000
,
0010
1000
0100
0010
0001
1000
0001
0100
0010
0100
0001
0010
0100
1000
0001
1000
,
0001
0010
0001
0100
0010
1000
0001
0010
0100
1000
0010
1000
0001
0010
0100
1000
,
0001
0100
0010
0100
0001
1000
0001
0010
0100
0010
0001
0100
0010
1000
0001
1000
,
0001
0100
0001
0010
0100
1000
0001
0100
0010
1000
0100
1000
0001
0100
0010
1000
,
0001
0100
0010
1000
0100
1000
0001
0100
0010
1000
0001
0010
0100
0010
0001
1000
,
0010
0100
0001
1000
0100
0010
0001
0100
0010
1000
0001
1000
0100
1000
0001
0100
,
0001
1000
0100
1000
0010
1000
0001
0010
0100
1000
0001
0100
0010
0100
0001
1000
,
0100
0010
0001
1000
0010
0100
0001
0010
0100
1000
0001
1000
0010
1000
0001
0010
,
0100
0010
0001
1000
0001
0100
0010
1000
,
0001
0010
0001
0100
0010
1000
0100
1000
,
0001
0100
0001
0100
0010
1000
0100
0010
0001
1000
0001
1000
0100
1000
0010
0100
,
0002
2003
3200
0320
0032
0203
0320
2030
,
3001
0100
0010
1000
0100
0010
0001
0100
,
0000
0010
0000
0100
0000
0010
0100
0001
,
0010
0100
1000
0001
1000
0010
0100
0001
,
0000
1000
0000
0001
0000
0010
0100
1000
,
0001
0100
0001
0010
0100
1000
0010
0100
,
0000
0001
0000
0100
0000
0010
1000
0001
,
0010
0100
0010
0001
0100
0010
1000
0001
,
0000
0010
0000
0001
0000
1000
0010
0100
,
0001
1000
0001
0100
0010
1000
0100
0010
,
0000
0010
0000
0010
0000
0000
0000
0000
;

//---------------dance-single - Zaia - 13(high)----------------
#NOTES:
     dance-single:
     Zaia - 13(high):
     Hard:
     13:
     1.000,1.000,0.029,0.904,1.000,1656.000,6.000,186.000,0.000,0.000:
0000
0000
0000
0000
,
1000
0000
0001
0000
0100
0010
0100
0010
1000
0000
0001
0010
0100
0000
1000
0000
,
0001
0100
0001
0000
1000
0100
1000
0000
0010
0000
0100
0000
0001
0000
0001
0000
,
1000
0100
0010
0001
1000
0001
0100
0010
0100
0001
0010
0001
1000
0100
1000
0001
,
0100
0010
1000
0001
0010
0100
0010
0001
1000
0000
0010
0000
0100
0001
0100
0001
,
1000
0000
0001
0000
1000
0000
0010
0200
0000
0300
0001
0000
1000
0001
0010
0100
,
1000
0000
0001
0000
0100
0000
0001
0100
0020
0000
2030
0000
3002
0000
0023
0000
,
0130
1000
0010
0100
0001
1000
0001
0010
0100
0000
1000
0000
0001
0000
1000
0000
,
0001
0010
0001
1000
0010
0100
0010
1000
0001
0000
0010
0000
0100
1000
0100
1000
,
0001
0000
0000
0000
0000
0000
0100
0000
0000
0000
0000
0000
0020
0000
0000
0030
0000
0000
4000
0000
0000
0000
3000
0000
0001
0000
0000
0000
0000
0000
0010
0000
0000
0000
0000
0000
0001
0000
0000
0000
0000
0000
0100
0000
0000
0000
0000
0000
,
0010
1000
0100
1000
0001
0010
0001
0100
0001
0000
1000
0000
0100
0000
1000
0000
,
0001
0000
1000
0010
0000
1000
0100
1000
0001
0000
0100
0000
0010
0000
0100
0000
,
0001
0000
1000
0100
0000
1000
0010
1000
0001
0000
1000
0000
0100
0000
0010
0000
,
0100
0000
1000
0010
0000
1000
0100
0010
0001
0000
0100
0000
0010
0000
1000
0000
,
0001
0000
1000
0100
0000
1000
0010
0100
0001
0000
1000
0000
0001
0000
0010
0000
,
0200
0300
0000
0000
2000
3000
0000
0000
0200
0300
0000
0000
2000
3000
0000
0000
0200
0300
0000
0000
2000
3000
0000
0000
0020
0030
0000
0000
0200
0300
0000
0000
,
0020
0030
0000
0000
0200
0300
0000
0000
0020
0030
0000
0000
0200
0300
0000
0000
0020
0030
0000
0000
0200
0300
0000
0000
0020
0030
0000
0000
0200
0300
0000
0000
,
0002
0003
0000
0000
0200
0300
0000
0000
0001
0000
1000
0000
0010
0000
1000
0000
0002
0003
0000
0000
0200
0300
0000
0000
0002
0003
0000
0000
0020
0030
0000
0000
,
0002
0003
0000
0000
0020
0030
0000
0000
0200
0300
0000
0000
2000
3000
0000
0000
0020
0030
0000
0000
0200
0300
0000
0000
0001
0000
0000
0000
0010
0000
0000
0000
,
0100
1000
0001
1000
0100
0010
0001
1000
0010
1000
0001
0100
0001
0010
0001
1000
,
0100
1000
0010
0100
0001
1000
0001
0010
0100
0010
0001
0100
0010
1000
0001
0010
,
0001
1000
0001
0100
0010
0100
0001
1000
0100
1000
0001
0010
0001
0100
0001
1000
,
0010
0100
0001
0010
0001
0100
0010
1000
,
0001
0010
0001
1000
0001
0010
0100
1000
0001
0100
0001
1000
0010
1000
0100
1000
,
0001
0010
0001
0100
0010
1000
0001
1000
0100
0010
0100
1000
0010
0100
0001
1000
,
0100
1000
0001
1000
0010
0100
0010
1000
0001
0010
0001
1000
0100
1000
0010
1000
,
0001
0000
0100
0000
0010
1000
0010
1000
0001
0000
0010
0000
0100
0000
1000
0000
,
0010
0100
0001
1000
0100
1000
0001
0100
,
0010
0000
0000
0000
0000
0000
1000
0000
0000
0000
0000
0000
1000
0000
0000
0000
0000
0000
0001
0000
0000
0000
0000
0000
0020
0000
0000
0030
0000
0000
0400
0000
0000
0000
0300
0000
1000
0000
0000
0010
0000
0000
1000
0000
0000
0001
0000
0000
,
0100
0010
1000
0001
0010
0001
1000
0010
,
0100
0000
0000
0000
0000
0000
0001
0000
0000
0000
0000
0000
0001
0000
0000
0000
0000
0000
1000
0000
0000
0000
0000
0000
0400
0000
0000
0000
0300
0000
1000
0000
0000
0001
0000
0000
0010
0000
0000
0001
0000
0000
0100
0000
0000
0010
0000
0000
,
1000
0001
0100
0010
1000
0001
0010
0100
,
1100
0000
0000
0000
0000
0000
1000
0000
0000
0000
0000
0000
0001
0000
0000
0000
0000
0000
0100
0000
0000
0000
0000
0000
0020
0000
0000
0030
0000
0000
4000
0000
3000
0001
0000
0000
0100
0000
0000
0001
0000
0000
0010
0000
0000
0100
0000
0000
,
1000
0010
0100
0001
0110
1000
0110
0001
,
0000
0001
0000
1000
0000
0010
0000
0100
,
0001
0010
0100
1000
0010
0100
0001
0010
,
0000
0100
0000
0010
0000
0100
0010
0001
,
0100
0010
1000
0001
1000
0100
0010
0001
,
0000
1000
0000
0001
0000
0100
0010
1000
,
0001
0010
0001
0100
0010
1000
0100
0010
,
0000
0001
0000
0010
0000
0100
1000
0001
,
0100
0010
0100
0001
0010
0100
1000
0001
,
0000
0100
0000
0001
0000
1000
0100
0010
,
0001
0000
1000
0010
1000
0001
0010
0100
,
0000
0100
0000
0100
0000
0000
0000
0000
,
0000
0000
0000
0000
,
1000
0000
0010
0000
0100
0000
0001
0000
1000
0100
1000
0100
1000
0100
1000
0100
,
1000
0000
0010
0000
0100
0000
0001
0000
0010
0001
0010
0001
1000
0001
1000
0001
,
0100
0000
0010
0000
1000
0000
0001
0000
0010
0001
0010
0001
0010
0001
0010
0001
,
0010
0000
0100
0000
1000
0000
0001
0000
0100
0010
0100
0010
1000
0010
1000
0010
,
0100
0000
0001
0000
0010
0000
0001
0000
0100
0001
0100
0001
0100
0001
0100
0001
,
0100
0000
0010
0000
1000
0000
0100
0000
0010
0100
0010
0100
1000
0100
1000
0100
,
0010
0000
0001
0000
1000
0000
0010
0000
1000
0001
1000
0001
1000
0001
1000
0001
,
1000
0000
0100
0000
1000
0000
0001
0000
0010
0100
0010
0100
0010
0001
0010
0001
,
2000
0000
3002
0000
2003
0000
3200
0000
1300
0001
0010
0100
1000
0001
1000
0001
,
0200
0000
0302
0000
0023
0000
0032
0000
1003
0010
1000
0001
0010
0100
1000
0001
,
0200
0000
0000
0000
0320
0000
0000
0000
2030
0000
0000
0000
3002
0000
0000
0003
0010
0000
0001
0000
0100
0000
0010
0000
1000
0000
0001
0000
1000
0000
0001
0000
,
0200
0000
0000
0000
0302
0000
2003
0000
3001
0010
0001
1000
0010
0100
0001
1000
,
0100
1000
0010
0100
0001
1000
0001
0010
0100
0010
0001
0100
0010
1000
0001
1000
,
0001
0100
0001
0010
0100
1000
0001
0100
0001
0000
0010
0000
0100
0000
1000
0000
,
0001
0010
0100
0010
0001
1000
0001
0100
0010
1000
0001
0010
0100
1000
0001
1000
,
0001
0100
0010
1000
0001
0100
0001
0010
0100
1000
0001
0100
0001
1000
0100
1000
,
0001
0000
0010
0000
0001
1000
0001
1000
0010
0000
0100
0001
1000
0000
0100
0000
,
0010
0100
1000
0001
1000
0010
0100
0001
2000
0000
3000
0000
0001
0000
0001
0000
,
1000
0000
0010
0000
0100
0000
0010
0000
1000
0001
0010
0001
1000
0100
0010
0001
,
1000
0000
0010
0000
1000
0000
0001
0000
0100
0010
1000
0001
0010
0100
1000
0001
,
0100
0000
0010
0000
1000
0000
0001
0000
0010
0100
1000
0001
1000
0010
0100
0001
,
1000
0000
0100
0000
0010
0000
0001
0000
1000
0010
1000
0100
1000
0001
0010
0001
,
1000
0000
0100
0000
0010
0000
0100
0000
1000
0001
0100
0001
1000
0010
0100
0001
,
1000
0000
0100
0000
1000
0000
0001
0000
0010
0100
1000
0001
0100
0010
1000
0001
,
1000
0100
0010
0100
1000
0001
1000
0010
0100
0001
1000
0001
1000
0010
0100
0001
,
1000
0000
0100
0000
1000
0010
0100
0010
0100
0000
0001
0000
0010
0100
1000
0001
,
0100
0010
0100
0001
1000
0100
0010
0100
,
1000
0010
0100
0010
1000
0001
0010
0100
,
1000
0001
0100
0010
0100
0001
1000
0100
,
1000
0001
0100
0001
1000
0010
1000
0100
,
0010
0100
1000
0001
1000
0010
0100
0001
,
1000
0100
1000
0010
0100
0001
0010
0001
,
1000
0010
1000
0010
0100
0001
0010
0100
1000
0001
1000
0001
0010
0001
0100
0010
,
2000
3002
0023
0130
1100
2000
3020
0230
,
0320
2030
3200
0310
0011
0002
0203
0320
,
2030
0000
3002
0000
0023
0000
0031
0000
1001
0000
2000
0000
3010
0100
0010
0100
,
0002
0000
0000
0000
0000
0000
0023
0000
0000
0000
0000
0000
0430
0000
0300
0000
0000
0000
2000
0000
0000
0000
0000
0000
3002
0000
0000
0000
0000
0000
0203
0000
0000
0000
0000
0000
0310
0000
0000
1000
0000
0000
0001
0000
0000
1000
0000
0000
,
0100
0000
0000
0000
,
1000
0010
0100
0001
1000
0001
0010
0100
0010
0001
0100
0001
1000
0010
1000
0001
,
0010
0000
0100
1000
0000
0001
0100
0001
1000
0000
0010
0000
0100
0000
0010
0000
,
1000
0100
0010
0001
1000
0001
0100
0010
0100
0001
0010
0001
1000
0100
1000
0001
,
0100
0000
0000
0000
0000
0000
0010
0000
0000
0000
0000
0000
1000
0000
0000
0001
0000
0000
1000
0000
0000
0100
0000
0000
0010
0000
0000
0000
0000
0000
0001
0000
0000
0000
0000
0000
2000
0000
0000
3000
0000
0000
0020
0000
0000
0000
0030
0000
,
1000
0000
0000
0100
0000
0000
0010
0000
0000
0001
0000
0000
1000
0000
0000
0001
0000
0000
0100
0000
0000
0010
0000
0000
1000
0000
0000
0000
0000
0000
0001
0000
0000
0000
0000
0000
0020
0000
0000
0030
0000
0000
0200
0000
0000
0000
0300
0000
,
1000
0010
0100
0001
1000
0001
0010
0100
0010
0001
0100
0001
1000
0010
1000
0001
,
0010
0100
1000
0001
1000
0001
0100
0010
0100
0001
0010
0100
1000
0010
0100
0001
,
1000
0000
0001
0100
0001
0100
0001
1000
0020
0000
2030
0000
3002
0000
0023
0000
,
0230
0300
0000
0000
2000
3000
0000
0000
0200
0300
0000
0000
2000
3000
0000
0000
0200
0300
0000
0000
2000
3000
0000
0000
0020
0030
0000
0000
0200
0300
0000
0000
,
0020
0030
0000
0000
0200
0300
0000
0000
0020
0030
0000
0000
0200
0300
0000
0000
0020
0030
0000
0000
0200
0300
0000
0000
0020
0030
0000
0000
0200
0300
0000
0000
,
0002
0003
0000
0000
0020
0030
0000
0000
0002
0003
0000
0000
0020
0030
0000
0000
0002
0003
0000
0000
0020
0030
0000
0000
0002
0003
0000
0000
2000
3000
0000
0000
,
0002
0003
0000
0000
2000
3000
0000
0000
0002
0003
0000
0000
2000
3000
0000
0000
0002
0003
0000
0000
2000
3000
0000
0000
0002
0003
0000
0000
2000
3000
0000
0000
,
0020
0030
0000
0000
2000
3000
0000
0000
0020
0030
0000
0000
2000
3000
0000
0000
0020
0030
0000
0000
2000
3000
0000
0000
0200
0300
0000
0000
0020
0030
0000
0000
,
0200
0300
0000
0000
0020
0030
0000
0000
0200
0300
0000
0000
0020
0030
0000
0000
0200
0300
0000
0000
0020
0030
0000
0000
0200
0300
0000
0000
0020
0030
0000
0000
,
0002
0003
0000
0000
0020
0030
0000
0000
0002
0003
0000
0000
0020
0030
0000
0000
0002
0003
0000
0000
0020
0030
0000
0000
0002
0003
0000
0000
2000
3000
0000
0000
,
0001
0000
0100
0000
0010
1000
0001
1000
0010
0000
0100
0000
0002
0000
0000
0003
,
1000
0010
0100
0001
1000
0001
0010
0100
0010
0001
0100
0010
1000
0001
1000
0001
,
0400
0000
0300
0010
0000
0000
0400
0000
0300
0010
0000
0000
1000
0000
0000
1000
0000
0000
0001
0000
0000
0001
0000
0000
,
1000
0100
0010
0001
1000
0001
0100
0010
0100
0001
0010
0100
1000
0001
1000
0001
,
0020
0030
0000
0000
0000
0000
0200
0300
0000
0000
0000
0000
0020
0030
0000
0000
0000
0000
0200
0300
0000
0000
0000
0000
2000
3000
0000
0000
0000
0000
0002
0003
0000
0000
0000
0000
2000
3000
0000
0000
0000
0000
0002
0003
0000
0000
0000
0000
,
1000
0000
0000
0001
0000
0000
0010
0000
0000
0100
0000
0000
1000
0000
0000
0001
0000
0000
1000
0000
0000
0010
0000
0000
0100
0000
0000
0010
0000
0000
1000
0000
0000
0100
0000
0000
0040
0000
0000
0000
0030
0000
0001
0000
0000
0000
0000
0000
,
2000
3020
0230
0302
0023
0230
1300
0001
,
1000
0010
0100
0010
1000
0001
1000
0100
0010
0100
1000
0010
0100
0001
1000
0001
,
1000
0000
0010
0000
1000
0100
0010
0100
0010
0000
0001
0000
0100
0010
1000
0001
,
0010
0100
0010
0001
1000
0010
0100
0010
,
1000
0000
0100
0000
0010
0000
0100
0000
1000
0000
0001
0000
0100
0010
1000
0001
,
1000
0001
0010
0100
0010
0001
1000
0010
,
1000
0000
0001
0000
0010
0000
0001
0000
1000
0000
0100
0000
1000
0001
0010
0001
,
0100
0010
1000
0001
1000
0100
0010
0001
,
1000
0000
0010
0000
1000
0000
0100
0000
0010
0000
0001
0000
0100
0010
0100
0001
,
1000
0100
0010
0100
1000
0001
0100
0010
,
0000
1000
0000
0001
0200
0310
1000
0100
,
2000
3010
2000
3001
2000
3100
0020
0031
,
0000
0000
0000
0000
,
1000
0000
0100
0000
0010
0000
0001
0000
1000
0010
1000
0010
1000
0010
1000
0010
,
1000
0000
0100
0000
0010
0000
0001
0000
0100
0001
0100
0001
1000
0001
1000
0001
,
0010
0000
0100
0000
1000
0000
0001
0000
0100
0001
0100
0001
0100
0001
0100
0001
,
0100
0000
0010
0000
1000
0000
0001
0000
0010
0100
0010
0100
1000
0100
1000
0100
,
0010
0000
0001
0000
0100
0000
0001
0000
0010
0001
0010
0001
0010
0001
0010
0001
,
0010
0000
0100
0000
1000
0000
0010
0000
0100
0010
0100
0010
1000
0010
1000
0010
,
0100
0000
0001
0000
1000
0000
0100
0000
1000
0001
1000
0001
1000
0001
1000
0001
,
1000
0000
0010
0000
1000
0000
0001
0000
0100
0010
0100
0010
0100
0001
0100
0001
,
1000
0000
0000
0000
0010
0000
0000
0000
1000
0001
0100
0010
1000
0001
1000
0001
,
0020
0000
0000
0000
0000
0000
0030
0000
0000
0000
0000
0000
0200
0000
0000
0000
0000
0000
0300
0000
0000
0000
0000
0000
0000
0000
0000
0000
0000
0000
0000
0000
0000
0000
0000
0000
0000
0000
0000
0000
0000
0000
0000
0000
0000
0000
0000
0000
2000
0000
0000
0000
0000
0000
3000
0000
0000
0000
0000
0000
0002
0000
0000
0000
0000
0000
0003
0000
0000
0000
0000
0000
0000
0000
0000
0000
0000
0000
0000
0000
0000
0000
0000
0000
0000
0000
0000
0000
0000
0000
0000
0000
0000
0000
0000
0000
2000
0000
0000
0000
0000
0000
0000
0000
3000
0000
0000
0000
0200
0000
0000
0000
0000
0000
0000
0000
0300
0000
0000
0000
2000
0000
0000
0000
0000
0000
0000
0000
3000
0000
0000
0000
0002
0000
0000
0000
0000
0000
0000
0000
0003
0000
0000
0000
0200
0000
0000
0300
0000
0000
0000
0000
0000
0000
0000
0000
0020
0000
0000
0030
0000
0000
0000
0000
0000
0000
0000
0000
2000
0000
0000
3000
0000
0000
0000
0000
0000
0000
0000
0000
0002
0000
0000
0003
0000
0000
0000
0000
0000
0000
0000
0000
,
0010
0000
0100
0000
1000
0000
0001
0000
0100
0010
1000
0001
1000
0001
1000
0100
,
0020
0000
0000
0030
0000
0000
0000
0000
0000
0000
0000
0000
0002
0000
0000
0003
0000
0000
0000
0000
0000
0000
0000
0000
0200
0000
0000
0300
0000
0000
0000
0000
0000
0000
0000
0000
0020
0000
0000
0030
0000
0000
0000
0000
0000
0000
0000
0000
2000
0000
0000
0000
0000
0000
0000
0000
3000
0000
0000
0000
0002
0000
0000
0000
0000
0000
0000
0000
0003
0000
0000
0000
0020
0000
0000
0000
0000
0000
0000
0000
0030
0000
0000
0000
0200
0000
0000
0000
0000
0000
0000
0000
0300
0000
0000
0000
1000
0000
0000
0000
0000
0000
0000
0000
0000
0000
0000
0000
0010
0000
0000
0000
0000
0000
0000
0000
0000
0000
0000
0000
1000
0000
0000
0000
0000
0000
0000
0000
0000
0000
0000
0000
0001
0000
0000
0000
0000
0000
0000
0000
0000
0000
0000
0000
0010
0000
0000
0000
0000
0000
0000
0000
0000
0000
0000
0000
0100
0000
0000
0000
0000
0000
0000
0000
0000
0000
0000
0000
1000
0000
0000
0000
0000
0000
0000
0000
0000
0000
0000
0000
0001
0000
0000
0000
0000
0000
0000
0000
0000
0000
0000
0000
,
0100
0001
0010
0100
1000
0001
1000
0010
0100
0010
1000
0100
0010
0001
1000
0001
,
1000
0100
1000
0010
0100
0001
1000
0100
0010
0000
0001
0000
1000
0000
0000
0000
,
0001
0100
0010
0100
0001
1000
0001
0010
0100
0010
0001
0100
0010
1000
0001
1000
,
0001
0100
0001
0010
0100
1000
0001
0100
0010
1000
0100
1000
0001
0100
0010
1000
,
0001
0000
0010
0000
0100
1000
0100
1000
0001
0000
0010
0001
1000
0000
0010
0000
,
0100
0001
0010
0100
1000
0010
0100
0001
2000
0000
0000
0000
3000
0000
0000
0000
,
0001
0000
0100
0000
0010
0000
0100
0000
0001
1000
0100
1000
0001
0010
0100
1000
,
0001
0000
0100
0000
0001
0000
1000
0000
0010
0100
0001
1000
0100
0010
0001
1000
,
0010
0000
0100
0000
0001
0000
1000
0000
0100
0010
0001
1000
0001
0100
0010
1000
,
0001
0000
0010
0000
0100
0000
1000
0000
0001
0100
0001
0010
0001
1000
0100
1000
,
0001
0000
0010
0000
0100
0000
0010
0000
0001
1000
0010
1000
0001
0100
0010
1000
,
0001
0000
0010
0000
0001
0000
1000
0000
0100
0010
0001
1000
0010
0100
0001
1000
,
0001
0010
0100
0010
0001
1000
0001
0100
0010
1000
0001
1000
0001
0100
0010
1000
,
0001
0000
0010
0000
0001
0100
0010
0100
0010
0000
1000
0000
0100
0010
0001
1000
,
0010
0100
0010
1000
0001
0010
0100
1000
,
0001
0100
0010
0100
0001
0010
0100
1000
,
0001
0100
0001
0010
0001
1000
0100
1000
,
0010
0100
0001
0010
0100
1000
0010
1000
,
0100
0010
0001
1000
0001
0100
0010
1000
,
0001
0010
0001
0100
0010
1000
0100
1000
,
0001
0100
0001
0100
0010
1000
0100
0010
0001
1000
0001
1000
0100
1000
0010
0100
,
0002
2003
3200
0320
0032
0203
0320
2030
,
3001
0100
0010
1000
0100
0010
0001
0100
,
0000
0010
0000
0100
0000
0010
0100
0001
,
0010
0100
1000
0001
1000
0010
0100
0001
,
0000
1000
0000
0001
0000
0010
0100
1000
,
0001
0100
0001
0010
0100
1000
0010
0100
,
0000
0001
0000
0100
0000
0010
1000
0001
,
0010
0100
0010
0001
0100
0010
1000
0001
,
0000
0010
0000
0001
0000
1000
0010
0100
,
0001
1000
0001
0100
0010
1000
0100
0010
,
0000
0010
0000
0010
0000
0000
0000
0000
;

//---------------dance-single - Zaia - 11(high)----------------
#NOTES:
     dance-single:
     Zaia - 11(high):
     Medium:
     11:
     1.000,1.000,0.019,0.875,0.148,1251.000,4.000,180.000,0.000,0.000:
0000
0000
0000
0000
,
1000
0000
0001
0000
0100
0010
0100
0010
1000
0000
0001
0010
0100
0000
1000
0000
,
0001
0100
0001
0000
1000
0100
1000
0000
0010
0000
0100
0000
0001
0000
0001
0000
,
1000
0001
0100
0010
0100
0001
0010
0100
,
1000
0000
0010
0000
1000
0000
0001
0000
1000
0000
0010
0000
0100
0001
0100
0001
,
1000
0000
0001
0000
1000
0000
0010
0200
0000
0300
0001
0000
1000
0001
0010
0100
,
1000
0000
0001
0000
0100
0000
0001
0100
0020
0000
2030
0000
3002
0000
0023
0000
,
0130
1000
0001
0100
0010
1000
0001
1000
,
0001
0000
0100
0000
0010
0000
0100
0000
0001
0000
0010
0000
0100
1000
0100
1000
,
0001
0000
0000
0000
0000
0000
0100
0000
0000
0000
0000
0000
0020
0000
0000
0030
0000
0000
4000
0000
0000
0000
3000
0000
0001
0000
0000
0000
0000
0000
0010
0000
0000
0000
0000
0000
0001
0000
0000
0000
0000
0000
0100
0000
0000
0000
0000
0000
,
0010
1000
0100
0010
0001
1000
0100
1000
,
0001
0000
1000
0010
0000
1000
0100
1000
0001
0000
0100
0000
0010
0000
0100
0000
,
0001
0000
1000
0100
0000
1000
0010
1000
0001
0000
1000
0000
0100
0000
0010
0000
,
0100
0000
1000
0010
0000
1000
0100
0010
0001
0000
0100
0000
0010
0000
1000
0000
,
0001
0000
1000
0100
0000
1000
0010
0100
0001
0000
1000
0000
0001
0000
0010
0000
,
0200
0300
0000
0000
2000
3000
0000
0000
0200
0300
0000
0000
2000
3000
0000
0000
0200
0300
0000
0000
2000
3000
0000
0000
0020
0030
0000
0000
0200
0300
0000
0000
,
0020
0030
0000
0000
0200
0300
0000
0000
0020
0030
0000
0000
0200
0300
0000
0000
0020
0030
0000
0000
0200
0300
0000
0000
0020
0030
0000
0000
0200
0300
0000
0000
,
0002
0003
0000
0000
0200
0300
0000
0000
0002
0003
0000
0000
0200
0300
0000
0000
0002
0003
0000
0000
0200
0300
0000
0000
0002
0003
0000
0000
0020
0030
0000
0000
,
0002
0003
0000
0000
0020
0030
0000
0000
0200
0300
0000
0000
2000
3000
0000
0000
0020
0030
0000
0000
0200
0300
0000
0000
0001
0000
0000
0000
0010
0000
0000
0000
,
0100
1000
0100
0010
0100
1000
0001
0100
,
0001
1000
0100
1000
0010
0100
0001
1000
,
0100
0010
0001
1000
0010
0100
0001
1000
,
0010
0100
0001
0010
0001
0100
0010
1000
,
0001
1000
0010
0100
0010
1000
0001
0010
,
0001
1000
0010
1000
0100
0010
0001
1000
,
0010
0100
0001
1000
0100
0010
0001
1000
,
0010
0000
0100
0000
0010
1000
0010
1000
0001
0000
0010
0000
0100
0000
1000
0000
,
0010
0100
0001
1000
0100
1000
0001
0100
,
0010
0000
0000
0000
0000
0000
1000
0000
0000
0000
0000
0000
1000
0000
0000
0000
0000
0000
0001
0000
0000
0000
0000
0000
0020
0000
0000
0030
0000
0000
0400
0000
0000
0000
0300
0000
1000
0000
0000
0010
0000
0000
1000
0000
0000
0001
0000
0000
,
0100
0010
1000
0001
0010
0001
1000
0010
,
0100
0000
0000
0001
0000
0000
0001
0000
0000
1000
0000
0000
0400
0000
0300
1000
0000
0000
0001
0000
0000
0010
0000
0000
,
0100
1000
0010
0100
0001
1000
0100
0010
,
0011
0000
0000
0000
0000
0000
0001
0000
0000
0000
0000
0000
1000
0000
0000
0000
0000
0000
0010
0000
0000
0000
0000
0000
0200
0000
0000
0300
0000
0000
0004
0000
0000
0000
0003
0000
1000
0000
0000
0000
0000
0000
0100
0000
0000
0000
0000
0000
,
0010
0001
0100
0001
1000
0010
1000
0001
,
0000
0001
0000
1000
0000
0010
0000
0100
,
0001
0010
0100
1000
0010
0100
0001
0010
,
0000
0100
0000
0010
0000
0100
0010
0001
,
0100
0010
1000
0001
1000
0100
0010
0001
,
0000
1000
0000
0001
0000
0100
0010
1000
,
0001
0010
0001
0100
0010
1000
0100
0010
,
0000
0001
0000
0010
0000
0100
1000
0001
,
0100
0010
0100
0001
0010
0100
1000
0001
,
0000
0100
0000
0001
0000
1000
0100
0010
,
0001
0000
1000
0010
1000
0001
0010
0100
,
0000
0100
0000
0100
0000
0000
0000
0000
,
0000
0000
0000
0000
,
1000
0100
0010
0001
0100
0001
0010
0001
,
1000
0100
0010
0100
1000
0010
1000
0100
,
1000
0001
0010
0100
1000
0010
1000
0001
,
0100
0010
1000
0001
0100
0001
0010
0001
,
1000
0100
0010
0001
1000
0001
0100
0010
,
1000
0001
0010
0100
0010
0001
0100
0010
,
1000
0001
0010
0100
0010
0001
0100
0001
,
1000
0010
0100
0010
1000
0001
0010
0100
,
2000
3002
2003
3200
1300
0001
1000
0010
,
0200
0302
0023
0032
1003
0001
0010
0001
,
0200
0000
0000
0000
0320
0000
0000
0000
2030
0000
0000
0000
3002
0000
0000
0003
0010
0000
0000
0000
0100
0000
0000
0000
1000
0000
0000
0000
0010
0000
0000
0000
,
0200
0000
0302
2003
3001
0010
0001
0100
,
0001
1000
0010
1000
0001
0010
0100
1000
,
0010
0100
0010
1000
0001
0010
0100
1000
,
0001
0010
0100
0010
0001
1000
0010
1000
,
0100
1000
0001
0010
0100
1000
0010
0100
,
0001
0000
0010
0000
0001
1000
0001
1000
0010
0000
0100
0001
1000
0000
0100
0000
,
0010
0001
0100
0010
2000
3000
0001
0001
,
1000
0010
0100
0001
0010
0001
0100
0001
,
1000
0010
0100
0010
1000
0100
1000
0010
,
1000
0001
0100
0010
1000
0100
1000
0001
,
0010
0100
1000
0001
0010
0001
0100
0001
,
1000
0100
0010
0001
0100
0001
0010
0001
,
1000
0100
0010
0100
1000
0010
1000
0100
,
1000
0001
0010
0100
1000
0010
1000
0001
,
1000
0000
0100
0000
1000
0010
0100
0010
0100
0000
0001
0000
0010
0100
1000
0001
,
0100
0010
0100
0001
1000
0100
0010
0100
,
1000
0010
0100
0010
1000
0001
0010
0100
,
1000
0001
0100
0010
0100
0001
1000
0100
,
1000
0001
0100
0001
1000
0010
1000
0100
,
0010
0100
1000
0001
1000
0010
0100
0001
,
1000
0100
1000
0010
0100
0001
0010
0001
,
1000
0010
0100
0001
0010
0001
0100
0010
,
2000
3002
0023
0130
1100
2000
3020
0230
,
0320
2030
3200
0310
0011
0002
0203
0320
,
2030
0000
3002
0000
0023
0000
0031
0000
1001
0000
2000
0000
3010
0100
0010
0100
,
0002
0000
0000
0000
0000
0000
0023
0000
0000
0000
0000
0000
0430
0000
0300
0000
0000
0000
2000
0000
0000
0000
0000
0000
3002
0000
0000
0000
0000
0000
0203
0000
0000
0000
0000
0000
0310
0000
0000
1000
0000
0000
0001
0000
0000
1000
0000
0000
,
0100
0000
0000
0000
,
1000
0001
0010
0100
0010
0001
0100
0010
,
1000
0100
1000
0001
1000
0100
0010
0100
,
1000
0001
0100
0010
0100
0001
0010
0100
,
0010
0000
0000
0000
0000
0000
0100
0000
0000
0000
0000
0000
1000
0000
0000
0001
0000
0000
1000
0000
0000
0100
0000
0000
0010
0000
0000
0000
0000
0000
0001
0000
0000
0000
0000
0000
2000
0000
0000
3000
0000
0000
0020
0000
0000
0000
0030
0000
,
1000
0000
0000
0000
0000
0000
0001
0000
0000
0000
0000
0000
0100
0000
0000
0000
0000
0000
0010
0000
0000
0000
0000
0000
1000
0000
0000
0000
0000
0000
0001
0000
0000
0000
0000
0000
0020
0000
0000
0030
0000
0000
0200
0000
0000
0000
0300
0000
,
1000
0100
0010
0100
1000
0010
0100
0001
,
1000
0100
0010
0001
1000
0010
1000
0100
,
0010
0001
0010
0100
2000
3020
2030
3200
,
0320
0030
0000
0000
0002
0003
0000
0000
0020
0030
0000
0000
0002
0003
0000
0000
0020
0030
0000
0000
0002
0003
0000
0000
0200
0300
0000
0000
0020
0030
0000
0000
,
0200
0300
0000
0000
0020
0030
0000
0000
0200
0300
0000
0000
0020
0030
0000
0000
0200
0300
0000
0000
0020
0030
0000
0000
0200
0300
0000
0000
0020
0030
0000
0000
,
2000
3000
0000
0000
0200
0300
0000
0000
2000
3000
0000
0000
0200
0300
0000
0000
2000
3000
0000
0000
0200
0300
0000
0000
2000
3000
0000
0000
0002
0003
0000
0000
,
2000
3000
0000
0000
0002
0003
0000
0000
2000
3000
0000
0000
0002
0003
0000
0000
2000
3000
0000
0000
0002
0003
0000
0000
2000
3000
0000
0000
0002
0003
0000
0000
,
0200
0300
0000
0000
0002
0003
0000
0000
0200
0300
0000
0000
0002
0003
0000
0000
0200
0300
0000
0000
0002
0003
0000
0000
0020
0030
0000
0000
0200
0300
0000
0000
,
0020
0030
0000
0000
0200
0300
0000
0000
0020
0030
0000
0000
0200
0300
0000
0000
0020
0030
0000
0000
0200
0300
0000
0000
0020
0030
0000
0000
0200
0300
0000
0000
,
2000
3000
0000
0000
0200
0300
0000
0000
2000
3000
0000
0000
0200
0300
0000
0000
2000
3000
0000
0000
0200
0300
0000
0000
2000
3000
0000
0000
0002
0003
0000
0000
,
1000
0000
0010
0000
0100
0001
1000
0001
0100
0000
0010
0000
2000
0000
0000
3000
,
0001
0100
0010
1000
0100
1000
0001
1000
,
0040
0000
0030
0100
0000
0000
0040
0000
0030
0100
0000
0000
0001
0000
0000
0001
0000
0000
1000
0000
0000
1000
0000
0000
,
0001
0010
0100
1000
0010
0100
0001
1000
,
0200
0300
0000
0000
0000
0000
0020
0030
0000
0000
0000
0000
0200
0300
0000
0000
0000
0000
0020
0030
0000
0000
0000
0000
0002
0003
0000
0000
0000
0000
2000
3000
0000
0000
0000
0000
0002
0003
0000
0000
0000
0000
2000
3000
0000
0000
0000
0000
,
0001
0000
0000
0010
0000
0000
0001
0000
0000
1000
0000
0000
0010
0000
0000
1000
0000
0000
0400
0000
0300
1000
0000
0000
,
0002
0203
0320
2030
3200
0320
0031
1000
,
0001
0100
0010
0100
0001
0010
0100
1000
,
0001
0000
0100
0000
0001
0010
0100
0010
0100
0000
1000
0000
0010
0100
0001
1000
,
0100
0010
0100
1000
0001
0100
0010
0100
,
0001
0010
0100
0010
0001
1000
0010
0100
,
0001
1000
0100
0010
0100
1000
0001
0100
,
0001
1000
0100
1000
0001
0010
0001
0100
,
0010
0100
0001
1000
0001
0010
0100
1000
,
0001
0100
0001
0010
0100
1000
0010
1000
,
0001
0010
0100
0010
0001
1000
0010
0100
,
0000
0001
0000
1000
0020
0130
0001
0010
,
0002
0103
0002
1003
0002
0013
0200
1300
,
0000
0000
0000
0000
,
0001
0010
0100
1000
0010
1000
0100
1000
,
0001
0010
0100
0010
0001
0100
0001
0010
,
0001
1000
0100
0010
0001
0100
0001
1000
,
0010
0100
0001
1000
0010
1000
0100
1000
,
0001
0010
0100
1000
0001
1000
0010
0100
,
0001
1000
0100
0010
0100
1000
0010
0100
,
0001
1000
0100
0010
0100
1000
0010
1000
,
0001
0100
0010
0100
0001
1000
0100
0010
,
0001
0000
0100
0000
0001
0100
0010
1000
,
0200
0300
0020
0030
0000
0000
0000
0000
0002
0003
2000
3000
0000
0000
0000
0000
0002
0000
0003
0000
0020
0000
0030
0000
0002
0000
0000
0000
2003
0000
0000
0000
,
3100
0010
0001
1000
0010
0100
0001
1000
,
0020
0030
0200
0300
0002
0000
2003
0000
3001
0000
0010
0000
0100
0000
1000
0000
,
0001
0100
0001
1000
0100
1000
0010
1000
,
0001
0010
0001
1000
0100
1000
0001
0000
,
1000
0010
0100
0010
1000
0001
0010
0100
,
1000
0001
0100
0001
0010
0001
1000
0010
,
1000
0000
0100
0000
0010
0001
0010
0001
1000
0000
0100
1000
0001
0000
0100
0000
,
0010
1000
0001
0010
0002
0000
0003
0000
,
1000
0100
0010
0001
0100
0001
0010
0001
,
1000
0100
0010
0100
1000
0010
1000
0100
,
1000
0001
0010
0100
1000
0010
1000
0001
,
0100
0010
1000
0001
0100
0001
0010
0001
,
1000
0100
0010
0001
1000
0001
0100
0010
,
1000
0001
0010
0100
0010
0001
0100
0010
,
1000
0001
0010
0100
0010
0001
0100
0001
,
1000
0010
0100
0010
1000
0001
0010
0100
,
1000
0010
0100
0001
1000
0100
0010
0001
,
1000
0010
0100
0010
1000
0100
0010
0001
,
1000
0010
1000
0100
1000
0001
0010
0001
,
0100
0010
1000
0100
0010
0001
0100
0001
,
0010
0100
1000
0001
1000
0010
0100
0001
,
1000
0100
1000
0010
0100
0001
0010
0001
,
1000
0010
0100
0001
0010
0001
0100
0010
,
2000
3002
0023
0230
2300
3020
0230
0302
,
1003
0010
0100
0001
0010
0100
1000
0010
,
0000
0100
0000
0010
0000
0100
0010
1000
,
0100
0010
0001
1000
0001
0100
0010
1000
,
0000
0001
0000
1000
0000
0100
0010
0001
,
1000
0010
1000
0100
0010
0001
0100
0010
,
0000
1000
0000
0010
0000
0100
0001
1000
,
0100
0010
0100
1000
0010
0100
0001
1000
,
0000
0100
0000
1000
0000
0001
0100
0010
,
1000
0001
1000
0010
0100
0001
0010
0100
,
0000
0100
0000
0100
0000
0000
0000
0000
;
