#TITLE:Lifestream;
#SUBTITLE:;
#ARTIST:Kil;
#TITLETRANSLIT:;
#SUBTITLETRANSLIT:;
#ARTISTTRANSLIT:;
#CREDIT:;
#BANNER:Lifestream.png;
#BACKGROUND:Lifestream-bg.png;
#LYRICSPATH:;
#CDTITLE:Kil.png;
#MUSIC:Lifestream.mp3;
#OFFSET:-0.318;
#SAMPLESTART:60.668;
#SAMPLELENGTH:11.000;
#SELECTABLE:YES;
#BPMS:0.000=180.020,16.000=185.000,32.000=192.000,60.000=194.000,119.000=388.198,120.000=202.100,121.000=194.020,179.500=384.219,192.000=194.080;
#STOPS:119.000=2.400
,181.000=0.040
,294.000=1.300
;
#BGCHANGES:;
// cache tags:
#FIRSTBEAT:0.000;
#LASTBEAT:294.063;
#SONGFILENAME:Songs/IzzySM Keyboard Mega Pack/Lifestream/Lifestream.sm;
#HASMUSIC:1;
#HASBANNER:1;
#MUSICLENGTH:95.613;
// end cache tags

//---------------dance-single - Light----------------
#NOTES:
     dance-single:
     Light:
     Beginner:
     5:
     0.374,0.346,0.000,0.010,0.000,249.000,0.000,1.000,0.000,0.000:
1000
0000
0000
0000
,
1000
0000
0000
0000
,
1000
0000
0000
0000
,
0001
0000
0000
0000
,
1000
0000
0000
0000
,
0010
0000
0000
0000
,
1000
0000
0000
0000
,
0001
0000
0000
0000
,
0100
0100
0100
1000
,
0010
0010
0010
0010
,
0100
0100
0100
0001
,
0100
0010
0010
1000
,
0010
0100
1000
1000
,
0001
1000
0010
1000
,
0010
0010
0010
0010
,
0010
0000
0010
0000
,
0010
0000
1000
0000
,
0010
0000
0001
0000
,
0100
0000
1000
0000
,
0010
0001
0100
0000
,
1000
0001
0010
0100
,
0001
1000
0100
0010
,
0100
0001
0010
1000
,
0100
0001
0010
1000
,
0010
0100
0010
1000
,
0010
1000
0100
0001
,
0010
1000
0100
0001
,
0010
1000
0010
0001
,
0100
1000
0010
0001
,
0100
0010
1000
0100
,
1000
0100
0001
0100
,
0010
1000
0010
0001
,
0010
1000
0100
1000
,
0100
0001
0010
1000
,
0010
1000
0001
0100
,
0010
0001
1000
1000
,
1000
0001
0010
0100
,
0010
0001
1000
0100
,
0010
0010
0100
1000
,
0100
0100
0001
0010
,
1000
0010
0100
0100
,
0001
0010
1000
0010
,
0001
0100
0001
1000
,
0001
0100
0001
0100
,
0001
1000
0001
0100
,
0000
1000
0000
0000
0000
0000
0000
0000
,
0000
0000
0000
0000
,
0000
0000
0000
0000
,
0100
0010
1000
0010
,
1000
0001
1000
0010
,
0001
1000
0001
1000
,
0001
0100
0001
1000
,
0100
0010
0100
0100
,
0100
0010
1000
0010
,
0010
0100
0001
0100
,
0010
0100
0001
0100
,
0010
0100
1000
0010
,
0100
0100
0001
0010
,
1000
0100
0010
0100
,
0010
0010
1000
0010
,
0100
0001
1000
0001
,
0010
0001
1000
0010
,
1000
0100
1000
0100
,
0010
0100
0001
0100
,
0010
1000
1000
1000
,
0001
0100
0100
0001
,
1000
0010
0010
0001
,
0010
0100
0001
0001
,
1000
0010
1000
0001
,
0100
0010
1000
0001
,
0100
1000
0100
0001
,
0010
1000
0100
0001
,
0010
1000
0100
0001
,
0020
0000
0000
0000
0000
0000
0000
0000
0000
0000
0000
0000
0000
0000
0000
0000
0000
0000
0000
0000
0000
0000
0000
0000
0000
0000
0000
0000
0000
0000
0000
0000
0000
0030
0000
0000
0000
0000
0000
0000
0000
0000
0000
0000
0000
0000
0000
0000
0000
0000
0000
0000
0000
0000
0000
0000
0000
0000
0000
0000
0000
0000
0000
0000
;

//---------------dance-single - Standard----------------
#NOTES:
     dance-single:
     Standard:
     Easy:
     8:
     0.716,0.654,0.000,0.010,0.000,478.000,0.000,1.000,0.000,0.000:
0001
1000
0001
0000
,
0001
1000
0010
0000
,
0010
0100
0001
1000
,
0010
0001
0100
1000
,
0100
0001
0100
0000
,
0010
1000
0100
0000
,
0010
0100
0010
0100
,
0010
1000
0010
0001
,
0010
0001
1000
0000
0010
1000
0100
0000
,
0010
1000
0001
0000
0010
1000
0100
0001
,
0100
1000
0010
0000
0100
0001
0010
0000
,
0010
0100
0001
0100
0001
0100
0001
0100
,
0010
1000
0100
0000
1000
0001
1000
0000
,
1000
0001
0010
0000
1000
0100
0010
0000
,
0010
0100
1000
0001
0010
0100
1000
0010
,
0100
1000
0100
1000
0100
1000
0100
1000
,
0010
0100
0010
0100
0010
0100
0010
0100
,
0001
0010
0001
0010
0001
0010
0001
0010
,
0001
1000
0001
1000
0001
0100
0010
1000
,
0001
0100
0010
1000
0010
0100
1000
0000
,
1000
0001
1000
0001
0100
0001
0100
0001
,
1000
0001
1000
0001
1000
0001
0010
0000
,
0010
0100
0010
0100
0010
0001
0010
0100
,
0010
0100
0010
1000
0010
0100
0010
0000
,
1000
0001
1000
0001
1000
0010
1000
0001
,
0100
0001
0100
0001
0100
0010
0100
0001
,
1000
0001
1000
0001
0100
0001
0100
0001
,
1000
0001
1000
0001
1000
0010
1000
0010
,
0100
0010
0100
0010
1000
0001
0100
0010
,
0100
0010
1000
0010
0100
0001
0100
0000
,
0001
0100
0001
0100
0010
1000
0010
0000
,
0010
1000
0001
0100
0010
0001
0010
0000
,
0010
0100
0010
1000
0010
0100
1000
0000
,
1000
0001
1000
0010
1000
0100
0001
0000
,
0001
0100
0010
1000
0001
0100
0010
0000
,
0001
0100
0010
0001
0010
0100
1000
0001
,
1000
0010
0100
0001
0100
0010
1000
0000
,
0001
0010
1000
0001
1000
0100
1000
0000
,
0010
1000
0010
1000
0010
0001
1000
0000
,
0100
0010
0001
1000
0100
0010
0001
0010
,
0100
1000
0010
0000
0100
1000
0001
0000
,
0001
0010
0100
1000
0100
0010
0001
0000
,
1000
0100
0001
0010
1000
0100
0001
0010
,
0001
0100
1000
0010
0001
0100
1000
0010
,
0001
1000
0001
0010
0001
0100
1000
0001
,
0000
0010
0000
0000
0000
0000
0000
0000
,
0000
0000
0000
0000
,
0000
0000
0000
0000
,
0010
0000
0001
1000
0001
0000
0010
0100
,
0010
0000
0100
1000
0100
0010
0100
1000
,
0001
0000
0010
0100
1000
0000
0100
0010
,
1000
0000
1000
0010
0001
0010
0100
0000
,
0001
0000
0100
0100
0001
0000
0100
0100
,
0001
0000
0100
0001
0001
0000
0001
1000
,
0010
0000
1000
0010
0001
0000
1000
0010
,
0001
0000
1000
0001
1000
0000
0000
0000
,
1000
0001
1000
0010
1000
0010
0100
0000
,
0100
0010
0100
0001
0100
0010
0001
0000
,
0001
1000
0001
1000
0001
1000
0001
0100
,
0001
0100
0001
0100
0001
0010
0001
0000
,
0100
0010
1000
0001
1000
0001
0010
0000
,
0100
1000
0100
1000
0001
0010
0001
0000
,
0100
1000
0100
0010
0100
0001
0100
0000
,
0100
0010
1000
0100
0010
0001
0100
0010
,
1000
0010
0100
0001
0010
0100
0010
0001
,
1000
0001
1000
0010
0100
0010
1000
0010
,
0100
1000
0100
1000
0001
0010
0001
0010
,
1000
0100
1000
0001
0010
0001
0010
0001
,
0010
0100
0010
0100
0010
0001
0010
0100
,
1000
0100
0001
0010
1000
0100
0001
0010
,
0010
0001
0100
1000
0010
0001
0100
1000
,
0010
0001
0100
1000
0010
0001
0100
1000
,
0010
0001
0100
1000
0010
0001
0100
0000
,
0020
0000
0000
0000
0000
0000
0000
0000
0000
0000
0000
0000
0000
0000
0000
0000
0000
0000
0000
0000
0000
0000
0000
0000
0000
0000
0000
0000
0000
0000
0000
0000
0000
0030
0000
0000
0000
0000
0000
0000
0000
0000
0000
0000
0000
0000
0000
0000
0000
0000
0000
0000
0000
0000
0000
0000
0000
0000
0000
0000
0000
0000
0000
0000
;

//---------------dance-single - Heavy----------------
#NOTES:
     dance-single:
     Heavy:
     Medium:
     10:
     0.855,0.807,0.000,0.010,0.303,571.000,0.000,1.000,0.000,0.000:
1000
0000
0000
0001
0000
0000
1000
0000
0001
0000
0000
1000
0000
0000
0001
0000
,
0100
0000
0000
0010
0000
0000
1000
0000
0010
0000
0000
0100
0000
0000
0001
0000
,
0010
0000
0000
1000
0000
0000
0001
0000
0100
0000
0000
0010
0000
0000
1000
0000
,
0100
0000
0000
0010
0000
0000
1000
0000
0100
0000
0000
1000
0000
0000
0100
0000
,
1000
0000
0000
0100
0000
0000
1000
0000
0010
0000
0000
0100
0000
0000
0010
0000
,
0001
0000
0000
0010
0000
0000
0001
0000
0010
0000
0000
1000
0000
0000
0001
0000
,
1000
0000
0000
0010
0000
0000
0100
0000
0010
0000
0000
0001
0000
0000
0100
0000
,
0010
0000
0000
1000
0000
0000
0100
0000
0001
1000
0000
0010
0000
0000
0010
0000
,
1000
0001
1000
0000
0010
0000
1000
0000
0001
1000
0001
0000
0100
0000
0010
0000
,
0010
1000
0010
0000
0001
0000
1000
0000
0001
0000
0010
0000
0001
0000
0100
0000
,
0010
0100
0010
0000
1000
0000
0001
0000
0100
0010
0100
0000
0001
0000
1000
0000
,
1000
0100
0010
0000
0010
0000
1000
0000
0001
0000
0100
0000
0001
0000
0010
0000
,
1000
0100
1000
0000
0001
0000
0001
0000
1000
0000
0100
0000
1000
0000
0010
0000
,
0001
0010
0001
0000
1000
0000
1000
0000
0001
0000
0001
0000
0100
0000
0010
0000
,
0100
0000
0001
0000
0100
0000
0001
0000
0100
0001
0100
0000
0001
0000
1000
0000
,
0001
0000
0010
0000
1000
0000
0100
0000
0001
0010
1000
0000
0100
0000
0001
0000
,
0100
0000
1000
0000
0010
0000
0001
0000
1000
0100
0001
0000
0010
0000
1000
0000
,
0001
0000
0010
0000
1000
0000
0100
0000
0001
0010
1000
0000
0100
0000
0001
0000
,
0100
0000
0001
0000
0100
0000
1000
0000
0010
0001
0100
0000
1000
0000
0010
0000
,
0100
0000
0010
0000
0001
0000
1000
0000
0001
1000
0001
1000
0010
0000
0000
0000
,
0010
1000
0001
1000
0010
0000
1000
0000
0010
0000
1000
0000
0001
0000
0100
0000
,
0001
0000
0010
0000
0001
0000
0100
0000
1000
0000
0010
0000
0001
0010
0001
0000
,
0010
0100
0010
1000
0001
0010
0100
1000
,
0001
0000
1000
0000
0010
0000
0100
0000
0001
0000
0100
0001
0100
0000
0001
1000
,
0001
0000
1000
0000
0010
0000
1000
0000
0010
0000
1000
0000
0100
0000
1000
0001
,
1000
0000
0100
0000
0010
0000
0001
0000
1000
0000
0001
0000
0010
0000
0100
1000
,
0010
0000
0100
0000
0001
0000
0010
0000
0100
0000
1000
0000
0010
0100
0010
0000
,
1000
0000
0100
0000
0010
0000
0001
0000
0100
0000
0010
0000
0100
0010
0100
0000
,
0001
0000
1000
0000
0001
0000
0010
0000
0100
0000
0010
1000
0001
0000
0010
0000
,
0100
0001
0100
0000
0010
1000
0010
0000
1000
0001
1000
0010
1000
0000
0000
0000
,
1000
0010
0100
0001
0010
0100
1000
0100
,
0010
0001
0100
0010
1000
0100
1000
0001
,
0010
1000
0010
0001
0100
1000
0100
0001
,
1000
0010
0100
0001
0100
0010
1000
0100
,
0001
0100
0010
1000
0010
0100
0001
0010
,
0100
1000
0010
0001
1000
0001
0100
0010
,
1000
0010
1000
0010
0001
0100
1000
0001
,
0100
0001
0010
0100
1000
0010
1000
0001
,
1000
0001
1000
0010
1000
0100
1000
0100
,
0010
0001
0010
0001
0100
0001
1000
0001
,
0010
0100
0010
1000
0010
0100
0010
0001
,
0100
1000
0100
0001
0100
0001
0100
0010
,
0100
1000
0010
0001
0100
1000
0010
0010
,
0001
0010
1000
0100
0001
0010
0100
0100
,
0010
0001
0100
1000
0010
0001
0100
1000
,
0000
0010
0000
0000
0000
0000
0000
0000
,
0000
0000
0000
0000
,
0000
0000
0000
0000
,
0100
0000
0010
0001
0100
0000
0010
0001
,
0100
0000
0100
1000
0010
0100
0001
0010
,
1000
0000
0010
1000
0100
0000
0100
0001
,
0010
0000
0010
1000
0001
0100
0010
0000
,
0001
0000
0001
0010
0001
0000
1000
0001
,
1000
0000
1000
0100
1000
0000
0100
1000
,
0001
0000
0100
1000
0001
0000
0100
1000
,
0010
0000
0000
0000
0100
0000
0010
0000
0100
0000
0000
0000
0100
0001
0100
0010
,
0100
0001
1000
0010
0100
0001
0100
0010
,
0100
0001
1000
0010
1000
0001
1000
0010
,
0001
1000
0001
0100
0001
1000
0010
0100
,
0001
1000
0010
0100
0010
1000
0010
0100
,
0100
0010
0001
1000
0010
0001
0100
0100
,
0010
0100
1000
0001
0100
1000
0010
0010
,
0001
1000
0001
0100
0001
1000
0001
0100
,
0001
0000
1000
0000
0001
0000
0100
0000
0001
0000
1000
0000
0001
0100
0010
1000
,
0001
0100
0010
1000
0010
0100
0001
1000
,
0100
0001
1000
0010
1000
0001
0100
0010
,
1000
0010
0100
0001
0100
0010
1000
0001
,
0010
1000
0001
0100
0001
1000
0010
0010
,
0100
0001
0100
1000
0100
0100
0001
0001
,
0010
1000
0010
0001
0010
0010
1000
1000
,
0100
0000
0001
0000
0100
0000
0100
0001
0100
0000
1000
0000
0100
0000
0100
1000
,
0001
0000
0010
0000
0001
0000
0001
0010
0001
0000
1000
0000
0001
0000
0001
1000
,
0010
0000
1000
0000
0010
0000
0010
1000
0010
0000
1000
0100
0010
0001
1000
0100
,
0020
0000
0000
0000
0000
0000
0000
0000
0000
0000
0000
0000
0000
0000
0000
0000
0000
0000
0000
0000
0000
0000
0000
0000
0000
0000
0000
0000
0000
0000
0000
0000
0000
0030
0000
0000
0000
0000
0000
0000
0000
0000
0000
0000
0000
0000
0000
0000
0000
0000
0000
0000
0000
0000
0000
0000
0000
0000
0000
0000
0000
0000
0000
0000
;

//---------------dance-single - [Keyboard]----------------
#NOTES:
     dance-single:
     [Keyboard]:
     Hard:
     11:
     1.000,1.000,0.000,0.010,1.000,975.000,0.000,1.000,0.000,0.000:
0010
1000
0000
0010
0100
0000
0010
1000
0000
0010
0100
0000
1000
0100
0010
0001
,
0100
0010
0000
0100
0001
0000
0100
0010
0000
0100
0001
0000
0001
0010
0100
1000
,
0001
0010
0000
0001
0100
0000
0001
1000
0000
0001
0100
0000
0010
0100
0010
0100
,
1000
0001
0000
1000
0010
0000
1000
0100
0000
1000
0001
0000
0100
0010
0100
0010
,
0001
0010
0000
0100
1000
0000
0010
0001
0000
0010
0100
0000
0010
0000
0100
0000
,
1000
0100
0000
0010
0001
0000
0100
1000
0000
0100
0010
0000
0100
0000
0010
0000
,
0100
1000
0100
1000
0001
0000
0010
0000
0100
1000
0100
1000
0001
0000
0010
0000
,
0100
1000
0100
1000
0001
0000
0010
0000
1000
0100
0010
0001
1000
0100
0010
0001
,
1000
0100
0001
0100
0010
0100
0010
0100
0010
1000
0010
1000
0100
0000
0000
0000
,
1000
0010
1000
0010
0100
0010
0100
0010
0100
0001
0100
0001
0010
0000
0000
0000
,
0001
1000
0001
1000
0010
0100
0010
0100
1000
0100
0010
0001
1000
0100
0010
0001
,
1000
0001
1000
0001
1000
0010
1000
0010
1000
0100
1000
0100
1000
0000
0000
0000
,
0010
0100
0010
0100
0010
0100
0010
0100
0001
0010
0001
0010
0001
0010
0100
0010
,
0001
0010
0100
1000
0100
0010
0001
0010
0100
0010
0001
0010
0100
0010
0001
0010
,
1000
0100
0010
0001
0010
0100
1000
0100
0010
0100
1000
0100
0010
0100
1000
0100
,
0010
1000
0001
0100
0010
1000
0001
0100
0010
1000
0001
0100
0010
1000
0001
0100
,
0010
1000
0001
0100
0010
1000
0001
0100
0010
1000
0001
0100
0010
1000
0001
0100
,
0010
1000
0001
0100
0010
1000
0001
0100
0010
1000
0001
0100
0010
1000
0001
0100
,
0010
1000
0001
0100
0010
1000
0001
0010
0100
1000
0100
0010
0001
1000
0100
0010
,
0001
0010
0100
1000
0100
0010
0001
1000
0010
0010
0100
0100
0010
0000
0000
0000
,
0001
0010
0100
1000
0010
0000
0100
0000
0001
0010
0100
1000
0010
0000
0100
0000
,
0001
0010
0100
1000
0010
0000
0001
0000
0001
0010
0100
1000
0010
0000
0001
0000
,
1000
0001
1000
0100
0001
0000
0010
0000
1000
0001
1000
0100
0001
0000
0010
0000
,
1000
0001
1000
0100
0001
0000
0010
0000
1000
0001
1000
0001
1000
0000
0010
0000
,
1000
0100
0010
0001
0010
0000
0010
0000
1000
0100
0010
0001
0010
0000
0010
0000
,
1000
0100
0010
0001
0010
0000
0010
0000
1000
0100
0010
0001
0100
0000
0010
0100
,
1000
0100
0010
0001
1000
0100
0010
0001
1000
0100
0010
0001
1000
0010
1000
0010
,
1000
0100
1000
0001
0010
0100
1000
0001
0010
0100
1000
0001
0010
1000
0010
0100
,
0001
0100
0010
1000
0100
0010
0001
0010
1000
0001
0100
0001
0010
0100
1000
0100
,
0010
0001
0010
0100
1000
0001
0010
0100
1000
0100
0001
0010
1000
0000
0000
0000
,
1000
0100
0010
0001
1000
0000
0001
0000
0100
0000
0001
0000
0010
0000
0001
0000
,
0001
0010
0100
1000
0001
0000
1000
0000
0010
0000
1000
0000
0100
0000
1000
0000
,
1000
0001
1000
0001
0010
0000
1000
0000
0010
0000
0001
0000
1000
0000
0100
0000
,
0001
1000
0001
1000
0100
0000
0001
0000
0100
0000
1000
0000
0001
0000
0010
0000
,
1000
0010
1000
0010
1000
0010
1000
0000
0100
0000
0001
0000
0100
0000
0010
0000
,
0001
0100
0001
0100
0001
0100
0001
0000
0010
0000
1000
0000
0010
0000
0100
0000
,
0100
0010
0100
1000
0001
1000
0010
0000
0010
0000
0010
0000
0100
0000
0001
0000
,
0010
0100
0010
0001
1000
0001
0100
0000
0100
0000
0100
0000
0010
0000
1000
0000
,
0100
1000
0010
0001
0100
1000
0001
0000
0001
0000
1000
0000
0010
0000
1000
0000
,
0010
0001
0100
1000
0010
0001
1000
0000
1000
0000
0001
0000
0100
0000
0001
0000
,
0001
1000
0001
0100
0010
0100
0010
0100
0000
0000
0010
0000
0100
0000
0010
0000
,
0001
1000
0001
0100
0010
0100
0010
0100
0000
0000
0010
0000
0100
0000
0010
0000
,
1000
0100
0010
0001
0010
1000
0100
0010
0001
0010
1000
0100
0010
0001
0010
1000
,
0100
0010
0001
0010
1000
0100
0010
0001
0010
0100
1000
0010
1000
0001
0010
0100
,
1000
0010
1000
0001
0010
0100
1000
0010
1000
0001
0010
0100
1000
0000
0000
0000
,
0000
1000
0000
0000
0000
0000
0000
0000
,
0000
0000
0000
0000
,
0000
0000
0000
0000
,
0001
0100
0000
0100
0001
0100
0001
0100
0001
0100
0000
0100
0001
0100
0001
0100
,
0001
0100
0000
0100
0001
0100
0001
0100
0001
0100
0001
0100
0001
0100
0001
0100
,
0001
0100
0000
0100
0001
0100
0001
0100
0001
0100
0000
0100
0001
0100
0001
0100
,
0001
0100
0000
0100
0001
0100
0001
0100
0001
0100
0001
0100
0001
0100
0000
0100
,
0001
0100
0000
0100
0001
0100
0001
0100
0001
0100
0000
0100
0001
0100
0001
0100
,
0001
0100
0000
0100
0001
0100
0001
0100
0001
0100
0000
0100
0001
0100
0001
0100
,
0001
0100
0000
0100
0001
0100
0001
0100
0001
0100
0000
0100
0001
0100
0001
0100
,
0001
0100
0000
0100
0001
0100
0001
0100
0001
0100
0000
0000
0010
0100
1000
0010
,
0001
1000
0001
0100
0001
1000
0001
0100
0001
1000
0001
0100
0001
1000
0100
0001
,
1000
0001
1000
0010
1000
0001
1000
0010
1000
0001
1000
0010
1000
0001
0100
1000
,
0100
0001
0100
0001
0100
0010
1000
0010
0100
0001
0100
0010
1000
0010
0100
0001
,
0010
1000
0010
1000
0100
0001
0100
0001
0010
1000
0010
0100
0001
0100
0010
1000
,
0001
0010
0100
1000
0010
0100
0001
0010
0100
1000
0010
0100
0010
0100
0010
0100
,
1000
0100
0010
0001
0100
0010
1000
0100
0010
0001
0100
0010
0100
0010
0100
0001
,
0010
1000
0100
0001
0100
1000
0100
1000
0010
0001
0010
0001
0100
1000
0100
1000
,
0010
0001
0010
0001
0010
0100
0010
0100
1000
0100
1000
0100
0010
0001
0100
0010
,
1000
0100
0010
0001
1000
0100
0010
0001
1000
0100
0010
0001
0100
0010
0100
1000
,
0001
0010
0100
1000
0001
0010
0100
1000
0001
0010
0100
1000
0001
0010
1000
0100
,
1000
0100
0010
0001
1000
0100
0010
0001
1000
0100
0010
0001
1000
0100
0010
0001
,
1000
0100
0010
0001
1000
0100
0010
0001
1000
0100
0010
0001
1000
0100
1000
0100
,
0001
0010
0100
1000
0001
0010
0100
1000
0001
0010
0100
1000
0001
0010
0100
1000
,
0001
0010
0100
1000
0001
0010
0100
1000
0001
0010
0100
1000
0001
0010
0100
1000
,
0100
0001
1000
0010
0100
0001
1000
0010
0100
0001
1000
0010
0100
0001
1000
0010
,
0100
0001
1000
0010
0100
0001
1000
0010
0100
0001
1000
0010
0100
0001
1000
0010
,
0100
0000
0001
0000
1000
0000
0010
0000
0100
0000
0001
0000
1000
0000
0010
0000
0100
0001
1000
0010
0100
0001
1000
0010
0100
0001
1000
0010
0100
0001
1000
0010
,
0200
0000
0000
0000
0000
0000
0000
0000
0000
0000
0000
0000
0000
0000
0000
0000
0000
0000
0000
0000
0000
0000
0000
0000
0000
0000
0000
0000
0000
0000
0000
0000
0000
0300
0000
0000
0000
0000
0000
0000
0000
0000
0000
0000
0000
0000
0000
0000
0000
0000
0000
0000
0000
0000
0000
0000
0000
0000
0000
0000
0000
0000
0000
0000
;

//---------------dance-single - [Keyboard] Hard----------------
#NOTES:
     dance-single:
     [Keyboard] Hard:
     Challenge:
     12:
     1.000,1.000,0.000,0.010,1.000,1104.000,0.000,1.000,0.000,0.000:
0010
0100
1000
0001
0000
0000
0010
0000
0100
0010
0001
1000
0000
0000
0010
0000
,
0010
0100
0010
1000
0000
0000
0001
0000
0100
0010
0100
0001
0000
0000
1000
0000
,
0001
0010
1000
0010
0000
0000
0100
0000
1000
0100
0001
0100
0000
0000
0010
0000
,
0001
1000
0001
0010
0000
0000
0100
0000
1000
0001
1000
0100
0000
0000
0010
0000
,
0001
1000
0010
1000
0001
0100
0010
0000
1000
0001
0100
0001
1000
0010
0100
0000
,
0010
0100
0010
0100
0001
1000
0001
1000
0010
0100
0010
1000
0001
1000
0001
0000
,
0100
1000
0100
0001
0000
0000
0001
0000
0010
0001
0010
1000
0000
0000
1000
0000
,
1000
0100
1000
0001
0000
0000
1000
0000
0100
1000
0010
0100
0001
0010
0001
0000
,
1000
0100
1000
0100
1000
0010
1000
0010
1000
0001
1000
0001
0100
0001
0100
0001
,
0010
0001
0010
0001
0100
0001
0100
0001
1000
0001
1000
0001
1000
0010
1000
0100
,
0010
1000
0010
1000
0010
0100
0010
0100
0010
0001
0010
0001
0100
0001
0100
0001
,
0100
0001
0100
0001
0100
0010
0100
0010
0100
1000
0100
1000
0100
0010
0001
0010
,
0100
1000
0010
1000
0001
0100
0001
0010
0001
0010
0100
0010
1000
0010
0100
1000
,
0100
0010
0100
0001
0100
0001
0100
0001
1000
0001
0100
0001
1000
0001
1000
0001
,
1000
0100
0010
0001
1000
0100
0010
0001
1000
0100
0010
0001
0100
0001
0010
0100
,
1000
0100
0010
0001
1000
0100
0010
0001
1000
0100
0010
0001
0100
0001
0010
0100
,
0001
0010
0100
1000
0001
0010
0100
1000
0001
0010
0100
1000
0010
1000
0100
0010
,
0001
0010
0100
1000
0001
0010
0100
1000
0001
0010
0100
1000
0010
1000
0100
0010
,
1000
0100
0010
0001
0010
0100
1000
0100
0010
0001
0010
0100
1000
0100
0010
0001
,
0010
1000
0001
0100
0010
1000
0001
0100
0001
0100
0001
0100
0010
0000
0000
0000
,
0010
1000
0010
0100
0001
0100
0010
0001
0100
0001
0100
0010
1000
0010
0100
1000
,
0001
0010
0001
1000
0100
1000
0001
0100
1000
0100
1000
0001
0010
0001
1000
0010
,
0001
0010
0100
1000
0100
0001
1000
0010
1000
0100
0010
0001
0010
1000
0001
0100
,
0010
1000
0001
0100
0001
0010
0100
1000
0100
0001
1000
0010
1000
0100
0010
0001
,
1000
0100
1000
0100
0010
0100
0010
0001
1000
0100
1000
0100
0010
0100
0010
0001
,
0010
0100
1000
0100
0010
0001
0010
0100
1000
0001
0010
0100
1000
0001
0010
0100
,
1000
0010
1000
0001
1000
0001
0010
0100
1000
0010
1000
0001
1000
0001
0010
0100
,
0001
0100
0001
1000
0001
1000
0100
0010
0001
0100
0001
1000
0001
1000
0010
0010
,
0010
1000
0010
0100
0010
0001
0010
0100
0010
1000
0010
1000
0001
1000
0010
0100
,
0001
0100
0010
1000
0001
0010
1000
0100
0001
0010
0001
0100
0001
0000
0000
0000
,
0001
0010
0100
1000
0010
0000
0100
0000
0001
0000
1000
0000
0001
0000
1000
0000
0010
0000
1000
0000
0010
0000
0100
0000
0001
0000
1000
0000
0001
0000
1000
0000
,
0100
1000
0100
1000
0100
0010
0001
0010
0001
1000
0001
1000
0010
0100
1000
0001
,
0010
0001
0010
0001
0010
0100
1000
0100
1000
0001
1000
0001
0100
0010
0100
0010
,
0100
1000
0001
0010
0100
1000
0001
0010
0100
1000
0100
1000
0100
0010
0001
0010
,
0100
1000
0100
0010
0100
0010
0100
0001
0100
0001
0100
0001
1000
0001
1000
0010
,
0001
1000
0001
1000
0001
0010
0100
1000
0100
1000
0010
0100
0001
0010
0100
1000
,
0100
0010
1000
0100
0010
0001
0100
0010
0100
0010
0001
0010
0100
1000
0010
0100
,
1000
0001
1000
0010
0100
0001
0100
0010
1000
0010
0100
0010
1000
0001
1000
0001
,
0100
0001
1000
0010
0100
1000
0100
0010
0001
0010
0001
0010
0001
1000
0100
1000
,
0001
0010
0100
0010
0001
0010
0100
1000
0001
0010
0100
1000
0001
0010
0100
1000
,
0010
0100
0010
0100
0010
0001
0010
0001
1000
0100
1000
0100
0001
0100
0010
1000
,
0100
0001
1000
0010
0100
0001
1000
0010
0001
0010
0100
1000
0100
0010
0001
1000
,
0001
0100
0010
0001
0010
0001
0100
0001
0100
0001
1000
0001
1000
0001
0100
0001
,
1000
0010
1000
0010
0100
0010
1000
0010
0100
0010
0100
0010
0001
1000
0001
0010
,
0001
0100
0010
0100
0010
0100
1000
0100
0010
0001
0010
1000
0010
0100
0001
0000
,
0000
0100
0000
0000
0000
0000
0000
0000
,
0000
0000
0000
0000
,
0000
0000
0000
0000
,
0001
0010
0100
1000
0001
0100
0001
1000
0001
1000
0100
0010
0001
0010
0001
0010
,
0001
0010
1000
0010
0001
0100
0001
1000
0001
1000
0001
1000
0001
0100
0001
1000
,
0001
0100
1000
0100
0001
0010
0001
0100
0001
0010
0100
1000
0001
1000
0001
0100
,
0001
0010
0100
0010
0001
1000
0001
0100
0001
0100
0001
0100
0001
0100
0010
0100
,
0001
0100
0010
0100
0001
0100
0001
0100
0001
0100
0010
0100
0001
1000
0001
1000
,
0001
0010
0100
0010
0001
1000
0001
1000
0001
0100
0010
0100
0001
1000
0001
0100
,
0001
0000
0001
0001
0001
0000
0001
0001
,
0001
0000
0000
0000
0000
0000
0000
0000
0001
0000
0000
0000
0001
0000
0000
0000
0001
0000
0000
0000
1000
0100
0010
0001
1000
0100
0010
0001
1000
0100
0010
0001
,
0010
0100
0001
1000
0001
1000
0010
1000
0001
0100
0001
0010
0001
1000
0010
0100
,
0001
0100
0010
1000
0010
0100
0001
0010
0100
0010
1000
0100
1000
0100
0001
0100
,
0010
0001
0010
0001
1000
0100
1000
0100
0010
0001
0010
0100
1000
0100
1000
0001
,
0010
0100
1000
0100
0010
0100
1000
0001
0010
0100
0010
0100
0010
0100
1000
0001
,
1000
0001
0100
0001
0010
0100
1000
0001
1000
0010
1000
0100
0010
0001
0100
0010
,
0001
0010
0001
0100
0010
1000
0001
0100
0010
1000
0010
0100
0010
0100
0010
0001
,
1000
0001
1000
0010
1000
0010
1000
0001
0100
0001
0100
0001
0100
0010
1000
0001
,
1000
0010
0100
0001
0100
0010
1000
0001
0100
0010
0100
0001
0100
0010
0001
0100
,
0010
0001
0010
0100
1000
0100
0010
0001
0100
0010
0001
0010
0100
0010
0100
1000
,
0001
0100
0010
0001
1000
0100
0010
0001
0100
0010
1000
0010
1000
0001
1000
0001
,
1000
0010
1000
0010
1000
0100
1000
0100
0010
0100
0010
0100
0001
0100
0001
0100
,
0001
0010
0001
0010
0001
0100
0001
0100
0001
1000
0001
1000
0010
1000
0010
1000
,
0100
1000
0100
1000
0010
0100
0001
0010
0001
0100
0010
1000
0100
0010
0001
0010
,
0100
1000
0100
0010
0001
0010
0100
1000
0010
0001
0100
1000
0010
0001
0000
0000
,
1000
0100
0010
0001
1000
0100
0010
0001
1000
0100
0010
0001
1000
0100
0010
0001
1000
0100
0010
0001
1000
0100
0010
0001
1000
0100
0010
0001
0000
0000
0000
0000
,
1000
0001
0100
0010
1000
0001
0100
0010
1000
0001
0100
0010
1000
0001
0100
0010
1000
0001
0100
0010
1000
0001
0100
0010
0000
0000
0000
0000
0000
0000
0000
0000
,
1000
0100
0010
0001
0010
0100
1000
0100
0010
0001
0010
0100
1000
0100
0010
0001
0010
0100
1000
0100
0010
0001
0010
0100
1000
0100
0010
0001
0010
0100
1000
0100
,
0020
0000
0000
0000
0000
0000
0000
0000
0000
0000
0000
0000
0000
0000
0000
0000
0000
0000
0000
0000
0000
0000
0000
0000
0000
0000
0000
0000
0000
0000
0000
0000
0000
0030
0000
0000
0000
0000
0000
0000
0000
0000
0000
0000
0000
0000
0000
0000
0000
0000
0000
0000
0000
0000
0000
0000
0000
0000
0000
0000
0000
0000
0000
0000
;
