#TITLE:Cry For You;
#SUBTITLE:(Remix);
#ARTIST:September;
#TITLETRANSLIT:;
#SUBTITLETRANSLIT:;
#ARTISTTRANSLIT:;
#CREDIT:;
#BANNER:Cry For You.png;
#BACKGROUND:Cry For You-bg.png;
#LYRICSPATH:;
#CDTITLE:!macTitle.png;
#MUSIC:Cry For You.ogg;
#OFFSET:-0.006;
#SAMPLESTART:72.220;
#SAMPLELENGTH:12.000;
#SELECTABLE:YES;
#BPMS:0.000=130.000,124.000=65.000,126.000=130.000;
#STOPS:;
#BGCHANGES:;
// cache tags:
#FIRSTBEAT:16.000;
#LASTBEAT:203.500;
#SONGFILENAME:Songs/lvsb tourney pack/(MacGravel) Cry For You/Cry For You.sm;
#HASMUSIC:1;
#HASBANNER:1;
#MUSICLENGTH:105.000;
// end cache tags

//---------------dance-single - MacGravel----------------
#NOTES:
     dance-single:
     MacGravel:
     Challenge:
     9:
     0.479,0.581,0.057,0.667,0.019,276.000,6.000,70.000,74.000,4.000:

0000
0000
0000
0000
,
0000
0000
0000
0000
,
0000
0000
0000
0000
,
0000
0000
0000
0000
,
1000
0000
0100
0100
0010
0001
0000
0100
,
0000
0001
1000
1000
0100
1000
0000
0010
,
0000
1000
0100
0100
0010
0001
0000
0010
,
0000
0001
0010
0010
0100
1000
0010
0100
,
2002
0000
0003
3000
0M02
0000
M000
0000
0013
0000
0002
0000
0003
0000
0100
0000
,
0001
0010
020M
0000
1300
0200
0300
0010
,
0100
1000
002M
0000
0130
0020
0030
0100
,
0001
0010
M200
0000
1300
0200
0300
0010
,
2002
0000
0003
3000
0M02
0000
M000
0000
0013
0000
0002
0000
0003
0000
0010
0000
,
0001
0100
M020
0000
0130
0020
0030
0100
,
0001
0010
020M
0000
0310
0200
0300
0010
,
0100
1000
0M20
0000
0130
0020
0030
0100
,
2002
0000
3000
0003
2002
0000
0003
3000
001M
0000
0100
0000
0001
0000
0100
0000
,
0020
0030
1000
0200
0300
0010
0010
0001
,
0M00
1000
0000
0100
0000
M010
0001
0100
,
0010
0000
1000
0000
0000
0000
020M
0000
0000
0000
0000
0300
1000
0000
0020
0000
,
000M
1000
0030
0100
0000
M001
0010
0100
,
2000
3000
1000
020M
0300
0010
0000
0002
,
0000
10M0
0000
0103
0000
0001
0100
0010
,
100M
0100
0000
2000
0000
30M0
0100
0010
,
0001
M001
0100
0010
1000
1000
010M
0020
,
0030
0010
M001
0001
0100
0100
0010
100M
,
0100
0100
0010
M010
0002
0000
0103
0010
,
0000
200M
0000
3100
0020
0000
0031
M100
,
0010
001M
0000
1000
0100
01M0
0000
0010
,
0100
M010
0001
0001
0100
01M0
0000
0010
,
1000
1M00
0001
0001
0200
030M
0100
0010
,
0000
0200
2300
3200
0302
0203
0320
2030
0200
0000
000M
0000
0010
0000
0000
0000
,
300M
1000
0000
001M
0000
1300
0010
0100
,
0001
0001
0100
0010
2000
3000
2000
0200
,
00M0
0000
0001
30M0
0300
1000
0100
0001
,
0100
1000
0010
0200
M0M2
0300
MM20
0003
,
2M0M
0030
02MM
3000
M0M1
0300
0010
0000
,
0100
1000
0001
0100
0010
2000
00M1
0000
,
3100
0010
M000
0001
0000
0001
0010
0100
,
1000
0010
1000
0002
M200
0000
0010
M000
,
0003
0001
M000
0010
0000
0301
1000
0001
,
0010
010M
1000
0100
2000
3000
2000
0M02
,
0000
0000
0M10
3000
0003
1000
0010
0100
,
0001
0010
0100
2000
02MM
3000
M0M2
0300
,
2MM0
0003
02MM
3000
M0M1
0300
0010
0000
,
1000
0010
0100
0001
0100
0020
1M00
0030
,
0100
00M1
0000
1000
0000
0100
0010
0001
,
0010
0000
0M01
0000
0000
0000
0100
0000
2002
0000
0003
3000
000M
0000
1000
0000
,
0001
0001
0000
1000
0100
0100
0010
0010
,
0001
M100
0000
0100
0010
0010
1000
1M00
,
0002
0000
0000
0000
0103
0000
0010
0000
2002
0000
3000
0003
0000
0000
M00M
0000
;
