#TITLE:DeadAlus;
#SUBTITLE:Shin Megami Tensei 1;
#ARTIST:S.S.H.;
#TITLETRANSLIT:;
#SUBTITLETRANSLIT:;
#ARTISTTRANSLIT:;
#CREDIT:;
#BANNER:Deadalus.jpg;
#BACKGROUND:Deadalus-bg.jpg;
#LYRICSPATH:;
#CDTITLE:!torajirou.png;
#MUSIC:DeadAlus.mp3;
#OFFSET:-4.740;
#SAMPLESTART:90.000;
#SAMPLELENGTH:12.000;
#SELECTABLE:YES;
#BPMS:0.000=107.000,8.000=216.000,456.500=210.000,458.000=205.000,460.000=200.000,460.500=195.000,461.000=185.000,461.500=173.000,462.500=165.000,463.000=155.000,463.500=128.000,464.000=104.000;
#STOPS:;
#BGCHANGES:;
// cache tags:
#FIRSTBEAT:0.000;
#LASTBEAT:467.500;
#SONGFILENAME:Songs/VGMP 2/DeadAlus (T0rajirou)/DeadAlus.sm;
#HASMUSIC:1;
#HASBANNER:1;
#MUSICLENGTH:140.408;
// end cache tags

//---------------dance-single - ----------------
#NOTES:
     dance-single:
     :
     Hard:
     11:
     1.000,1.000,0.798,0.306,1.000,967.000,112.000,43.000,0.000,0.000:
0000
0000
0000
0000
,
0100
1000
0100
0010
0000
0010
0100
0010
0001
1000
0100
0010
0000
0010
0101
0010
,
1100
1000
1000
1000
,
0100
0100
0100
0100
,
1001
1000
1000
1000
,
0001
0001
0001
0001
,
1010
1000
1000
1000
,
0010
0000
0000
0000
0000
0000
0020
0030
0000
0000
0000
0000
0020
0030
0000
0000
0000
0000
0010
0000
0000
0010
0000
0000
,
0101
1000
0100
0011
0000
0010
1100
0000
,
1100
0000
0000
0010
0000
0000
0100
0000
0000
0010
0000
0000
0001
0000
0010
0000
0100
0000
0010
0000
0100
0000
1000
0000
,
0100
1000
0110
0010
0000
0100
1100
0100
,
0010
1000
0110
0010
0000
0010
0110
0010
,
1000
0001
0110
0100
0000
0100
1100
0100
,
0001
1000
0110
0010
0000
0010
0110
0010
,
1000
0001
0110
0100
0000
0100
1100
0100
,
0010
1000
0110
0010
0000
0100
1100
0100
,
1000
0001
0110
0100
0000
0100
1100
0100
,
0010
0000
1000
0000
0101
0000
0001
0000
0000
0000
0100
0000
0011
0000
1000
0100
,
0010
0100
1100
0100
0000
0100
1100
0100
,
0010
0000
0100
0000
2001
3000
0000
0000
0020
0030
0000
0000
0011
0000
0100
0000
,
0010
0100
1100
0100
0000
0100
1100
0100
,
0010
0000
0100
0000
2001
3000
0000
0000
0020
0030
0000
0000
0011
0000
0100
0000
,
0010
0100
1100
0100
0000
0100
1100
0100
,
0010
0000
0100
0000
2001
3000
0000
0000
0020
0030
0000
0000
0110
0000
1000
0000
,
0100
0000
0100
0000
1010
0000
0010
0000
0000
0000
0100
0000
1200
0300
0000
0000
,
0012
0003
0100
0000
1000
0000
0101
0000
0000
0000
0010
0000
0110
0000
0100
0000
,
2000
0000
3000
0200
0000
0300
0020
0000
,
0030
0002
0000
0003
2000
0000
3000
1000
,
0002
0000
0000
0000
0000
0000
0003
0000
0000
0020
0000
0000
0000
0000
0000
0030
0000
0000
0200
0000
0000
0000
0000
0000
0300
0000
0000
2000
0000
0000
0000
0000
0000
3000
0000
0000
0100
0000
0000
0000
1000
0000
0000
0000
0100
0000
0000
0000
,
0010
0000
0100
0000
1000
0000
0001
0000
0000
0010
0000
0000
0100
0000
0000
0010
0000
0000
0100
0000
0000
1000
0000
0000
,
0100
1000
0100
0010
0100
0010
0001
0010
0001
1000
0001
1000
,
0100
1000
0100
0010
0100
0010
0001
0010
0001
1000
0001
1000
,
0100
0010
0001
0010
0100
1000
0100
0010
0100
0010
0100
1000
,
0100
0000
0000
0000
0010
0000
0000
0000
0001
0000
0000
0000
0010
0000
0000
0000
0100
0000
0000
0000
1000
0000
0000
0000
0100
0000
0000
0000
0010
0000
0000
0000
0100
0000
0000
0000
0010
0000
0000
0100
0000
0000
0010
0000
0000
0100
0000
0000
,
1000
0001
1000
0100
1000
0100
0010
0100
0010
0001
0010
0001
,
1000
0001
1000
0100
1000
0100
0010
0100
0010
0001
1000
0001
,
1000
0001
1000
0001
0100
0010
1000
0010
0100
0001
0100
0010
,
1000
0100
1000
0000
0001
0000
0010
0000
0100
0000
0010
0000
0100
0000
1000
0000
,
0010
0100
1000
0010
0100
1000
0010
0100
,
1000
0010
0100
1000
0010
0100
0001
0010
,
0001
0010
0100
0001
0010
0100
0010
0001
,
1000
0100
0010
0001
0010
0100
0010
0001
,
1000
0000
1000
0000
0001
0000
0100
0000
0001
0000
0001
0000
0010
0001
0010
0000
,
1000
0100
1000
0010
1000
0001
0010
0100
1000
0001
0010
0100
,
1000
0001
1000
0100
1000
0100
0010
0100
0010
0001
0010
0001
,
1000
0100
0010
0100
0010
0100
1000
0001
1000
0001
0010
0100
,
1000
0001
1000
0100
1000
0100
0010
0100
0010
0001
0010
0001
,
1000
0000
0000
0100
0000
0000
0010
0000
0000
0100
0000
0000
0010
0000
0000
0000
0000
0000
0000
0000
0100
0000
0000
0000
0010
0000
0000
0000
0100
0000
0000
0000
1000
0000
0000
0000
0001
0000
0000
0000
0010
0000
0000
0000
0100
0000
0000
0000
,
0010
0001
0010
0001
1000
0010
0100
0010
1000
0001
1000
0001
,
1000
0100
0010
0100
0010
0001
0010
0001
1000
0001
1000
0100
,
1000
0001
1000
0001
0010
0100
1000
0001
1000
0001
0010
0100
,
1000
0000
0000
0000
0001
0000
0000
0000
1000
0000
0000
0000
0001
0000
0000
0000
0010
0000
0000
0000
0100
0000
0000
0000
1000
0000
0000
0001
0000
0000
1000
0000
0000
0001
0000
0000
0010
0000
0000
0100
0000
0000
1000
0000
0000
0001
0000
0000
,
1000
0001
0010
0100
1000
0001
1000
0001
0010
0100
1000
0001
1000
0001
0010
0100
,
1000
0001
1000
0100
0010
0100
1000
0001
1000
0001
1000
0010
0100
0001
0010
0100
,
1000
0001
0010
0100
1000
0001
0010
0001
1000
0100
0010
0100
0010
0100
1000
0001
,
1000
0000
0000
0100
0000
0000
0010
0000
0000
0001
0000
0000
0010
0000
0000
0000
0100
0000
0000
0000
0010
0000
0000
0000
0001
0000
0000
0000
1000
0000
0000
0000
0100
0000
0000
0000
0010
0000
0000
0000
0001
0000
0000
0000
0010
0000
0000
0000
,
0200
0000
0300
1000
0001
1000
0100
1000
0100
0010
0100
0010
,
0002
0000
0000
0003
,
0001
0010
0100
0010
0100
1000
0100
1000
0001
1000
0001
0010
,
0001
0010
0100
0010
0100
1000
0100
1000
0001
1000
0001
0010
,
0100
1000
0001
1000
0001
0010
0001
0010
0100
0010
0100
1000
,
0100
1000
0001
1000
0001
0010
0001
0010
0100
0010
0100
1000
,
0100
0010
0001
0010
0001
1000
0001
1000
0100
1000
0100
0010
,
0001
0010
0100
0010
0100
1000
0100
1000
0001
1000
0001
0010
,
0100
0010
0001
0010
0001
1000
0100
0010
0100
0010
0100
1000
0001
0010
0100
1000
,
0001
0000
0000
0010
0000
0000
0100
0000
0000
0010
0000
0000
0001
0000
0000
0010
0000
0000
0100
0000
0000
1000
0000
0000
0100
0000
0000
0000
0010
0000
0000
0000
0001
0000
0000
0000
1000
0000
0000
0000
0010
0000
0000
0000
0100
0000
0000
0000
,
0010
0000
0001
0010
0000
0000
0010
0100
1000
0001
0010
0100
,
0010
0100
1000
0100
1000
0001
1000
0001
0010
0001
0010
0100
,
1000
0001
1000
0100
0010
0001
1000
0100
0010
0100
0010
0001
0010
0100
0010
0001
,
1000
0000
0001
0010
0100
1000
0100
0010
0100
0010
0100
1000
,
0001
0000
0000
0000
0010
0000
0000
0000
0100
0000
0000
0000
0010
0000
0000
0000
0100
0000
0000
0000
1000
0000
0000
0000
0001
0000
0000
0010
0000
0000
0100
0000
0000
0010
0000
0000
0100
0000
0000
1000
0000
0000
0001
0000
0000
0010
0000
0000
,
0100
0000
0000
0010
0000
0000
0100
0000
0000
1000
0000
0000
0100
0000
0000
0000
0010
0000
0000
0000
0001
0000
0000
0000
0010
0000
0000
0000
0100
0000
0000
0000
1000
0000
0000
0000
0001
0000
0000
0000
0010
0000
0000
0000
0100
0000
0000
0000
,
1000
0100
0010
0100
0010
0001
0010
0001
1000
0001
1000
0100
,
0012
0003
2000
3000
0200
0300
0021
0030
2000
3000
0002
0003
1200
0300
0020
0030
,
0201
0000
0001
0000
0001
0000
0001
0300
,
2001
0000
0000
0001
0000
0000
0001
3000
,
0010
0100
1000
0010
0000
0010
0100
0010
,
1001
0010
0100
0001
0000
0100
1000
0100
,
0011
0100
1000
0001
0000
0010
0100
0010
,
0001
0010
0100
0010
0000
0100
1000
0100
,
0011
0100
1000
0010
0000
0010
0100
0010
,
1001
0010
0100
0001
0000
0100
1000
0100
,
1010
0100
1000
0001
0000
0100
1000
0100
,
0110
0100
1000
0011
0000
0010
0110
1000
,
0100
1000
1001
0100
0000
0100
1100
0100
,
1010
0100
1000
0010
0000
0100
1100
0100
,
0011
0100
1010
0001
0000
0010
1100
0010
,
0001
0010
1100
0010
0000
0100
1100
0100
,
1010
0100
1100
0010
0000
0010
1100
0010
,
0001
0010
1100
0010
0000
0100
1100
0100
,
1010
0100
1000
0010
0000
0100
1100
0100
,
1010
0100
1000
1001
0000
0100
1100
0100
,
0010
0100
1100
0010
0000
0100
1100
0100
,
0010
0100
1100
0010
0000
0100
1100
0100
,
0010
0100
1100
0010
0000
0100
1100
0100
,
0010
0100
1100
0010
0000
0100
1100
0100
,
0010
0100
1100
0010
0000
0100
1100
0100
,
0010
0100
1100
0010
0000
1000
1001
1000
,
0100
1000
1001
0100
0000
1000
1001
0100
,
0110
1000
0001
0110
0000
0100
1100
0100
,
0010
0100
1100
0010
0000
0100
1100
0100
,
0010
0100
1100
0010
0000
0010
1100
0010
,
0001
0010
0110
0001
0000
0010
0110
0001
,
0001
0010
0110
0001
0000
0001
0011
0001
,
1000
0001
0011
1000
0000
0001
0011
1000
,
1000
0001
0011
1000
0000
1000
0011
1000
,
0100
1000
1001
0100
0000
0100
1010
0001
,
0102
0000
0000
0100
0000
0000
0100
0003
,
1100
1000
1000
1000
,
0100
0100
0100
0100
,
1001
1000
1000
1000
,
0001
0001
0001
0001
,
1010
1000
1000
1000
,
0010
0000
0000
0000
0020
0030
0000
0000
0020
0030
0000
0000
0010
0000
0010
0000
,
0101
1000
0100
0011
0000
0010
1100
0000
,
2100
3000
0020
0030
0200
0300
0002
0003
0000
0000
0002
0003
0020
0030
0200
0300
,
2000
0000
0000
0000
3002
0000
0000
0003
;

//---------------dance-single - ----------------
#NOTES:
     dance-single:
     :
     Challenge:
     12:
     1.000,1.000,1.000,0.299,1.000,998.000,325.000,42.000,0.000,21.000:
0000
0000
0000
0000
,
0100
1000
0100
0010
0000
0010
0100
0010
0001
1000
0100
0010
0000
0010
0101
0010
,
1100
1000
1000
1000
,
0100
0100
0100
0100
,
1001
1000
1000
1000
,
0001
0001
0001
0001
,
1010
1000
1000
1000
,
0010
0000
0000
0000
0000
0000
0020
0030
0000
0000
0000
0000
0020
0030
0000
0000
0000
0000
0010
0000
0000
0010
0000
0000
,
0101
1000
0100
0011
0000
0010
1100
0000
,
1100
0000
0000
0010
0000
0000
0100
0000
0000
0010
0000
0000
0101
0000
0010
0000
0100
0000
0011
0000
0100
0000
1000
0000
,
0100
1000
0110
0010
0000
0100
1100
0100
,
0010
1000
0110
0010
0000
0010
0110
0010
,
1000
0001
0110
0100
0000
0100
1100
0100
,
0001
1000
0110
0010
0000
0010
0110
0010
,
1000
0001
0110
0100
0000
0100
1100
0100
,
0010
1000
0110
0010
0000
0100
1100
0100
,
1000
0001
0110
0100
0000
0100
1100
0100
,
0010
0000
1000
0000
0101
0000
0001
0000
0000
0000
0100
0000
0011
0000
1000
0100
,
0011
0110
1100
0110
0000
0110
1100
0110
,
0101
0000
0110
0000
2001
3000
0000
0000
0020
0030
0000
0000
0011
0000
0110
0000
,
0011
0110
1100
0110
0000
0110
1100
0110
,
0011
0000
0110
0000
2001
3000
0000
0000
0020
0030
0000
0000
0011
0000
0110
0000
,
0101
0110
1100
0101
0000
0110
1100
0110
,
0101
0000
0110
0000
2001
3000
0000
0000
0020
0030
0000
0000
0110
0000
1100
0000
,
0110
0000
0110
0000
1100
0000
0101
0000
0000
0000
1100
0000
0210
0300
0000
0000
,
1002
0003
0110
0000
1100
0000
0011
0000
0000
0000
0011
0000
0110
0000
1010
0000
,
2000
0000
3000
0200
0000
0300
0020
0000
,
0030
0000
0000
0002
0000
0000
0000
0000
0000
0003
0000
0000
2000
0000
0000
0000
0000
0000
3000
0000
0000
1000
0100
0010
,
0001
0000
0000
0010
0000
0000
0001
0000
0000
0010
0000
0000
0100
0000
0000
0010
0000
0000
0100
0000
0000
1000
0000
0000
0001
0000
0000
0010
0000
0000
0100
0000
0000
0010
0000
0000
0100
0000
0000
0000
1000
0000
0000
0000
0100
0000
0000
0000
,
0010
0000
0100
0000
1000
0000
0001
0000
0000
0010
0000
0000
0100
0000
0000
0010
0000
0000
0100
0000
0000
1000
0000
0000
,
0100
1000
0100
0010
0100
0010
0001
0010
0001
1000
0001
1000
,
0100
1000
0100
0010
0100
0010
0001
0010
0001
1000
0001
1000
,
0100
0010
0001
0010
0100
1000
0100
0010
0100
0010
0100
1000
,
0100
0000
0000
0000
0010
0000
0000
0000
0001
0000
0000
0000
0010
0000
0000
0000
0100
0000
0000
0000
1000
0000
0000
0000
0101
0000
0000
0000
0010
0000
0000
0000
0100
0000
0000
0000
0011
0000
0000
0100
0000
0000
0010
0000
0000
0100
0000
0000
,
1000
0001
1000
0100
1000
0100
0010
0100
0010
0001
0010
0001
,
1000
0001
1000
0100
1000
0100
0010
0100
0010
0001
1000
0001
,
1000
0001
1000
0001
0100
0010
1000
0010
0100
0001
0100
0010
,
1000
0100
1000
0000
0001
0000
0010
0000
0100
0000
0010
0000
0100
0000
1000
0000
,
0010
0100
1000
0010
0100
1000
0010
0100
,
1000
0010
0100
1000
0010
0100
0001
0010
,
0001
0010
0100
0001
0010
0100
0011
0110
,
1010
1100
0110
0110
0101
0110
0101
0011
,
1000
0000
1000
0000
0001
0000
0100
0000
0001
0000
0001
0000
0010
0001
0010
0000
,
1000
0100
1000
0010
1000
0001
0010
0100
1000
0001
0010
0100
,
1000
0001
1000
0100
1000
0100
0010
0100
0010
0001
0010
0001
,
1000
0100
0010
0100
0010
0100
1000
0001
1000
0001
0010
0100
,
1000
0001
1000
0100
1000
0100
0010
0100
0010
0001
0010
0001
,
1000
0000
0000
0100
0000
0000
0010
0000
0000
0100
0000
0000
0010
0000
0000
0000
0010
0000
0000
0000
0100
0000
0000
0000
0010
0000
0000
0000
0100
0000
0000
0000
1000
0000
0000
0000
0001
0000
0000
0000
0010
0000
0000
0000
0100
0000
0000
0000
,
0010
0001
0010
0001
1000
0010
0100
0010
1000
0001
1000
0001
,
1000
0100
0010
0100
0010
0001
0110
0001
1000
0101
1000
0100
,
1000
0001
1000
0001
0010
0100
1000
0001
1000
0001
0010
0100
,
1000
0000
0000
0000
0001
0000
0000
0000
1000
0000
0000
0000
0001
0000
0000
0000
0010
0000
0000
0000
0100
0000
0000
0000
1000
0000
0000
0001
0000
0000
1000
0000
0000
0001
0000
0000
0010
0000
0000
0100
0000
0000
1000
0000
0000
0001
0000
0000
,
1000
0001
0010
0100
1000
0001
1000
0001
0010
0100
1000
0001
1000
0001
0010
0100
,
1000
0001
1000
0100
0010
0100
1000
0001
1000
0001
1000
0010
1100
0001
0010
0100
,
1010
0001
0010
0100
1000
0001
0010
0001
1000
0100
0010
0100
0010
0100
1000
0001
,
1000
0000
0000
0100
0000
0000
0010
0000
0000
0001
0000
0000
0010
0000
0000
0000
0100
0000
0000
0000
0010
0000
0000
0000
0001
0000
0000
0000
1000
0000
0000
0000
0100
0000
0000
0000
0010
0000
0000
0000
0001
0000
0000
0000
0010
0000
0000
0000
,
0200
0000
0300
1000
0001
1000
0100
1000
0100
0010
0100
0010
,
0102
0010
0010
0100
0010
0010
0103
0010
,
0001
0010
0100
0010
0100
1000
0100
1000
0001
1000
0001
0010
,
0001
0010
0100
0010
0100
1000
0100
1000
0001
1000
0001
0010
,
0100
1000
0001
1000
0001
0010
0001
0010
0100
0010
0100
1000
,
0100
1000
0001
1000
0001
0010
0001
0010
0100
0010
0100
1000
,
0100
0010
0001
0010
0001
1000
0001
1000
0100
1000
0100
0010
,
0001
0010
0100
0010
0100
1000
0100
1000
0001
1000
0001
0010
,
0100
0010
0001
0010
0001
1000
0100
0010
0100
0010
0100
1000
0001
0010
0100
1000
,
0101
0000
0000
0010
0000
0000
0100
0000
0000
0010
0000
0000
0001
0000
0000
0010
0000
0000
0101
0000
0000
1000
0000
0000
0100
0000
0000
0000
0010
0000
0000
0000
0001
0000
0000
0000
1100
0000
0000
0000
0010
0000
0000
0000
0100
0000
0000
0000
,
0010
0010
0001
0010
0000
0000
0010
0100
1000
0001
0010
0100
,
0010
0100
1000
0100
1000
0001
1000
0001
0010
0001
0010
0100
,
1000
0001
1000
0100
0010
0001
1000
0100
0010
0100
0010
0001
0010
0100
0010
0001
,
1000
1000
0001
0010
0100
1000
0100
0010
0100
0010
0100
1000
,
0010
0000
0000
0000
0100
0000
0000
0000
1000
0000
0000
0000
0010
0000
0000
0000
0100
0000
0000
0000
1000
0000
0000
0000
0010
0000
0000
0100
0000
0000
1000
0000
0000
0010
0000
0000
0100
0000
0000
1000
0000
0000
0010
0000
0000
0100
0000
0000
,
1000
0000
0000
0010
0000
0000
0100
0000
0000
1000
0000
0000
0100
0000
0000
0000
0010
0000
0000
0000
0001
0000
0010
0000
0100
0000
0000
0000
1000
0000
0000
0000
0001
0000
0000
0000
0010
0000
0000
0000
0100
0000
0000
0000
1000
0000
0000
0000
,
0001
1000
0100
1000
0100
0010
0100
0010
0001
0010
0001
1000
,
0102
0003
2000
3000
0200
0300
0021
0030
2000
3000
0002
0003
1200
0300
0020
0030
,
0201
0000
0001
0000
0001
0000
0001
0300
,
2001
0100
0100
0001
0100
0100
0001
3100
,
0110
1010
1100
0110
0000
1010
1100
1010
,
1101
0110
1010
0101
0000
0110
1010
0110
,
1011
0110
1010
0101
0000
0110
1010
0110
,
0011
0110
1010
0101
0000
1010
1100
1010
,
1110
1010
1100
0110
0000
0110
1010
0110
,
1101
0110
1010
0101
0000
0110
1010
0110
,
1011
0110
1010
0101
0000
0101
0110
0101
,
1101
0110
1010
1011
0000
0011
1110
1100
,
0110
1010
1100
0110
0000
0110
1010
0110
,
1101
0110
1010
0101
0000
0110
1010
0110
,
1011
0110
1010
0101
0000
0110
1010
0110
,
0011
0110
1100
0101
0000
0110
1010
0110
,
1101
0110
1010
0101
0000
0110
1010
0110
,
0011
0110
1100
0101
0000
0110
1010
0110
,
0111
0110
1010
0101
0000
0110
1010
0110
,
1101
0110
1010
0111
0000
0110
1011
0110
,
0101
0110
1010
0101
0000
0110
1010
0110
,
0101
0110
1010
0101
0000
0110
1010
0110
,
0101
0110
1010
0101
0000
0110
1010
0110
,
0101
0110
1010
0101
0000
0110
1010
0110
,
0101
0110
1010
0101
0000
0110
1010
0110
,
0101
0110
1010
0101
0000
0110
1100
1010
,
0110
1010
1100
0110
0000
0110
1010
0110
,
0111
1010
1100
0111
0000
0110
1011
0110
,
0101
0110
1010
0101
0000
0110
1010
0110
,
0101
0110
1010
0101
0000
0110
1010
0110
,
0011
0110
1010
0011
0000
0110
1010
0011
,
0011
0110
1010
0011
0000
0011
0101
0011
,
1100
0011
0101
1100
0000
0011
0101
1100
,
1100
0011
0101
1100
0000
1100
0011
1100
,
0110
1010
1100
0110
0000
0110
1001
0110
,
0102
1000
1000
0100
1000
1000
0100
1003
,
1120
1000
1000
1000
,
0100
0000
0100
0000
0100
0000
0100
0030
,
1201
1000
1000
1000
,
0001
0000
0001
0000
0001
0000
0001
0300
,
2110
0100
0100
0100
,
0010
0000
0000
0000
0020
0030
0000
0000
0020
0030
0000
0000
0010
0000
3010
0000
,
0101
1000
0100
0011
0000
0010
1100
0000
,
2100
3000
0020
0030
0200
0300
0002
0003
0000
0000
0002
0003
0020
0030
0200
0300
,
2000
0000
0000
0000
3002
0000
0000
0003
;

//---------------dance-single - Danger Step----------------
#NOTES:
     dance-single:
     Danger Step:
     Edit:
     13:
     1.000,1.000,1.000,0.264,1.000,1039.000,416.000,37.000,0.000,107.000:
1000
0000
0000
0100
0000
0000
0000
0000
0010
0000
0000
0100
0000
0000
0000
0000
,
0100
1000
0100
0010
0000
0010
0100
0010
0001
1000
0100
0010
0000
0010
0101
0010
,
1100
1000
1000
1000
,
0100
0100
0100
0100
,
1001
1000
1000
1000
,
0001
0001
0001
0001
,
1010
1000
1000
1000
,
0010
0000
0000
0000
0000
0000
0020
0030
0000
0000
0000
0000
0020
0030
0000
0000
0000
0000
0010
0000
0000
0010
0000
0000
,
0101
1000
0100
0011
0000
0010
1100
0000
,
1100
0000
0000
0010
0000
0000
0100
0000
0000
0010
0000
0000
0101
0000
0010
0000
0100
0000
0011
0000
0100
0000
1000
0000
,
0100
1000
0110
0010
0000
0100
1100
0100
,
0010
1000
0110
0010
0000
0010
0110
0010
,
1000
0001
0110
0100
0000
0100
1100
0100
,
0001
1000
0110
0010
0000
0010
0110
0010
,
1000
0001
0110
0100
0000
0100
1100
0100
,
0010
1000
0110
0010
0000
0100
1100
0100
,
1000
0001
0110
0100
0000
0100
1100
0100
,
0010
0000
1000
0000
0101
0000
0001
0000
0000
0000
0100
0000
0011
0000
1000
0100
,
0011
0110
1110
0110
0000
0110
1110
0110
,
0101
0000
0110
0000
2101
3000
0000
0000
0020
0030
0000
0000
1011
0000
0110
0000
,
0011
0110
1110
0110
0000
0110
1110
0110
,
0011
0000
0110
0000
2101
3000
0000
0000
0020
0030
0000
0000
1011
0000
0110
0000
,
0101
0110
1110
0101
0000
0110
1110
0110
,
0101
0000
0110
0000
2101
3000
0000
0000
0020
0030
0000
0000
0111
0000
1100
0000
,
0110
0000
0110
0000
1110
0000
0101
0000
0000
0000
1100
0000
0211
0300
0101
0000
,
1102
0003
0110
0000
0101
0000
1011
0000
0000
0000
0011
0000
0111
1000
0011
0100
,
1000
0100
1000
0100
1010
0100
0010
0001
0010
0001
0010
0001
1100
0010
1000
0010
,
1000
0000
0000
0010
0000
0000
0100
0000
0000
0001
0000
0000
1100
0000
0000
0001
0000
0000
0100
0000
0000
0001
0000
0000
1000
0000
0000
0001
0000
0000
1000
0000
0000
0001
0000
0000
1100
0000
0000
0001
0000
0000
1000
0000
0100
0000
0010
0000
,
0001
0000
0000
0010
0000
0000
0001
0000
0000
0010
0000
0000
0101
0000
0000
0010
0000
0000
0100
0000
0000
1000
0000
0000
0001
0000
0000
0010
0000
0000
0100
0000
0000
0010
0000
0000
0101
0000
0000
0000
1000
0000
0000
0000
0100
0000
0000
0000
,
0010
0000
0100
0000
1000
0000
0101
0000
0000
0010
0000
0000
0100
0000
0000
0010
0000
0000
0101
0000
0000
1000
0000
0000
,
0100
1000
0100
1010
0100
0010
0001
0010
0001
1100
0001
1000
,
0100
1000
0100
1010
0100
0010
0001
0010
0001
1100
0001
1000
,
0100
0010
0001
1010
0100
1000
0100
0010
0100
1010
0100
1000
,
0100
0000
0000
0000
0010
0000
0000
0000
0001
0000
0000
0000
1010
0000
0000
0000
0100
0000
0000
0000
1000
0000
0000
0000
0101
0000
0000
1000
0000
0000
0100
0000
0000
0000
0000
0000
0101
0000
0000
1000
0000
0000
0100
0000
0000
0000
0000
0000
,
1000
0001
1000
0110
1000
0100
0010
0100
0010
0101
0010
0001
,
1000
0001
1000
0110
1000
0100
0010
0100
0010
0101
1000
0001
,
1000
0001
1000
0011
0100
0010
1000
0010
0100
0011
0100
0010
,
1000
0100
1000
0000
0101
0000
0010
0000
0100
0000
0010
0000
0101
0000
1000
0000
,
0010
0100
1001
0010
0100
1000
0011
0100
,
1000
0010
0101
1000
0010
0100
1001
0010
,
0001
0010
1100
0001
0010
0100
1011
0110
,
1110
0000
1100
0000
0110
0000
1110
0000
0101
0000
0110
0000
0111
1000
0011
0000
,
1000
0000
1000
0000
0011
0000
0100
0000
0001
0000
0001
0000
0110
0001
0010
0000
,
1000
0100
1000
0110
1000
0001
0010
0100
1000
0101
0010
0100
,
1000
0001
1000
0110
1000
0100
0010
0100
0010
0101
0010
0001
,
1000
0100
0010
0101
0010
0100
1000
0001
1000
0101
0010
0100
,
1000
0001
1000
0110
1000
0100
0010
0100
0010
0101
0010
0001
,
1000
0000
0000
0100
0000
0000
0010
0000
0000
0100
0000
0000
0011
0000
0000
0000
0010
0000
0000
0000
0100
0000
0000
0000
0010
0000
0000
0000
0100
0000
0000
0000
1000
0000
0000
0000
0101
0000
0000
0000
0010
0000
0000
0000
0100
0000
0000
0000
,
0010
0001
0010
0101
1000
0010
0100
0010
1000
0101
1000
0001
,
1000
0000
0000
0000
0100
0000
0000
0000
0010
0000
0000
0000
0101
0000
0000
0000
0010
0000
0000
0000
0001
0000
0000
0000
0110
0000
0000
0001
0000
0000
0010
0000
0000
0000
0000
0000
0110
0000
0000
0001
0000
0000
0010
0000
0000
0000
0000
0000
,
1000
0001
1000
0101
0010
0100
1000
0001
1000
0101
0010
0100
,
1000
0000
0000
0000
0001
0000
0000
0000
1000
0000
0000
0000
0101
0000
0000
0000
0010
0000
0000
0000
0100
0000
0000
0000
1000
0000
0000
0001
0000
0000
1000
0000
0000
0001
0000
0000
1010
0000
0000
0100
0000
0000
1000
0000
0000
0001
0000
0000
,
1000
0001
0010
0100
1010
0001
1000
0001
0010
0100
1000
0001
1010
0001
0010
0100
,
1000
0001
1000
0100
0011
0100
1000
0001
1000
0001
1000
0010
1100
0001
0010
0100
,
1010
0001
0010
0100
1010
0001
0010
0001
1000
0100
0010
0100
0011
0100
1000
0001
,
1000
0000
0000
0100
0000
0000
0010
0000
0000
0001
0000
0000
1010
0000
0000
0000
0100
0000
0000
0000
0010
0000
0000
0000
0001
0000
0000
0000
1000
0000
0000
0000
0100
0000
0000
0000
1010
0000
0000
0000
0001
0000
0000
0000
0010
0000
0000
0000
,
0200
0000
0300
1010
0001
1000
0100
1000
0100
0011
0100
0010
,
1102
0000
0010
0000
0010
0000
1100
0000
0010
0000
0010
0000
1103
0010
0100
0000
,
0001
0010
0100
1010
0100
1000
0100
1000
0001
1100
0001
0010
,
0001
0010
0100
1010
0100
1000
0100
1000
0001
1100
0001
0010
,
0100
1000
0001
1100
0001
0010
0001
0010
0100
1010
0100
1000
,
0100
1000
0001
1100
0001
0010
0001
0010
0100
1010
0100
1000
,
0100
0010
0001
0110
0001
1000
0001
1000
0100
1010
0100
0010
,
0001
0010
0100
1010
0100
1000
0100
1000
0001
1100
0001
0010
,
0100
0010
0001
0010
0101
1000
0100
0010
0100
0010
0100
1000
0101
0010
0100
1000
,
0101
0000
0000
0010
0000
0000
0100
0000
0000
0010
0000
0000
0001
0000
0000
0010
0000
0000
0101
0000
0000
1000
0000
0000
0100
0000
0000
0000
0010
0000
0000
0000
0001
0000
0000
0000
1100
0000
0000
0010
0000
0000
0100
0000
0000
0000
0000
0000
,
0010
0010
0001
0110
0000
0000
0010
0100
1000
0101
0010
0100
,
0010
0100
1000
0110
1000
0001
1000
0001
0010
0101
0010
0100
,
1000
0001
1000
0100
1010
0001
1000
0100
0010
0100
0010
0001
1010
0100
0010
0001
,
1000
1000
0001
1010
0100
1000
0100
0010
0100
1010
0100
1000
,
0010
0000
0000
0000
0100
0000
0000
0000
1000
0000
0000
0000
0011
0000
0000
0000
0100
0000
0000
0000
1000
0000
0000
0000
0010
0000
0000
0100
0000
0000
1000
0000
0000
0010
0000
0000
0101
0000
0000
1000
0000
0000
0010
0000
0000
0100
0000
0000
,
1000
0000
0000
0010
0000
0000
0100
0000
0000
1000
0000
0000
0101
0000
0000
0000
0010
0000
0000
0000
0001
0000
0010
0000
0100
0000
0000
0000
1000
0000
0000
0000
0001
0000
0000
0000
1010
0000
0000
0000
0100
0000
0000
0000
1000
0000
0000
0000
,
0001
1000
0100
1010
0100
0010
0100
0010
0001
0110
0001
1000
,
0102
0003
2000
3000
0200
0300
0021
0030
2000
3000
0002
0003
1200
0301
0020
0030
,
0201
0000
0001
0000
0001
0000
0001
0300
,
2011
0000
0100
0000
0100
0000
0011
0100
0010
0000
0100
0000
0011
0000
3100
0000
,
0110
1010
1110
0110
0000
1010
1110
1010
,
1101
0110
1110
0101
0000
0110
1110
0110
,
1011
0110
1110
0101
0000
0110
1110
0110
,
0011
0110
1110
0101
0000
1010
1110
1010
,
1101
1010
1110
0110
0000
0110
1110
0110
,
1101
0110
1110
0101
0000
0110
1110
0110
,
1011
0110
1110
0101
0000
0101
1110
0101
,
1101
0000
0110
0000
1010
0000
1011
0000
0000
0000
0011
0000
1110
0001
1100
0000
,
0110
1010
1110
0110
0000
0110
1110
0110
,
1101
0110
1110
0101
0000
0110
1110
0110
,
1011
0110
1110
0101
0000
0110
1110
0110
,
0011
0110
1110
0101
0000
0110
1110
0110
,
1101
0110
1110
0101
0000
0110
1110
0110
,
0011
0110
1110
0101
0000
0110
1110
0110
,
0111
0110
1110
0101
0000
0110
1110
0110
,
1101
0000
0110
0000
1010
0000
0111
1000
0100
0000
0110
0000
1011
0100
1010
0000
,
0101
0110
1110
0101
0000
0110
1110
0110
,
0101
0110
1110
0101
0000
0110
1110
0110
,
0101
0110
1110
0101
0000
0110
1110
0110
,
0101
0110
1110
0101
0000
0110
1110
0110
,
0101
0110
1110
0101
0000
0110
1110
0110
,
0101
0110
1110
0101
0000
0110
1101
1010
,
0110
1010
1101
0110
0000
0110
1101
0110
,
0111
0000
1010
0000
1100
0000
0111
0000
0000
0000
0110
0000
1011
0100
1010
0000
,
0101
0110
1110
0101
0000
0110
1110
0110
,
0101
0110
1110
0101
0000
0110
1110
0110
,
0011
0110
1110
0011
0000
0110
1110
0011
,
0011
0110
1110
0011
0000
0011
0111
0011
,
1100
0011
0111
1100
0000
0011
0111
1100
,
1100
0011
0111
1100
0000
1100
0111
1100
,
0110
1010
1101
0110
0000
0110
1101
0110
,
1012
0000
0100
0000
0100
0000
1010
0000
0100
0000
0100
0000
1010
0100
0013
0000
,
1120
1000
1000
1000
,
0100
0000
0100
0000
0100
0000
0100
0030
,
1201
1000
1000
1000
,
0001
0000
0001
0000
0001
0000
0001
0300
,
2110
0100
0100
0100
,
0010
0000
0000
0000
0020
0030
0000
0000
0020
0030
0000
0000
0010
0000
3010
0000
,
0101
1000
0100
0011
0000
0010
1100
0000
,
2100
3000
0020
0030
0200
0300
0002
0003
0000
0000
0002
0003
0020
0030
0200
0300
,
2000
0000
0000
0000
3002
0000
0000
0003
;
