#TITLE:Heroes of Our Time;
#SUBTITLE:;
#ARTIST:Dragonforce;
#TITLETRANSLIT:;
#SUBTITLETRANSLIT:;
#ARTISTTRANSLIT:;
#CREDIT:B. Abear;
#BANNER:Bn-Heroes.png;
#BACKGROUND:Bg-Heroes.png;
#LYRICSPATH:;
#CDTITLE:;
#MUSIC:Heroes of Our Time.ogg;
#OFFSET:-0.396;
#SAMPLESTART:82.103;
#SAMPLELENGTH:28.000;
#SELECTABLE:YES;
#BPMS:0.000=200.000,28.000=100.000,30.000=200.000,138.000=100.000,142.000=200.000,725.917=100.000,744.000=203.000,748.000=200.000,776.000=175.000,1044.000=100.300,1048.000=100.000,1072.000=50.100,1074.000=200.000;
#STOPS:;
#BGCHANGES:;
// cache tags:
#FIRSTBEAT:16.000;
#LASTBEAT:1328.000;
#SONGFILENAME:Songs/Dragonforce/Heroes of Our Time/Heroes of Our Time.sm;
#HASMUSIC:1;
#HASBANNER:1;
#MUSICLENGTH:435.591;
// end cache tags

//---------------dance-single - B. Abear----------------
#NOTES:
     dance-single:
     B. Abear:
     Challenge:
     14:
     1.000,1.000,0.305,0.865,1.000,3008.000,133.000,377.000,184.000,7.000:

0000
0000
0000
0000
,
0000
0000
0000
0000
,
0000
0000
0000
0000
,
0000
0000
0000
0000
,
2020
0000
0000
0000
0000
0000
0000
3030
,
0022
0000
0000
0000
0000
0033
1001
M11M
,
2001
0001
0001
3001
,
1001
0110
M00M
M00M
0110
1001
0000
0000
0001
0010
0001
0010
0001
1000
0001
1000
,
0001
0010
0001
0010
0001
0100
0001
0100
0010
1000
0010
1000
0010
0100
0010
0100
,
0004
0000
0000
0000
0000
0000
0000
0000
1003
0100
1000
0100
1000
0001
1000
0001
,
0200
0320
2030
3002
11M3
0000
1MM1
0000
,
M1M1
0000
0000
0000
1MM1
0000
0000
0000
1000
0010
1000
0010
0100
0001
0100
0001
,
1000
0100
1000
0100
0010
0001
1000
0010
0100
0001
0100
0001
1000
0100
1000
0100
,
0040
0000
0034
0000
0043
0000
0034
0000
1003
0010
1000
0001
0010
0100
0010
0001
,
1000
0010
0100
0001
1000
0100
1000
0010
0100
0001
0010
0001
0010
0100
0010
0100
,
1000
0001
1000
0010
0100
0001
1000
0000
0001
0100
0010
1000
0001
1000
0100
0010
,
0100
0010
0001
1000
0010
0100
0001
1000
0100
0010
0001
1000
0100
0010
0001
0100
,
0010
0100
0001
1000
0002
0000
0000
0000
1003
0100
0010
0100
1000
0001
0100
0001
,
0100
0010
0100
0001
1000
0100
0010
0000
MM11
0000
0000
0000
1MM1
0000
0000
0000
,
1M1M
0000
0000
0000
1MM1
0000
0000
0000
0001
0100
0010
1000
0001
1000
0001
0010
,
0100
0000
0000
0010
0000
0000
0001
0000
0000
1000
0000
0000
0002
0000
0000
0000
0000
0000
0000
0000
0000
0000
0000
0000
1003
0000
0010
0000
1000
0000
0000
0000
0000
0000
0000
0000
0001
0000
0010
0000
0001
0000
0000
0000
0000
0000
0000
0000
,
1000
0000
0100
0000
1000
0000
0000
0000
0000
0000
0000
0000
0001
0000
0100
0000
0001
0000
0000
0000
0000
0000
0000
0000
1000
0000
0000
0001
0000
0000
1000
0000
0000
0001
0000
0000
0100
0000
0000
0010
0000
0000
1000
0000
0000
0001
0000
0000
,
1000
0001
1000
0001
0100
0010
1000
0001
1000
0100
0010
0001
2000
3020
0230
0302
,
1003
0000
0000
0100
0000
0000
0010
0000
0000
0001
0000
0000
2000
0000
0000
3020
0000
0000
0230
0000
0000
0302
0000
0000
1003
0000
0000
0000
0100
0000
0000
0000
1000
0000
0000
0000
0001
0000
0000
0000
0100
0000
0000
0000
0010
0000
0000
0000
,
1000
0000
0100
0000
0010
0000
0001
0000
0000
000M
0000
0000
0001
0000
0100
0000
0010
0000
1000
0000
0001
0000
0010
0000
,
MM22
0000
0000
0033
0000
0000
2M2M
0000
0000
3030
0000
0000
0010
0000
1000
0000
0001
0000
1000
0000
0100
0000
0010
0000
,
0001
0000
1000
0000
0100
0000
1000
0000
0000
M000
0000
0000
1000
0000
0001
0000
0100
0000
0010
0000
1000
0000
0100
0000
,
22MM
0000
0000
3300
0000
0000
M2M2
0000
0000
0303
0000
0000
0100
0000
0001
0000
0100
0000
0010
0000
1000
0000
0100
0000
,
0010
0000
0001
0000
1000
0000
0100
0000
0000
0M00
0000
0000
0100
0000
1000
0000
0001
0000
0100
0000
0010
0000
0100
0000
,
M22M
0000
0000
0330
0000
0000
2MM2
0000
0000
3003
0000
0000
0001
0000
0100
0000
0010
0000
1000
0000
0100
0000
0010
0000
,
0001
0000
0010
0000
0100
0000
1000
0000
0000
M000
0000
0000
1000
0000
0100
0000
0010
0000
0001
0000
1000
0000
0001
0000
,
2MM2
0000
0000
3003
0000
0000
M22M
0000
0000
0330
0000
0000
0010
0000
1000
0000
0001
0000
1000
0000
0100
0000
0010
0000
,
0011
1001
0000
0000
2002
0000
0000
0000
,
0000
0000
0000
0000
3003
1000
0001
0100
,
0010
0000
0100
0000
0001
0000
1000
0000
1MM1
0001
0010
0100
1000
0001
0100
0010
,
1000
0100
0010
0001
1000
0001
0100
0010
1000
0100
1000
0001
0100
0010
0100
0001
,
1000
0001
1000
0100
0010
0001
0010
0100
2000
0000
3000
0000
0002
0000
0003
0000
,
0200
0000
0320
0000
0230
0000
0000
0000
0310
1000
0001
1000
0100
0010
0100
1000
,
0001
0010
0100
1000
0001
0010
0001
0100
0020
0000
0030
0000
2000
0000
3000
0000
,
0002
0000
2003
0000
3002
0000
0000
0000
1003
0000
0100
0000
1000
0001
1000
0000
,
0010
0000
0100
0000
0001
0100
0001
0000
1000
0000
0001
0000
0010
0001
0010
0000
,
0100
0000
1000
0000
0001
0100
0001
0000
1000
0100
0010
0001
0010
0001
1000
0100
,
0010
0001
0010
0001
1000
0010
1000
0010
0200
0000
0300
0000
0002
0000
0023
0000
,
0230
0000
2300
0000
3200
0000
0302
0000
0103
1000
0001
0100
0010
0100
0001
1000
,
0001
1000
0100
0010
0100
1000
0001
0100
0020
0000
0030
0000
2000
0000
3000
0000
,
0002
0000
0203
0000
0302
0000
0000
0000
0103
0010
1000
0001
1000
0100
0010
0100
,
1000
0001
0100
0010
1000
0001
1000
0100
0020
0000
0030
0000
0002
0000
0003
0000
,
2000
0000
3020
0000
2030
0000
0000
0000
3001
0010
0001
0010
0001
1000
0001
1000
,
0001
0010
0001
0010
0001
1000
0001
1000
0010
0100
0010
0100
0010
1000
0010
1000
,
0010
0100
0010
0100
0010
1000
0010
1000
0001
0100
0010
1000
0100
0010
0100
1000
,
0001
1000
0001
0010
0100
0010
0001
1000
0010
0100
0010
0100
0001
1000
0001
1000
,
0010
0100
0010
0100
0001
1000
0001
1000
0020
0000
0230
0000
0300
0000
0000
0000
,
0000
0000
0000
0000
,
0000
0000
0000
0000
0101
0001
1000
0100
,
0110
0000
0000
0000
0110
0010
0001
1000
,
1001
0001
0100
0010
0110
0100
0001
1000
,
1100
0100
0010
0001
1001
1000
0010
0100
,
0101
0000
0000
0000
0000
0000
0000
0000
0001
0010
0001
0010
0100
1000
0001
0010
,
0001
0010
0100
1000
0001
0010
0001
0010
0100
1000
0100
1000
0001
0100
0001
0100
,
0010
1000
0001
1000
0100
0010
0001
0000
1MM1
0000
0000
0000
1M1M
0000
0000
0000
,
MM11
M11M
11MM
MM11
,
1MM1
0000
0000
0000
1M1M
0000
0000
0000
0010
1000
0001
1000
0100
0010
0001
1000
,
0001
0100
0010
0100
0001
1000
0100
0010
0001
1000
0010
0100
0001
1000
0010
1000
,
0001
0010
0001
0100
0010
1000
0100
0010
0002
0000
0000
0000
1003
0000
0010
0000
,
0100
0001
1000
0100
2000
3002
0203
0320
,
2030
0000
3002
0000
2003
0000
3200
0000
0310
0001
0010
0001
1000
0100
0010
0001
,
0010
0001
1000
0100
0010
0001
1000
0010
0200
0000
0301
1000
0200
0000
0310
0001
,
4000
0000
3010
0100
0002
0000
0000
0000
1003
0000
0100
0000
0010
0100
0010
0000
,
0001
0000
1000
0000
0001
0100
0001
0000
0100
0000
0010
0000
1000
0010
1000
0000
,
0001
0000
1000
0000
0100
1000
0100
0000
0010
0000
0001
0000
1000
0010
1000
0000
,
0001
0100
0001
0000
1000
0100
1000
0000
0001
0100
0001
0000
0100
0010
0100
0000
,
0010
1000
0010
0000
1000
0100
1000
0000
0100
0000
0010
0000
0001
0010
0001
0000
,
1000
0000
0001
0000
0100
0010
0100
0000
0001
0000
1000
0000
0001
0010
0001
0000
,
1000
0000
0010
0000
0100
0001
0100
0000
0010
0000
1000
0000
2001
0000
3001
0000
,
0012
0000
0023
0000
0230
0000
2300
0000
3001
0100
0010
1000
0001
1000
0001
1000
,
0100
0010
0001
0010
0100
1000
0100
1000
0001
0000
0100
0000
0010
1000
0010
0000
,
0100
0000
0001
0000
1000
0100
1000
0000
0001
0000
0010
0000
0100
1000
0100
0000
,
1000
0000
0001
0000
0100
0010
0100
0000
0001
0000
1000
0000
0100
1000
0100
0000
,
0010
0000
0001
0000
1000
0001
1000
0000
0010
0000
0100
0000
0010
0100
0010
0000
,
0100
0000
0001
0000
1000
0100
1000
0000
0001
0000
0010
0000
0100
0010
0100
0000
,
1000
0000
0001
0000
0100
0001
0100
0000
0010
0000
0100
0000
0001
1000
0001
0000
,
1000
0000
0001
0000
1000
0100
1000
0000
0001
0000
0010
0000
0001
0100
0001
0000
,
0100
0000
0010
0000
1000
0010
1000
0000
0002
0000
0203
0000
0310
1000
0002
0000
,
2003
0000
3200
0000
0310
0001
2000
0000
3001
0000
0100
0000
0010
1000
0010
0000
,
0100
0000
0001
0000
0010
0001
0010
0000
0100
0000
1000
0000
0001
1000
0001
0000
,
0100
0000
0010
0000
1000
0010
1000
0000
0001
0100
0001
0100
0010
1000
0010
1000
,
0001
0100
0001
0100
0010
1000
0010
1000
0001
0010
0001
0010
0100
1000
0001
0010
,
0001
0010
0100
1000
0001
0010
0001
0000
1000
0000
0010
0000
0100
0001
0100
0000
,
0001
0000
1000
0000
0001
0010
0001
0000
1000
0001
1000
0001
0100
0010
1000
0001
,
1000
0001
0100
0010
1000
0001
1000
0000
2MM2
0000
0000
0000
0MM0
0000
0000
0000
,
0MM0
0MM0
3M13
0000
,
2MMM
0000
0000
0000
3002
0000
0000
2003
,
0000
0000
3200
0000
0320
0000
0000
0032
,
0000
0000
0203
0000
0320
0000
0000
4030
,
0000
0MM4
0000
0000
,
3003
1000
0001
0100
0020
0000
0000
2030
,
0000
0000
3002
0000
2003
0000
0000
3020
,
0000
0000
0230
0000
0301
0010
0000
2400
,
0000
0000
0000
0000
0000
0000
0000
3300
0010
0001
0010
0001
1000
0010
1000
0010
,
0100
0001
0100
0001
1000
0100
1000
0100
0020
0000
0001
0000
0130
0000
0020
0000
,
0001
0130
0020
0032
0203
0010
0301
0200
,
0010
0301
0200
0320
2030
0100
3001
2000
,
0100
0000
3001
0100
0001
0000
1000
0000
0000
0000
0001
0000
0000
0000
0010
0000
,
0000
0400
0000
0000
2300
0000
0000
3002
,
0000
0000
0000
0000
0203
0000
0000
0000
0310
1000
0010
1000
0010
1000
0010
1000
,
0010
1000
0010
1000
0010
1000
0010
1000
00M1
0000
0000
0000
0000
0000
0000
0000
,
110M
1M01
0000
0000
01M1
011M
0000
0000
,
1M10
11M0
0000
0000
0M40
M40M
0000
0000
,
0000
0000
0000
0000
0000
0000
2332
3MM3
,
0202
0000
M3M3
0000
2200
0000
33MM
0000
1000
0100
1000
0001
0010
0001
0100
0010
,
1000
0010
0100
0001
1000
0100
0010
0001
2000
0000
3000
0000
0020
0000
0030
0000
,
2000
0000
3200
0000
2300
0000
0000
0000
3001
0010
0001
1000
0010
0100
0001
1000
,
0010
0100
0001
0010
0100
1000
0100
1000
0200
0000
0300
0000
0020
0000
0030
0000
,
0002
0000
2003
0000
3002
0000
0000
0000
0013
0000
0100
0000
0010
0001
0010
0000
,
0001
0000
0100
0000
0010
1000
0010
0000
1000
0000
0001
0000
1000
0100
1000
0000
,
0001
0000
0010
0000
0100
1000
0100
0000
1100
0000
0100
0000
0110
0000
0010
0000
,
0011
0000
0001
0000
1001
0000
1000
0000
0010
0100
0001
1000
0100
1000
0001
0010
,
0200
0000
2300
0000
3002
0000
0203
0000
0310
1000
0001
1000
0100
0010
0001
1000
,
0010
0100
0001
0100
0010
0100
0001
0100
0020
0000
0030
0000
2000
0000
3000
0000
,
0002
0000
0023
0000
0032
0000
0000
0000
1003
0100
0010
0001
1000
0001
1000
0010
,
1000
0001
0100
0010
1000
0100
0010
0001
2000
0000
3000
0000
0200
0000
0300
0000
,
0020
0000
0032
0000
0023
0000
0000
0000
0031
0000
1000
0000
0010
0100
0010
0000
,
0100
0000
0001
0000
1000
0100
1000
0000
0001
0000
0010
0000
0100
1000
0100
0000
,
0010
0000
0001
0000
1000
0010
1000
0000
0001
0100
0001
0100
0010
1000
0010
1000
,
0001
0010
0001
0010
0100
1000
0100
1000
0010
0100
0010
0100
0001
1000
0001
1000
,
0010
0100
0010
0100
0001
1000
0001
1000
0200
0000
0320
0000
0030
0000
0000
0000
,
0000
0000
0000
0000
M011
10M1
0000
0000
,
0000
0000
0000
0000
1000
0010
0100
0001
,
1000
0100
0010
0100
2000
3002
0203
0320
,
1030
0100
1000
0001
0100
0001
0100
0000
0001
1000
0001
0010
0100
1000
0001
1000
,
0010
0100
0001
1000
0001
1000
0010
0100
0002
0000
2003
0000
3100
0010
0001
1000
,
0100
0010
0100
1000
0001
1000
0001
1000
0200
0000
0000
0000
0010
0000
0010
0000
,
0010
0000
0010
0000
0010
0000
0310
0000
0001
0100
0001
0100
0020
0000
0000
0030
,
10M0
0100
1000
0100
0020
0000
0000
0030
00M1
0000
1000
0000
0001
0100
0001
0000
,
1000
0000
0100
0000
1000
0100
1000
0000
0010
0000
0100
0000
0001
0100
0001
0000
,
1000
0000
0100
0000
0010
0001
0010
0000
0001
0000
1000
0000
0010
1000
0010
0000
,
0100
0000
0001
0000
1000
0100
1000
0000
0001
0000
0010
0000
0100
0010
0100
0000
,
1000
0000
0001
0000
0100
0010
0100
0000
0001
0000
1000
0000
0001
0010
0001
0000
,
1000
0000
0010
0000
0100
0010
0100
0000
0001
0000
1000
0000
0001
0100
0010
0000
,
1000
0000
0100
0010
0001
0000
1000
0001
0100
0010
0100
0010
1000
0001
1000
0001
,
0100
0010
0100
0010
1000
0001
1000
0001
0200
0000
0310
1000
0010
0000
1000
0000
,
0002
0000
1003
0100
0010
0000
MMMM
0000
0001
0000
1000
0000
0010
0100
0010
0000
,
0100
0000
0001
0000
1000
0100
1000
0000
0001
0000
0010
0000
0100
1000
0100
0000
,
0010
0000
0001
0000
1000
0010
1000
0000
0001
0100
0001
0000
1000
0100
1000
0000
,
0010
0100
0010
0000
0100
0001
0100
0000
0002
0023
0032
0003
2000
3200
2300
3000
,
0002
2003
3002
0003
0200
0320
0230
0302
1003
0000
0100
0000
1000
0001
1000
0000
,
0010
0000
0100
0000
0001
0100
0001
0000
1000
0000
0100
0000
0010
0100
0010
0000
,
0001
0000
1000
0000
0100
1000
0100
0000
0010
0000
0001
0000
2001
0000
3001
0000
,
0012
0000
0023
0000
0230
0000
2300
0000
3001
0100
0001
0100
0010
1000
0001
0100
,
0001
0100
0010
1000
0100
1000
0100
0000
0010
0000
0001
0000
1000
0001
1000
0000
,
0010
0000
0100
0000
0001
0100
0001
0000
1000
0000
0100
0000
1000
0100
1000
0000
,
0001
0000
0010
0000
0100
1000
0100
0000
1000
0000
0010
0000
0100
0010
0100
0000
,
0001
0000
0100
0000
0001
1000
0001
0000
1000
0000
0100
0000
0010
0001
0010
0000
,
0001
0000
1000
0000
0100
0010
0100
0000
0010
0000
0001
0000
0100
0001
0100
0000
,
0010
0000
1000
0000
0001
1000
0001
0000
1000
0000
0100
0000
1000
0001
1000
0000
,
0010
0000
0100
0000
0001
0100
0001
0000
1000
0000
0100
0000
1000
0010
1000
0000
,
0001
0000
0100
0000
0010
0100
0010
0000
0100
0000
0001
0000
2000
0000
3200
0000
,
0320
0000
0032
0000
1003
0100
2000
0000
3001
0100
0001
0000
0100
0010
0100
0000
,
0010
1000
0010
0000
1000
0001
1000
0000
0002
0000
0000
0000
2003
0000
0000
0000
,
3002
0000
0023
0000
0230
0000
2300
0000
3001
1000
0001
1000
0010
0100
0001
1000
,
0001
1000
0010
0100
0001
1000
0001
1000
0100
0010
0001
1000
0100
0010
0001
1000
,
0010
0100
0001
1000
0001
0100
0010
1000
0100
0000
0010
0000
0001
1000
0001
0000
,
0100
0000
0010
0000
1000
0010
1000
0000
0001
0010
0001
0010
0100
0010
0100
0010
,
0100
1000
0100
1000
0001
1000
0001
1000
0010
0100
0001
1000
0001
0010
0100
1000
,
0001
0100
0010
1000
0100
0010
0001
1000
0001
0000
0000
0000
0000
0000
0000
0000
,
2MMM
0000
0000
0000
3002
0000
0000
0203
,
0000
0000
0000
0000
0320
0000
0000
0000
1030
0001
1000
0001
1000
0001
2000
0000
,
0000
0000
3020
0000
0230
0301
0000
1000
,
0000
0100
0000
0020
0002
0000
0000
0000
,
0030
1003
0010
0100
0200
0000
0301
0010
,
0200
0000
2300
0000
3001
0100
0010
1000
,
2000
0000
3002
0000
2003
3200
0000
0320
,
0000
0000
0032
0000
0000
0000
1003
0000
0010
1000
0010
1000
0001
1000
0001
1000
,
0001
0100
0001
0100
0010
0100
0010
0100
0002
0000
1003
0100
2000
0000
3001
0100
,
0001
0100
0002
0000
1003
0100
2000
0000
3001
0010
0002
0000
1003
0100
1000
0100
,
2000
0000
3010
0100
0010
0100
0010
0100
0002
0000
0023
0000
2030
0000
3200
0000
,
0302
0023
2030
3200
2300
3002
0000
0203
,
0000
0320
0000
0000
0230
0000
0000
0302
,
0000
0000
0000
0000
2003
0000
0000
0000
3100
0010
0100
0010
0100
0010
0001
1000
,
0001
1000
0001
1000
0010
0100
0010
0000
0101
0000
0001
0000
1000
0000
0100
0000
,
1100
0110
0010
0001
1001
0101
0100
0010
,
1010
1001
1000
0100
M22M
0000
0000
0000
,
0000
0000
0000
0000
0000
0000
0330
0000
0100
1000
0100
1000
0001
0100
0010
0100
,
0001
0010
0001
0010
0100
1000
0100
0010
0001
0100
0001
0100
0010
1000
0010
0100
,
0001
1000
0001
1000
0010
0100
0001
1000
0100
1000
0100
1000
0010
0100
0001
0010
,
0100
0010
0100
1000
0100
0010
0100
1000
0001
0100
0010
0100
0010
1000
0010
0100
,
00M2
0M00
M000
0M00
00M0
0M00
M000
0M03
,
1MM1
1010
0010
0100
0100
0001
1000
1000
,
1100
0110
0010
0001
0001
1000
0010
0010
,
0220
0000
0000
0000
0000
0000
0000
0330
,
0202
0000
0000
0303
2200
0000
0000
3300
,
2002
0000
0000
0000
0000
0000
0000
3003
,
1001
M11M
1001
0000
0000
0000
0000
0000
,
21MM
0000
3001
0001
0100
0100
0010
0010
,
1000
0100
1000
0100
0010
0001
1000
0010
1000
0010
0100
0001
1000
0100
0010
0001
,
1000
0001
0100
0010
0100
0001
1000
0100
1000
0001
0100
0010
0100
0001
1000
0100
,
0010
0001
1000
0001
0100
0001
1000
0001
0100
0010
0100
0010
2000
0000
0000
0000
,
3001
1000
0100
1000
0001
0100
0010
0100
0001
1000
0100
0010
0001
1000
0100
1000
,
0001
1000
0010
0100
0001
0010
0100
1000
0100
1000
0001
0010
0002
0000
0000
0000
,
1003
0010
0100
0001
1000
0100
0010
0001
1000
0001
0100
0010
0100
0001
1000
0100
,
0020
0032
2003
3020
0400
0000
0000
0330
,
0002
2003
3200
0302
0000
0203
2300
3002
,
0103
0010
1000
0001
1000
0010
0100
0010
1000
0001
1000
0100
0010
0001
0010
0100
,
2000
0000
0000
0000
0000
0000
0000
0000
0000
0000
0000
0000
3000
0000
0000
0002
0000
0000
2003
0000
0000
3100
0000
0040
,
0000
0000
0000
0000
0000
0000
0032
2003
,
3040
0000
0000
0230
,
0302
0000
0000
0000
0000
0000
0000
0000
0000
0000
0000
0000
0000
0000
0000
0000
0000
0000
0003
0000
0000
0000
0000
0000
1000
0000
0200
0000
0000
0000
0000
0000
0000
0300
0000
0000
1000
0000
0002
0000
0000
0000
0000
0000
0000
0003
0000
0000
,
0100
0010
1000
0001
0100
0010
1000
0001
1000
0100
0010
0100
1000
0100
0010
0100
,
1000
0001
0100
0010
0200
0000
0000
0000
0304
0000
0000
0000
4003
0000
3400
0000
,
0310
0001
1000
0001
0100
0010
0100
0001
1000
0001
1000
0100
0010
0100
1000
0001
,
0100
0010
1000
0001
0100
0010
1000
0001
0010
0100
1000
0100
1000
0100
0010
0001
,
2000
0000
3010
0100
0001
1000
0010
0100
0001
1000
0100
0010
0001
0010
0001
1000
,
0001
0100
0010
1000
0010
0100
0001
1000
0100
0010
0001
1000
0002
0000
2003
0000
,
3010
0100
0001
1000
0100
0010
0100
1000
0001
1000
0100
0010
0001
1000
0001
1000
,
0004
0010
0000
0010
0000
0010
0000
0013
0400
1000
0000
1300
0004
1000
0000
1003
,
0010
0100
0001
0100
0001
1000
0100
0010
0001
0100
0010
0100
0001
1000
0100
0010
,
0001
0100
0010
1000
0001
0100
0010
0100
0001
1000
0100
0010
0100
1000
0001
0010
,
0002
0000
0000
1000
0000
0000
1003
0000
2000
0000
0000
0001
0000
0000
3001
0000
,
0100
0010
1000
0001
1000
0100
0010
0001
0010
0001
1000
0010
0100
0001
0100
0001
,
2000
0000
3000
0200
0000
0300
0020
0000
0032
0000
0003
2000
0000
3000
0020
0000
,
0230
0002
0300
2003
3400
0320
0032
2003
,
3001
0010
0100
1000
0001
0100
0010
1000
0001
0010
0100
1000
0001
0100
0010
1000
,
0020
0000
0230
0302
0000
0000
0000
0003
,
1000
0100
0010
0100
0010
0001
1000
0010
0100
0001
1000
0001
0010
0100
1000
0001
,
4000
0100
0000
0100
0000
0100
0000
3100
0010
0001
1000
0100
0010
0100
1000
0001
,
2000
0000
0000
0000
0000
0000
0001
0000
0001
0000
0000
0001
0000
0000
0001
0000
,
3001
0100
0001
0100
0001
1000
0001
1000
0200
0000
0000
0000
0000
0000
0000
0000
,
23M0
3010
20M0
3010
20M0
3010
20M0
3010
,
020M
0301
020M
0301
020M
0301
020M
0301
,
1000
0100
0010
0001
1000
0001
0100
0010
1000
0001
1000
0100
0010
0100
1000
0001
,
0010
0001
1000
0010
0100
0001
0100
0001
1000
0100
1000
0001
0010
0001
1000
0010
,
0100
0001
1000
0100
1000
0001
0010
0001
1000
0010
0100
0001
1000
0100
0010
0001
,
1000
0001
1000
0010
0100
0001
1000
0100
0010
0001
1000
0001
2000
0000
0000
0000
,
3001
0010
0100
1000
0001
0010
0100
1000
0010
0100
0001
1000
,
0001
0100
0010
0100
0001
1000
0200
0000
0000
0000
0000
0000
,
1300
0010
0100
0010
1000
0010
0100
0010
1000
0001
0100
0010
0100
0001
0100
0010
,
1000
0100
0010
0001
1000
0001
1000
0100
0010
0001
1000
0010
0100
0010
0100
0001
,
1000
0100
0010
0001
0010
0100
1000
0001
1000
0010
0100
0001
0100
0010
0100
0001
,
1000
0100
0010
0001
1000
0100
0010
0100
40MM
0000
0000
0000
3MM4
0000
0000
0000
,
0103
0010
1000
0001
1000
0100
0010
0100
1000
0001
0010
0001
1000
0010
0100
0001
,
1000
0010
0100
0001
1000
0100
1000
0001
0010
0001
1000
0010
0200
0000
0000
0000
,
0301
1000
0010
0100
0001
1000
0100
0010
0100
0010
0001
1000
0001
0100
0010
1000
,
0100
0010
0100
1000
0100
0010
0100
1000
0001
0100
0010
0100
0001
0100
0010
0100
,
0001
1000
0100
0010
0100
1000
0001
1000
0010
0100
0001
1000
0100
1000
0001
0100
,
0010
1000
0100
0010
0001
1000
0001
0100
0020
0000
2030
0000
3002
0000
0023
0000
,
0031
0000
0000
1000
0000
0000
0100
0000
0010
0000
0000
0001
0000
0000
1000
0000
,
0001
0100
0001
0100
0010
0100
0010
0100
0002
0000
0000
0000
2003
0000
0000
0000
,
3001
0100
0010
1000
0001
1000
0100
0010
0100
1000
0001
0010
0001
1000
0010
0100
,
0001
0100
0010
1000
0001
1000
0100
0010
0001
0010
0100
1000
0001
0100
0010
1000
,
0010
0100
0001
0100
0010
0100
0001
1000
0001
1000
0100
0010
0001
1000
0010
0100
,
0001
0010
0001
0010
0100
1000
0001
1000
0010
0100
0001
1000
0200
0000
0000
0000
,
0311
0002
0203
0320
,
2030
0000
0000
3002
0023
0000
0032
0203
,
0320
0000
0000
2030
0000
0000
3200
0000
,
0310
0001
2000
0000
0000
0000
0000
0000
0000
0000
0000
0000
0000
0000
0000
0000
,
3002
0000
0000
0203
0000
0000
0320
0000
,
1030
0000
0002
0000
0000
0000
0000
0000
0000
0203
0000
0000
0000
0000
0000
0000
0000
0000
0320
0000
0000
0000
0000
0000
2030
0000
0000
0000
0000
0000
0000
0000
0000
0000
0000
0000
3200
0000
0000
0000
0000
0000
0000
0000
0000
0000
0000
0000
,
0310
0001
1000
0001
0100
0010
1000
0001
0010
0001
1000
0001
0100
0010
1000
0001
,
0100
0010
1000
0001
0100
0001
0010
0100
1000
0100
1000
0001
1000
0001
0100
0010
,
1000
0100
0010
0001
1000
0001
0100
0010
1000
0100
1000
0001
0010
0001
1000
0010
,
0100
0001
0100
0010
1000
0001
0010
0001
1000
0100
1000
0001
0100
0001
0100
0010
,
200M
0000
0000
0000
0000
0000
0M00
0000
0000
0000
0000
0000
0000
0000
0000
0000
00M0
0000
0000
0000
0000
3000
0000
0000
000M
0000
0000
0000
0000
0000
0000
0000
M000
0000
0000
0000
0000
0000
0000
0000
00M0
0000
0000
0000
0000
0000
0000
0000
,
0M00
0000
0000
0000
0000
000M
0000
0000
0000
0000
M000
0000
0000
0000
0000
0000
0M00
0000
00M0
0000
0000
0000
0000
0000
,
0000
0000
000M
0000
0M00
0000
00M0
0000
0000
M000
0000
0000
,
0000
0000
000M
0000
00M0
0M00
0000
0000
0000
0M00
00M0
0000
,
2200
0000
0000
3300
0220
0000
0000
0330
,
0022
0000
0000
0033
2002
0000
0000
3003
,
2020
0000
0000
3030
0202
0000
0000
0303
,
1MM1
M000
00MM
0M00
1000
0001
0000
0100
,
0010
1000
0000
0001
0010
0100
0000
1000
,
0001
0100
0102
0000
1003
0100
0000
1000
,
0001
0100
0000
0010
0100
0001
0000
1000
,
0100
0010
0012
0000
1M13
0000
1MM1
0000
,
MM11
1MM1
M1M1
1MM1
,
11MM
1MM1
2000
0000
,
0200
0000
0002
0000
,
0020
0000
0000
3333
1111
0000
0000
0000
,
0000
0000
0000
0000
,
2000
0000
0000
0000
3002
0000
0000
0000
0103
0000
0010
0000
1000
0001
1000
0000
,
0100
0000
0010
0000
0001
0010
0001
0000
1000
0000
0010
0000
0100
0001
0100
0000
,
0001
0000
1000
0000
0001
0010
0001
0000
1000
0100
1000
0000
0001
1000
0001
0000
,
0100
0010
0100
0000
0010
1000
0010
0000
1000
0100
1000
0000
0001
0010
0001
0000
,
1000
0100
1000
0000
0001
1000
0001
0000
0100
0000
0010
0000
1000
0010
1000
0000
,
0001
0000
0010
0000
0100
0010
0100
0000
1000
0000
0001
0000
1000
0010
1000
0000
,
0001
0000
1000
0000
0001
0010
0001
0000
1000
0000
0100
0000
1200
0000
1300
0000
,
2001
0000
3002
0000
0203
0000
0320
0000
1030
0100
0010
0001
1000
0001
0100
0010
,
1000
0001
1000
0100
0010
0001
1000
0001
0100
0000
0010
0000
0100
0001
0100
0000
,
0001
0000
1000
0000
0100
1000
0100
0000
0010
0000
0001
0000
1000
0001
1000
0000
,
0001
0000
0100
0000
0010
0100
0010
0000
0100
0000
0010
0000
1000
0010
1000
0000
,
0001
0000
0010
0000
0100
0010
0100
0000
1000
0000
0001
0000
1000
0010
1000
0000
,
0001
0000
1000
0000
0001
0010
0001
0000
0100
0000
0010
0000
0100
0001
0100
0000
,
0001
0000
1000
0000
0100
1000
0100
0000
0010
0000
0001
0000
1000
0001
1000
0000
,
0001
0000
0100
0000
0010
0100
0010
0000
0100
0000
0010
0000
1000
0010
1000
0000
,
0001
0000
0010
0000
0100
0010
0100
0000
2000
0000
3002
0000
0103
0010
2000
0000
,
3002
0000
2003
0000
3001
0010
0200
0000
1300
0000
0001
0000
0010
0001
0010
0000
,
0100
0000
1000
0000
0001
0100
0001
0000
0100
0000
0010
0000
1000
0010
1000
0000
,
0001
0000
0010
0000
0001
1000
0001
0000
0100
0010
1000
0001
1000
0100
0010
0100
,
1000
0001
0010
0001
1000
0010
0100
0001
1000
0100
0010
0100
1000
0001
1000
0010
,
0100
0001
0100
0010
1000
0100
1000
0100
0010
0000
0001
0000
1000
0010
1000
0000
,
0001
0000
0010
0000
0100
0010
0100
0000
0010
0001
1000
0001
0100
0010
1000
0001
,
0100
0010
1000
0001
0100
0001
1000
0100
1000
0001
1000
0001
1000
0001
1000
0001
,
1000
0001
1000
0001
1000
0001
1000
0001
1MM1
0000
0000
0000
0000
0000
0000
0000
,
2MMM
0000
0000
0000
0000
0000
0000
0000
3001
0100
0010
1000
0001
1000
0100
0010
,
0001
0010
0001
1000
0010
1000
0001
0010
0001
1000
0100
1000
0010
0100
0001
0100
,
0010
1000
0001
1000
0100
0010
0001
1000
0001
0100
0010
1000
0010
0100
0001
1000
,
0100
0010
0001
1000
0100
1000
0001
0010
0001
1000
0010
1000
0001
0100
0001
1000
,
0100
0010
0001
1000
0001
1000
0010
0100
0001
1000
0001
1000
0100
0010
0001
1000
,
0100
1000
0010
0100
0001
1000
0001
0010
0001
1000
0010
1000
0001
0100
0010
1000
,
0001
1000
0100
0010
0001
1000
0001
1000
0100
0010
0001
1000
0010
0100
0001
0100
,
0010
0100
0001
1000
0001
0010
0100
1000
0001
0100
0001
1000
0100
1000
0001
0010
,
0001
1000
0010
1000
0001
0100
0010
1000
0002
0000
0000
0000
0000
0000
0000
0000
,
0000
0000
0000
0000
,
0000
0000
0000
0000
,
0000
0000
0000
0000
,
0000
0000
0000
0003
2MM2
0000
0000
0000
,
0000
0000
0000
0000
0000
0000
0000
3003
,
1MM1
M11M
M22M
0000
,
0000
0000
0000
0000
,
0000
0000
0000
0000
0000
0000
0000
0000
0000
0000
0000
0000
0330
0000
0000
0000
0000
2002
0MM0
0000
0000
0000
0000
0000
,
0000
0000
0000
0000
,
0000
0000
0000
0000
,
3003
0000
0000
0000
0000
0000
0000
2020
0000
0000
0000
0000
0000
0000
0000
0000
0000
0000
0000
0000
0000
0000
0000
0000
0000
0000
0000
0000
0000
0000
0000
0000
0000
0000
0000
0000
0000
0000
0000
0000
0000
0000
0000
0000
0000
0000
0000
0000
,
3030
0000
0000
0000
0000
0022
0000
0000
0000
0000
0000
0000
0000
0000
0000
0000
0000
0000
0000
0000
0000
0000
0000
0000
0000
0000
0000
0000
0000
0000
0000
0000
,
0033
0000
0000
2002
0000
0000
0000
0000
0000
0000
0000
0000
0000
0000
3003
0000
,
0000
0000
0000
0000
0000
0000
0000
0000
0000
0202
0000
0000
0000
0000
0000
0000
0000
0000
0000
0000
0000
0000
0000
0000
0000
0000
0000
0000
0000
0000
0000
0000
,
0303
0000
0000
0000
0000
0000
0000
2002
0000
0000
0000
0000
0000
0000
0000
0000
0000
0000
0000
0000
0000
0000
0000
0000
,
0000
0000
0000
3003
,
1001
0000
0000
0000
0000
2002
0000
0000
0000
0000
0000
0000
0000
0000
0000
0000
,
0000
0000
0000
0000
,
0000
0000
0000
0000
,
0000
0000
0000
0000
,
0000
0000
0000
0000
,
3003
0000
0000
0000
;
