#TITLE:Moves Like Jagger;
#SUBTITLE:Sexuality Violation;
#ARTIST:Maroon 5 feat. Christina Aguilera;
#TITLETRANSLIT:;
#SUBTITLETRANSLIT:;
#ARTISTTRANSLIT:;
#CREDIT:;
#BANNER:Moves Like Jagger-bn.png;
#BACKGROUND:Moves Like Jagger-bg.png;
#LYRICSPATH:;
#CDTITLE:GazeboCD.png;
#MUSIC:Moves Like Jagger.ogg;
#OFFSET:-0.198;
#SAMPLESTART:105.208;
#SAMPLELENGTH:29.532;
#SELECTABLE:YES;
#BPMS:0.000=255.962;
#STOPS:;
#BGCHANGES:;
// cache tags:
#FIRSTBEAT:29.000;
#LASTBEAT:855.000;
#SONGFILENAME:Songs/Sexuality Violation 2/Moves Like Jagger - [Gazebo]/Moves Like Jagger.sm;
#HASMUSIC:1;
#HASBANNER:1;
#MUSICLENGTH:201.299;
// end cache tags

//---------------dance-single - Gazebo----------------
#NOTES:
     dance-single:
     Gazebo:
     Challenge:
     14:
     0.820,1.000,0.055,0.477,0.387,1047.000,11.000,96.000,0.000,0.000:
0000
0000
0000
0000
,
0000
0000
0000
0000
,
0000
0000
0000
0000
,
0000
0000
0000
0000
,
0000
0000
0000
0000
,
0000
0000
0000
0000
,
0000
0000
0000
0000
,
0000
0001
0000
0001
,
0100
0010
1000
0100
,
0010
0100
1000
0001
,
1002
0000
0103
0020
,
1000
0000
1030
0001
,
0010
0100
1000
0010
,
0100
0010
1000
0001
,
1002
0000
0013
0001
,
0001
1000
0010
0200
,
0001
0000
0010
0000
,
0301
1000
1000
0200
,
0010
0320
0001
0031
,
1000
0001
0100
0020
,
1000
0000
0100
0000
,
1030
0001
0001
0020
,
0100
0230
1000
1300
,
0010
0100
0001
2000
,
0010
0000
3010
1000
,
0100
0010
0001
2000
,
0100
0000
3100
1000
,
0010
0100
0001
1000
,
0010
0100
0001
0010
,
0100
0010
0001
1000
,
2001
0000
3010
1000
,
1000
0001
0010
0200
,
1000
0000
0010
0000
,
1300
0001
0001
0200
,
0010
0320
1000
1030
,
0001
1000
0100
0020
,
0001
0000
0100
0000
,
0031
1000
1000
0020
,
0100
0230
0001
0301
,
0010
0100
1000
0002
,
0010
0000
0013
0001
,
0100
0010
1000
0002
,
0100
0000
0103
0001
,
0010
0100
1000
0002
,
0010
0000
0013
0001
,
0100
0001
1000
0010
,
1000
0000
0000
0001
0000
0000
1000
0000
0000
0001
0100
0001
,
0100
0010
1000
0000
0001
0000
0001
0000
,
1001
0000
0001
0010
0001
0000
0100
0000
,
0010
1000
0100
0010
,
0010
0002
1000
2003
,
0010
0000
3020
0000
0100
0000
0130
0001
,
1000
0000
0001
0010
0001
0000
0100
0000
,
0010
1000
0100
0010
,
0010
0002
1000
2003
,
0010
3010
0100
0100
,
0001
0100
0001
0100
0010
1000
0001
1000
0001
0000
0000
0000
0001
0000
0000
0000
,
0010
0100
0100
0100
,
1000
0001
1000
0100
0010
0001
1000
0001
1000
0000
0000
0000
1000
0000
0000
0000
,
0010
0100
0100
0100
,
0001
0100
0001
0100
0010
1000
0001
1000
0001
0100
0010
1000
0001
0100
0001
1000
,
0001
1000
0100
0010
0001
0010
0100
1000
0001
0010
0001
1000
0001
1000
0100
0010
,
0002
0000
0103
0020
,
0000
2030
0000
0000
0000
0000
3000
0000
,
1001
0000
1000
0010
1000
0000
0100
0000
,
0010
0001
0100
0010
,
0010
2000
0001
3002
,
0010
0000
0023
0000
0100
0000
0130
1000
,
0001
0000
1000
0100
1000
0000
0010
0000
,
0100
0001
0010
0100
,
0100
2000
0001
3002
,
0100
0103
0010
0010
,
1000
0010
1000
0010
0100
0001
1000
0001
1000
0000
0000
0000
1000
0000
0000
0000
,
0100
0010
0010
0010
,
0001
1000
0001
0010
0100
1000
0001
1000
0001
0000
0000
0000
0001
0000
0000
0000
,
0100
0010
0010
0010
,
1000
0001
1000
0001
0100
0010
1000
0010
1000
0001
0100
0001
1000
0010
1000
0001
,
0010
0001
1000
0100
0010
0001
1000
0001
1000
0100
0010
0001
0010
0001
1000
0100
,
2000
0000
3001
0400
,
0301
1000
0100
0020
,
0001
0000
0100
0000
,
0031
1000
1000
0020
,
0100
0230
0001
0301
,
1000
0001
0010
0200
,
1000
0000
0010
0000
,
1300
0001
0001
0200
,
0010
0320
1000
1030
,
0100
0010
0001
2000
,
0100
0000
3100
1000
,
0010
0100
0001
2000
,
0010
0000
3010
1000
,
0100
0010
0001
1000
,
0100
0010
0001
0100
,
0010
0100
0001
1000
,
4001
0000
3100
1000
,
1000
0001
0100
0020
,
1000
0000
0100
0000
,
1030
0001
0001
0020
,
0100
0230
1000
1300
,
0001
1000
0010
0200
,
0001
0000
0010
0000
,
0301
2000
0100
3200
,
0010
0320
0001
0031
,
0100
0010
1000
1000
,
0001
0010
0001
0010
,
0001
1000
0001
1000
,
0010
1000
0010
1000
,
0010
0100
0010
0100
,
0001
1000
0001
0100
0010
1000
0100
1000
,
0001
0010
0001
0100
0010
1000
0001
0100
,
0001
0000
0000
1000
0000
0000
0001
0000
0000
0100
0000
0000
0010
0000
0000
1000
0000
0000
0010
0000
0000
1000
0000
0000
0001
0000
0000
0100
0000
0000
0010
0000
0000
1000
0000
0000
0001
0000
0000
0000
0100
0000
0000
0000
0001
0000
0000
0000
,
0100
0010
1000
0000
0010
0000
0010
0000
,
1001
0000
0001
0100
0001
0000
0010
0000
,
0100
1000
0010
0100
,
0100
0002
1000
2003
,
0100
0000
3200
0000
0010
0000
0310
0001
,
1000
0000
0001
0100
0001
0000
0010
0000
,
0100
1000
0010
0100
,
0100
0002
1000
2003
,
0100
3100
0010
0010
,
0001
0010
0001
0010
0100
1000
0001
1000
0001
0000
0000
0000
0001
0000
0000
0000
,
0100
0010
0010
0010
,
1000
0001
1000
0010
0100
0001
1000
0001
1000
0000
0000
0000
1000
0000
0000
0000
,
0100
0010
0010
0010
,
0001
1000
0001
1000
0100
0010
0001
0010
0001
1000
0100
1000
0001
0010
0001
1000
,
0010
1000
0001
0100
0010
1000
0001
1000
0001
0100
0010
1000
0010
1000
0001
0100
,
0002
0000
0013
0200
,
0000
2300
0000
0000
0000
0000
3000
0000
,
1001
0000
1000
0100
1000
0000
0010
0000
,
0100
0001
0010
0100
,
0100
2000
0001
3002
,
0100
0000
0203
0000
0010
0000
0310
1000
,
0001
0000
1000
0010
1000
0000
0100
0000
,
0010
0001
0100
0010
,
0010
2000
0001
3002
,
0010
0013
0100
0100
,
1000
0100
1000
0100
0010
0001
1000
0001
1000
0000
0000
0000
1000
0000
0000
0000
,
0010
0100
0100
0100
,
0001
1000
0001
0100
0010
1000
0001
1000
0001
0000
0000
0000
0001
0000
0000
0000
,
0010
0100
0100
0100
,
1000
0100
1000
0100
0010
0001
1000
0001
1000
0100
0010
0001
1000
0100
1000
0001
,
1000
0001
0100
0010
1000
0010
0100
0001
1000
0010
1000
0001
1000
0001
0100
0010
,
2000
0000
3001
0020
,
0000
0230
0000
0000
1300
0000
0000
0000
,
0001
0100
0001
1000
,
0100
1000
0002
0000
,
0103
0000
0010
0000
0100
0000
0001
1000
,
0100
0010
0200
0000
,
1300
0001
1000
0000
,
0001
0100
0002
0000
,
2003
0000
3001
0010
,
0001
0010
0002
0000
,
1003
0000
0001
0000
1000
0100
0010
0001
,
1000
0000
0010
0000
0020
0000
0000
0130
,
0001
0000
1000
0000
0001
0010
0100
1000
,
0001
0000
0100
0000
0200
0000
0000
0310
,
1000
0000
0001
0000
1000
0100
0010
0001
,
1000
0000
0010
0000
0020
0000
0000
0130
,
0001
0000
0000
1000
0000
0000
0001
0000
0000
1000
0100
1000
,
0100
0010
0001
0000
1000
0000
1000
0000
,
0001
0000
0100
0001
0100
0000
0010
0000
,
1000
0100
0020
0001
,
0031
0000
1000
0001
1000
0010
1000
0000
,
0100
0010
0020
0001
,
0031
0000
1000
0001
1000
0000
0010
0000
,
0100
0001
0200
0010
,
0320
1000
1030
0001
,
1000
0100
0020
0001
,
0031
0000
1000
0001
1000
0010
1000
0000
,
0001
0000
0100
0001
1000
0000
0001
1000
,
0100
0000
1000
0100
1000
0001
0100
0010
,
1000
0000
0001
0100
0001
0000
1000
0001
,
0010
0000
0001
1000
0001
0100
0010
1000
,
0001
0000
0100
0010
1000
0000
0001
0010
,
0100
0000
1000
0001
1000
0000
0001
0100
,
0001
0000
0100
0010
0100
0000
0010
1000
,
0040
0000
0030
0000
,
0000
0000
0000
0000
,
1001
0000
0001
0010
0001
0000
0100
0000
,
0010
1000
0100
0010
,
0010
0002
1000
2003
,
0010
0000
3020
0000
0100
0000
0130
0001
,
1000
0000
0001
0010
0001
0000
0100
0000
,
0010
1000
0100
0010
,
0010
0002
1000
2003
,
0010
3010
0100
0100
,
0001
0100
0001
0100
0010
1000
0001
1000
0001
0000
0000
0000
0001
0000
0000
0000
,
0010
0100
0100
0100
,
1000
0001
1000
0100
0010
0001
1000
0001
1000
0000
0000
0000
1000
0000
0000
0000
,
0010
0100
0100
0100
,
0001
0100
0001
0100
0010
1000
0001
1000
0001
0100
0010
1000
0001
0100
0001
1000
,
0001
1000
0100
0010
0001
0010
0100
1000
0001
0010
0001
1000
0001
1000
0100
0010
,
0002
0000
0103
0020
,
0000
2030
0000
0000
0000
0000
3000
0000
,
1001
0000
1000
0010
1000
0000
0100
0000
,
0010
0001
0100
0010
,
0010
2000
0001
3002
,
0010
0000
0023
0000
0100
0000
0130
1000
,
0001
0000
1000
0100
1000
0000
0010
0000
,
0100
0001
0010
0100
,
0100
2000
0001
3002
,
0100
0103
0010
0010
,
1000
0010
1000
0010
0100
0001
1000
0001
1000
0000
0000
0000
1000
0000
0000
0000
,
0100
0010
0010
0010
,
0001
1000
0001
0010
0100
1000
0001
1000
0001
0000
0000
0000
0001
0000
0000
0000
,
0100
0010
0010
0010
,
1000
0001
1000
0001
0100
0010
1000
0010
1000
0001
0100
0001
1000
0010
1000
0001
,
0010
0001
1000
0100
0010
0001
1000
0001
1000
0100
0010
0001
0010
0001
1000
0100
,
2000
0000
3001
0200
,
0000
0320
0000
0000
1030
0000
0000
0000
,
0010
0100
0001
0010
,
0100
1000
0001
0100
,
0200
0000
0310
4000
,
0000
0000
0000
3000
;

//---------------dance-single - Gazebo----------------
#NOTES:
     dance-single:
     Gazebo:
     Hard:
     11:
     0.762,1.000,0.060,0.477,0.373,964.000,12.000,96.000,0.000,0.000:

0000
0000
0000
0000
,
0000
0000
0000
0000
,
0000
0000
0000
0000
,
0000
0000
0000
0000
,
0000
0000
0000
0000
,
0000
0000
0000
0000
,
0000
0000
0000
0000
,
0000
0001
0000
0001
,
0100
0010
1000
0100
,
0010
0100
1000
0001
,
1002
0000
0103
0020
,
1000
0000
1030
0001
,
0010
0100
1000
0010
,
0100
0010
1000
0001
,
1002
0000
0013
0001
,
0001
1000
0010
0200
,
0001
0000
0010
0000
,
0301
1000
1000
0200
,
0010
0320
0001
0031
,
1000
0001
0100
0020
,
1000
0000
0100
0000
,
1030
0001
0001
0020
,
0100
0230
1000
1300
,
0010
0100
0001
2000
,
0010
0000
3010
1000
,
0100
0010
0001
2000
,
0100
0000
3100
1000
,
0010
0100
0001
1000
,
0010
0100
0001
0010
,
0100
0010
0001
1000
,
2001
0000
3010
1000
,
1000
0001
0010
0200
,
1000
0000
0010
0000
,
1300
0001
0001
0200
,
0010
0320
1000
1030
,
0001
1000
0100
0020
,
0001
0000
0100
0000
,
0031
1000
1000
0020
,
0100
0230
0001
0301
,
0010
0100
1000
0002
,
0010
0000
0013
0001
,
0100
0010
1000
0002
,
0100
0000
0103
0001
,
0010
0100
1000
0002
,
0010
0000
0013
0001
,
0100
0001
1000
0010
,
1000
0000
0000
0001
0000
0000
1000
0000
0000
0001
0100
0001
,
0100
0010
1000
0000
0001
0000
0001
0000
,
1001
0000
0001
0010
0001
0000
0100
0000
,
0010
1000
0100
0010
,
0010
0002
1000
2003
,
0010
0000
3020
0000
0100
0000
0130
0001
,
1000
0000
0001
0010
0001
0000
0100
0000
,
0010
1000
0100
0010
,
0010
0002
1000
2003
,
0010
3010
0100
0100
,
0001
0100
0001
1000
0100
0010
0001
0000
0000
0001
0000
0000
,
0010
0100
0100
0100
,
1000
0100
1000
0001
0100
0010
1000
0000
0000
1000
0000
0000
,
0010
0100
0100
0100
,
0001
0100
0001
1000
0001
0010
0100
1000
0010
1000
0001
0100
,
0001
1000
0001
0010
0100
1000
0100
0010
0001
1000
0010
1000
,
0002
0000
0013
0200
,
0000
2300
0000
0000
0000
0000
3000
0000
,
1001
0000
1000
0100
1000
0000
0010
0000
,
0100
0001
0010
0100
,
0100
2000
0001
3002
,
0100
0000
0203
0000
0010
0000
0310
1000
,
0001
0000
1000
0010
1000
0000
0100
0000
,
0010
0001
0100
0010
,
0010
2000
0001
3002
,
0010
0013
0100
0100
,
1000
0100
1000
0001
0100
0010
1000
0000
0000
1000
0000
0000
,
0010
0100
0100
0100
,
0001
0100
0001
1000
0100
0010
0001
0000
0000
0001
0000
0000
,
0010
0100
0100
0100
,
1000
0100
1000
0001
1000
0010
0100
0001
0010
0001
1000
0100
,
1000
0001
1000
0010
0100
0001
0100
0010
1000
0001
0010
0001
,
2000
0000
3001
0400
,
0301
1000
0100
0020
,
0001
0000
0100
0000
,
0031
1000
1000
0020
,
0100
0230
0001
0301
,
1000
0001
0010
0200
,
1000
0000
0010
0000
,
1300
0001
0001
0200
,
0010
0320
1000
1030
,
0100
0010
0001
2000
,
0100
0000
3100
1000
,
0010
0100
0001
2000
,
0010
0000
3010
1000
,
0100
0010
0001
1000
,
0100
0010
0001
0100
,
0010
0100
0001
1000
,
4001
0000
3100
1000
,
1000
0001
0100
0020
,
1000
0000
0100
0000
,
1030
0001
0001
0020
,
0100
0230
1000
1300
,
0001
1000
0010
0200
,
0001
0000
0010
0000
,
0301
2000
0100
3200
,
0010
0320
0001
0031
,
0100
0010
1000
1000
,
0001
0010
0001
0010
,
0001
1000
0001
1000
,
0010
1000
0010
1000
,
0010
0100
0010
0100
,
0001
1000
0001
0100
0010
1000
0100
1000
,
0001
0010
0001
0100
0010
1000
0001
0100
,
0004
0000
0000
0000
0000
0000
1003
0000
0000
0100
1000
0100
,
1000
0001
1000
0000
0010
0000
0010
0000
,
1001
0000
0001
0100
0001
0000
0010
0000
,
0100
1000
0010
0100
,
0100
0002
1000
2003
,
0100
0000
3200
0000
0010
0000
0310
0001
,
1000
0000
0001
0100
0001
0000
0010
0000
,
0100
1000
0010
0100
,
0100
0002
1000
2003
,
0100
3100
0010
0010
,
0001
0010
0001
1000
0010
0100
0001
0000
0000
0001
0000
0000
,
0100
0010
0010
0010
,
1000
0010
1000
0001
0010
0100
1000
0000
0000
1000
0000
0000
,
0100
0010
0010
0010
,
0001
0010
0001
1000
0001
0100
0010
1000
0100
1000
0001
0010
,
0001
1000
0001
0100
0010
1000
0010
0100
0001
1000
0100
1000
,
0002
0000
0103
0020
,
0000
2030
0000
0000
0000
0000
3000
0000
,
1001
0000
1000
0010
1000
0000
0100
0000
,
0010
0001
0100
0010
,
0010
2000
0001
3002
,
0010
0000
0023
0000
0100
0000
0130
1000
,
0001
0000
1000
0100
1000
0000
0010
0000
,
0100
0001
0010
0100
,
0100
2000
0001
3002
,
0100
0103
0010
0010
,
1000
0010
1000
0001
0010
0100
1000
0000
0000
1000
0000
0000
,
0100
0010
0010
0010
,
0001
0010
0001
1000
0010
0100
0001
0000
0000
0001
0000
0000
,
0100
0010
0010
0010
,
1000
0010
1000
0001
1000
0100
0010
0001
0100
0001
1000
0010
,
1000
0001
1000
0100
0010
0001
0010
0100
1000
0001
0100
0001
,
2000
0000
3001
0020
,
0000
0230
0000
0000
1300
0000
0000
0000
,
0001
0100
0001
1000
,
0100
1000
0002
0000
,
0103
0000
0010
0000
0100
0000
0001
1000
,
0100
0010
0200
0000
,
1300
0001
1000
0000
,
0001
0100
0002
0000
,
2003
0000
3001
0010
,
0001
0010
0002
0000
,
1003
0000
0001
0000
1000
0100
0010
0001
,
1000
0000
0010
0000
0020
0000
0000
0130
,
0001
0000
1000
0000
0001
0010
0100
1000
,
0001
0000
0100
0000
0200
0000
0000
0310
,
1000
0000
0001
0000
1000
0100
0010
0001
,
1000
0000
0010
0000
0020
0000
0000
0130
,
0001
0000
0000
1000
0000
0000
0001
0000
0000
1000
0100
1000
,
0100
0010
0001
0000
1000
0000
1000
0000
,
0001
0000
0100
0001
0100
0000
0010
0000
,
1000
0100
0020
0001
,
0031
0000
1000
0001
1000
0010
1000
0000
,
0100
0010
0020
0001
,
0031
0000
1000
0001
1000
0000
0010
0000
,
0100
0001
0200
0010
,
0320
1000
1030
0001
,
1000
0100
0020
0001
,
0031
0000
1000
0001
1000
0010
1000
0000
,
0001
0000
0100
0001
1000
0000
0001
1000
,
0100
0000
1000
0100
1000
0001
0100
0010
,
1000
0000
0001
0100
0001
0000
1000
0001
,
0010
0000
0001
1000
0001
0100
0010
1000
,
0001
0000
0100
0010
1000
0000
0001
0010
,
0100
0000
1000
0001
1000
0000
0001
0100
,
0001
0000
0100
0010
0100
0000
0010
1000
,
0040
0000
0030
0000
,
0000
0000
0000
0000
,
1001
0000
0001
0010
0001
0000
0100
0000
,
0010
1000
0100
0010
,
0010
0002
1000
2003
,
0010
0000
3020
0000
0100
0000
0130
0001
,
1000
0000
0001
0010
0001
0000
0100
0000
,
0010
1000
0100
0010
,
0010
0002
1000
2003
,
0010
3010
0100
0100
,
0001
0100
0001
1000
0100
0010
0001
0000
0000
0001
0000
0000
,
0010
0100
0100
0100
,
1000
0100
1000
0001
0100
0010
1000
0000
0000
1000
0000
0000
,
0010
0100
0100
0100
,
0001
0100
0001
1000
0001
0010
0100
1000
0010
1000
0001
0100
,
0001
1000
0001
0010
0100
1000
0100
0010
0001
1000
0010
1000
,
0002
0000
0013
0200
,
0000
2300
0000
0000
0000
0000
3000
0000
,
1001
0000
1000
0100
1000
0000
0010
0000
,
0100
0001
0010
0100
,
0100
2000
0001
3002
,
0100
0000
0203
0000
0010
0000
0310
1000
,
0001
0000
1000
0010
1000
0000
0100
0000
,
0010
0001
0100
0010
,
0010
2000
0001
3002
,
0010
0013
0100
0100
,
1000
0100
1000
0001
0100
0010
1000
0000
0000
1000
0000
0000
,
0010
0100
0100
0100
,
0001
0100
0001
1000
0100
0010
0001
0000
0000
0001
0000
0000
,
0010
0100
0100
0100
,
1000
0100
1000
0001
1000
0010
0100
0001
0010
0001
1000
0100
,
1000
0001
1000
0010
0100
0001
0100
0010
1000
0001
0010
0001
,
2000
0000
3001
0200
,
0000
0320
0000
0000
1030
0000
0000
0000
,
0010
0100
0001
0010
,
0100
1000
0001
0100
,
0200
0000
0310
4000
,
0000
0000
0000
3000
;
