#TITLE:Pharaohman Stage(Megaman 4);
#SUBTITLE:;
#ARTIST:Capcom Sound Team;
#TITLETRANSLIT:;
#SUBTITLETRANSLIT:;
#ARTISTTRANSLIT:;
#CREDIT:Megaman 4(Capcom);
#BANNER:Pharoah Man-banner.png;
#BACKGROUND:Pharaoh Man-bg.png;
#LYRICSPATH:;
#CDTITLE:Sulfer Dragon-cdtitle.png;
#MUSIC:09 - Pharaoh Man Stage.mp3;
#OFFSET:-0.970;
#SAMPLESTART:37.612;
#SAMPLELENGTH:12.000;
#SELECTABLE:YES;
#BPMS:0.000=163.748;
#STOPS:;
#BGCHANGES:;
// cache tags:
#FIRSTBEAT:11.500;
#LASTBEAT:223.000;
#SONGFILENAME:Songs/toune 2/Pharaoh Man Stage/09 - Pharaoh Man Stage.sm;
#HASMUSIC:1;
#HASBANNER:1;
#MUSICLENGTH:86.577;
// end cache tags

//---------------dance-single - ----------------
#NOTES:
     dance-single:
     :
     Challenge:
     9:
     0.685,0.708,0.531,0.243,0.404,348.000,46.000,21.000,0.000,4.000:
0000
0000
0000
0000
,
0000
0000
0000
0000
,
0000
0000
0000
0000
0000
0000
0000
0000
0000
0000
0000
0000
0000
0000
1000
0001
,
1000
0001
1000
0001
1000
0000
0000
0000
0010
0000
1000
0000
0100
0000
0010
0000
,
0001
0000
1001
0000
1001
0000
0001
0010
,
0001
1000
0100
0010
0001
1000
0002
0000
,
1003
0000
0010
0000
0100
0000
0001
0010
0001
0000
1000
0010
1000
0000
0100
0010
,
0000
0100
0010
0000
0000
0000
0000
0000
0001
0000
0100
0000
1000
0000
0100
0000
,
0010
0000
0110
0000
0110
0000
1000
0010
,
1000
0000
0001
0000
0100
0000
0010
0000
0000
1000
0100
0000
1000
0000
0000
0110
,
0000
0101
1010
2002
0000
0000
0000
0000
,
3103
0000
0110
0000
1000
0000
1001
1000
,
0010
0100
0000
0010
0000
0000
1000
0100
0010
0001
0000
0000
1000
0000
0010
0100
,
0000
0000
0000
1001
0000
0000
0000
0000
1010
0000
1010
0000
0110
0000
0101
0000
,
0101
0000
1001
0000
0100
0000
0010
0000
1000
0010
1000
0000
0001
0100
0001
0000
,
0000
0000
1000
0001
1000
0000
0100
0000
0010
0000
0000
0000
0001
0000
1000
0000
,
0010
0001
0000
0010
1000
0000
0000
0100
,
0010
0000
0000
0001
0000
0000
0200
0000
0000
0000
0000
0000
0000
0000
0000
0000
,
0300
0000
0000
0000
0000
0000
1000
0001
0100
0000
0010
0000
0100
0000
0020
0000
,
0000
0000
0000
0000
0030
0000
0001
1000
0010
0000
0100
0000
0010
0000
0200
0000
,
0000
0000
0000
0000
0300
0000
1000
0100
0001
0010
0000
0000
0000
0000
1000
0000
,
0000
0000
0000
0000
0000
0000
1000
0100
1000
0100
0010
0001
0010
0001
1000
0010
,
0000
0000
0000
0000
0000
0000
0100
0001
0010
0000
0100
0000
0010
0000
0200
0000
,
0000
0000
0000
0000
0300
0000
0010
1000
0100
0000
0010
0000
0100
0000
0020
0000
,
0000
0000
0000
0000
0030
0000
0100
0001
0100
0010
1000
0000
0000
0000
0011
0000
,
1001
0000
1100
2002
0000
0000
0000
0000
,
3103
0010
0100
0000
0010
1000
0010
0000
0100
0000
0001
0000
0010
0000
0100
0000
,
1000
0000
1001
0000
1001
0000
1000
0100
,
1000
0001
0010
0100
1000
0001
2000
0000
,
3001
0000
0100
0000
0010
0000
1000
0100
1000
0000
0001
0100
0001
0000
0010
0100
,
0000
0010
0100
0000
0000
0000
0000
0000
1000
0000
0010
0000
0001
0000
0010
0000
,
0100
0000
0110
0000
0110
0000
0001
0100
,
0001
0000
1000
0000
0010
0000
0100
0000
0000
0001
0010
0000
0001
0000
0000
0110
,
0000
1100
0011
2002
0000
0000
0000
0000
,
3013
0000
0110
0000
0001
0000
1001
0001
,
0100
0010
0000
0100
0000
0000
0001
0010
0100
1000
0000
0000
0001
0000
0100
0010
,
0000
0000
0000
1001
0000
0000
0000
0000
1100
0000
1100
0000
1001
0000
0011
0000
,
0011
0000
0110
0000
0010
0000
0100
0000
0001
0100
0001
0000
1000
0010
1000
0000
,
0000
0000
0001
1000
0001
0000
0010
0000
0100
0000
0000
0000
1000
0000
0001
0000
,
0100
1000
0000
0100
0001
0000
0000
0010
,
0100
0000
0000
1000
0000
0000
0020
0000
0000
0000
0000
0000
0000
0000
0000
0000
,
0030
0000
0000
0000
0000
0000
0001
1000
0010
0000
0100
0000
0010
0000
0200
0000
,
0000
0000
0000
0000
0300
0000
1000
0001
0100
0000
0010
0000
0100
0000
0020
0000
,
0000
0000
0000
0000
0030
0000
0001
0010
1000
0100
0000
0000
0000
0000
0001
0000
,
0000
0000
0000
0000
0000
0000
0001
0010
0001
0010
0100
1000
0100
1000
0001
0100
,
0000
0000
0000
0000
0000
0000
0010
1000
0100
0000
0010
0000
0100
0000
0020
0000
,
0000
0000
0000
0000
0030
0000
0100
0001
0010
0000
0100
0000
0010
0000
0200
0000
,
0000
0000
0000
0000
0300
0000
0010
1000
0010
0100
0001
0000
0000
0000
1010
0000
,
1001
0000
0101
2002
0000
0000
0000
0000
,
3013
0100
0010
0000
0100
0001
0100
0000
0001
0000
0010
0000
1000
0000
0010
0000
,
0001
0000
0110
0000
0110
0000
0001
0100
,
0010
0100
0001
1000
0010
0100
0002
0000
,
1003
0000
0010
0000
0100
0000
0000
0000
0001
1000
0001
0000
1000
0010
1000
0000
,
0001
0100
0000
0010
0100
0000
0000
0000
0010
0000
1000
0000
0001
0000
0100
0000
,
0010
0000
1010
0000
0101
0000
0010
1000
,
0100
0000
0010
0000
0001
0000
0100
0000
0000
0001
1000
0000
0001
0000
0000
0000
;
