#TITLE:March of Death;
#SUBTITLE:;
#ARTIST:Zach de la Rocha & DJ Shadow;
#TITLETRANSLIT:;
#SUBTITLETRANSLIT:;
#ARTISTTRANSLIT:;
#CREDIT:;
#BANNER:rochashadow032503-banner.JPG;
#BACKGROUND:rochashadow032503-bg.JPG;
#LYRICSPATH:;
#CDTITLE:;
#MUSIC:rochashadow032503.mp3;
#OFFSET:-0.900;
#SAMPLESTART:100.000;
#SAMPLELENGTH:12.000;
#SELECTABLE:YES;
#BPMS:0.000=102.020;
#STOPS:;
#BGCHANGES:;
// cache tags:
#FIRSTBEAT:0.000;
#LASTBEAT:409.500;
#SONGFILENAME:Songs/toune 4/rochashadow032503/rochashadow032503.sm;
#HASMUSIC:1;
#HASBANNER:1;
#MUSICLENGTH:247.516;
// end cache tags

//---------------dance-single - Copied from Copied f----------------
#NOTES:
     dance-single:
     Copied from Copied f:
     Beginner:
     3:
     0.237,0.372,0.448,0.141,0.055,265.000,111.000,35.000,0.000,0.000:
0000
0000
0000
0000
,
0000
0000
0000
0000
,
1100
0110
0011
1001
,
0022
0000
0033
0000
0202
0000
0000
0303
,
1001
0000
0200
0000
,
0300
0000
1000
0001
0000
0000
0000
0000
,
0110
0000
0000
0011
0000
0000
0000
0000
,
1010
0000
0000
0000
0001
0100
0000
0000
,
1010
0000
0200
0000
,
0300
0000
0010
1000
0000
0000
0000
0000
,
1001
0000
0000
1100
0000
0000
0000
0000
,
0101
0000
0000
0000
0001
0100
0000
0000
,
0010
0000
0000
0000
0020
0030
0000
2000
3000
0000
0002
0000
0000
0000
0000
0000
,
0000
0003
0010
1000
0000
0000
0000
0000
,
1010
0000
0000
0101
0000
0000
0000
0000
,
0011
0000
0000
0000
1000
0001
0000
0000
,
1001
0000
0200
0000
,
0300
0000
0001
0010
0000
0000
0000
0000
,
0110
0000
0000
1001
0000
0000
0000
0000
,
1010
0000
0000
0000
0001
0100
0000
0000
,
1001
0000
0200
0000
,
0300
0000
0001
1000
0000
0000
0000
0000
,
0011
0000
0000
1100
0000
0000
0000
0000
,
0110
0000
0000
0000
0001
0010
0000
0000
,
1001
0000
0200
0000
,
0300
0000
0100
0010
0000
0000
0000
0000
,
1001
0000
0000
0011
0000
0000
0000
0000
,
0110
0000
0000
0000
1000
0100
0000
0000
,
1010
0000
0200
0000
,
0300
0000
0001
1000
0000
0000
0000
0000
,
0011
0000
0000
1001
0000
0000
0000
0000
,
1010
0000
0000
0000
0001
0100
0000
0000
,
1001
0000
0200
0000
,
0300
0000
0001
0010
0000
0000
0000
0000
,
0011
0000
0000
0101
0000
0000
0000
0000
,
0110
0000
0000
0000
0010
0100
0000
0000
,
0000
0000
0000
1100
0000
0000
0000
0000
,
0000
1010
1100
0011
,
1100
0000
0000
1010
0000
0000
0000
0000
,
0000
1000
1000
0011
,
1010
0000
0000
1100
0000
0000
0000
0100
,
0000
0100
1000
0000
1100
0000
0101
0000
,
1001
0000
0200
0000
,
0300
0000
1000
0001
0000
0000
0000
0000
,
0110
0000
0000
0011
0000
0000
0000
0000
,
1010
0000
0000
0000
0001
0100
0000
0000
,
0000
2000
3000
0000
0020
0030
0000
0002
0003
0000
0020
0000
0000
0000
0000
0000
,
0000
0030
0000
0000
1000
0100
0010
0000
,
1010
0000
0000
0101
0000
0000
0000
0000
,
0110
0000
0000
0000
0001
1000
0000
0000
,
1010
0000
0020
0000
,
0030
0000
1000
0001
0000
0000
0000
0000
,
1010
0000
0000
0011
0000
0000
0000
0000
,
1001
0000
0000
0000
0010
1000
0000
0000
,
1010
0000
2000
0000
,
3000
0000
0001
0010
0000
0000
0000
0000
,
0110
0000
0000
0011
0000
0000
0000
0000
,
1010
0000
0000
0000
0001
0100
0000
0000
,
1010
0000
0000
0000
,
0000
0000
0000
0000
,
1001
0000
0000
0000
,
0000
0000
0000
0000
,
1010
0000
0000
0000
0011
0000
0000
0000
1001
0000
0000
0000
0110
0000
0000
0100
,
0000
0000
1000
0000
0100
0000
0000
0000
1000
0000
0100
0000
0010
0000
0000
1000
,
0000
0000
0000
0000
1001
0000
0000
0000
0101
0000
0000
0000
0110
0000
0000
0001
,
0000
0000
1000
0000
0001
0000
0000
0010
0000
0000
1000
0000
0010
0000
0100
0000
,
1000
0000
0100
0000
0010
0000
0000
0000
1000
0000
0000
1000
0000
0000
0000
0000
,
1000
0000
0000
0000
0010
0000
0000
0000
1000
0000
0000
0000
0010
0000
0000
0010
,
0000
0000
0000
0000
1001
0000
0000
1010
0000
0000
0000
0000
1001
0000
0000
0000
,
1000
0000
0000
0000
0000
1000
0000
0100
0000
0010
0000
0000
0001
0000
0000
0000
,
0000
0000
0000
1100
0000
0000
0000
0000
,
0000
1010
1100
0011
,
1100
0000
0000
1010
0000
0000
0000
0000
,
0000
1000
1000
0011
,
1010
0000
0000
1100
0000
0000
0000
0000
,
0000
1000
1100
0101
,
1001
0000
0000
1100
0000
0000
0000
0100
,
0000
0100
1000
0000
1100
0000
0011
0000
,
0000
0200
0300
0000
2000
3000
0000
0002
0003
0000
0200
0000
0000
0000
0000
0000
,
0000
0300
0000
0000
0001
0000
1000
0000
0000
0000
0000
0000
0000
0000
0000
0000
,
0110
0000
0000
1001
0000
0000
0000
0000
,
1010
0000
0000
0000
0001
0100
0000
0000
,
0000
0200
0300
0000
0002
0003
0000
2000
3000
0000
0020
0000
0000
0000
0000
0000
,
0000
0030
0000
0000
1000
0000
0001
0000
0000
0000
0000
0000
0000
0000
0000
0000
,
0110
0000
0000
0011
0000
0000
0000
0000
,
1010
0000
0000
0000
0001
0100
0000
0000
,
1010
0000
0200
0000
,
0300
0000
0010
1000
0000
0000
0000
0000
,
1001
0000
0000
1100
0000
0000
0000
0000
,
0101
0000
0000
0000
0001
0100
0000
0000
,
0010
0000
0020
0000
,
0000
0030
0000
0000
0001
0000
0100
0000
0000
0000
0000
0000
0000
0000
0000
0000
,
0110
0000
0000
0011
0000
0000
0000
0000
,
1010
0000
1100
0011
,
1001
0000
0200
0000
,
0300
0000
0000
0000
0001
0010
0100
1000
0000
0000
0000
0000
0000
0000
0000
0000
,
0010
1000
0000
0000
0000
0000
0001
0100
0000
0000
0000
0000
0000
0000
0000
0000
,
0010
0100
0000
0000
0000
0000
0000
0000
1010
0000
0000
0000
0101
0000
0000
0000
,
1001
0000
0200
0000
,
0300
0000
0000
0000
0001
0010
0100
1000
0000
0000
0000
0000
0000
0000
0000
0000
,
0010
1000
0000
0000
0000
0000
0001
0100
0000
0000
0000
0000
0000
0000
0000
0000
,
0010
0100
0000
0000
0000
0000
0000
0000
1100
0000
0000
0000
0022
0000
0000
0000
,
0000
0033
0000
0000
;

//---------------dance-single - Copied from Copied f----------------
#NOTES:
     dance-single:
     Copied from Copied f:
     Challenge:
     10:
     0.657,0.599,0.331,0.133,0.798,1023.000,82.000,33.000,0.000,0.000:
1000
0000
0010
0000
0000
0100
0001
0000
0010
0000
1000
0100
0000
0001
1000
0000
,
1000
0000
0010
0000
0000
0100
0001
0000
0010
0000
1000
0100
0000
0001
1000
0000
,
1000
0000
0010
0000
0000
0100
0001
0000
0010
0000
1000
0100
0000
0001
1000
0000
,
0022
0000
0033
1000
0202
0000
0000
0303
,
0000
0000
0000
0000
1000
0000
0100
0001
0100
0010
1000
0001
1000
0010
0100
0000
,
1000
0010
0100
1000
0100
0010
0001
0000
0010
0100
1000
0001
0010
0100
0010
0000
,
1001
0000
0000
0000
1000
0000
0100
0001
0100
0010
1000
0001
1000
0010
0100
0000
,
1000
0010
0100
1000
0100
0010
0001
0000
0010
0100
1000
0001
0010
0100
0010
0000
,
0101
0000
0000
0000
1000
0000
0100
0010
0100
0010
1000
0001
1000
0010
0001
0000
,
1000
0010
0001
1000
0010
0100
0001
0000
0100
0010
1000
0001
0010
0100
0010
0000
,
1010
0000
0000
0000
0001
0000
0100
0001
0100
0010
0100
0001
1000
0001
0100
0000
,
1000
0001
0100
0010
0100
0010
0001
0000
0010
0100
1000
0001
0010
0100
0010
0000
,
1001
0000
0000
0100
0020
0030
0001
2000
3000
0010
0002
0000
0000
0000
0000
0003
,
0100
0010
0001
1000
0010
0100
0001
0000
0010
0100
0001
0010
0100
1000
0010
0000
,
0110
0000
0000
0000
0001
0000
1000
0001
0100
0010
1000
0100
0001
0010
0001
0000
,
1000
0100
0010
1000
0100
1000
0001
0000
0010
0100
1000
0100
0010
0100
0010
0000
,
0011
0000
0000
0000
0001
0000
1000
0001
0100
0010
1000
0100
0001
0010
0001
0000
,
1000
0100
0010
1000
0100
1000
0001
0000
0010
0100
1000
0001
1000
0010
0100
0000
,
1100
0000
0000
0000
1010
0000
0000
0000
0100
0010
1000
0100
1000
0001
0010
0000
,
1000
0100
0010
0001
0100
1000
0001
0000
0010
0001
1000
0100
0010
1000
0010
0000
,
1001
0000
0000
0000
0001
0000
0100
0001
0100
0010
0001
0100
0001
1000
0001
0000
,
1000
0100
0010
0001
0100
1000
0001
0000
0010
0001
1000
0100
0010
0001
0010
0000
,
0110
0000
0000
0000
0001
0000
1000
0001
0100
0010
1000
0100
0001
1000
0001
0000
,
1000
0100
0010
0001
0100
1000
0001
0000
0010
0001
1000
0100
0010
0001
1000
0000
,
1010
0000
0000
0000
0001
0000
0100
0001
0100
0010
1000
0100
0001
0010
1000
0000
,
1000
0100
0010
0001
0010
1000
0001
0000
0010
0100
1000
0001
0010
0100
1000
0000
,
0011
0000
0000
0000
0001
0000
1000
0001
0100
0010
1000
0100
0001
1000
0001
0000
,
1000
0100
0010
0100
0010
1000
0001
0000
0010
0001
1000
0100
0010
1000
0010
0000
,
0101
0000
0000
0000
2020
0000
3030
0000
0100
0010
0001
1000
0100
0010
0100
0000
,
0001
0010
0001
0100
1000
0010
0001
0000
0010
0001
1000
0100
0001
0010
0100
0000
,
1010
0000
0000
0000
0000
0000
0000
0000
0001
0000
0000
0000
1000
0000
0001
0000
0010
0000
0100
0000
0001
0000
0010
0000
0000
0000
0000
0000
0000
0000
1000
0001
,
1000
0000
0000
0000
0000
0000
1000
0001
1000
0001
1000
0001
1000
0000
0000
0000
0001
0000
0010
0000
0001
0000
1000
0000
0010
0000
0100
0000
0001
0000
0000
0000
,
1100
0000
0000
0000
0001
0000
0001
1010
0000
0100
1000
0100
0001
1000
0010
0000
,
0001
1000
0010
0001
0100
0010
0001
0000
0100
1000
0001
0100
1000
0010
0100
0000
,
0110
0000
0000
0000
0001
0000
1000
0010
0100
1000
0100
0001
0000
0100
1000
0000
,
0100
0010
1000
0001
1000
0100
0010
0000
0001
0100
1000
0010
0001
1000
0010
0000
,
1001
0000
0000
0000
0100
0010
1000
0000
0000
0000
0000
0000
0020
0000
0000
0000
,
0000
0000
0100
0100
1000
0000
0000
0000
1030
0000
0000
0000
0011
0000
0000
0000
,
1100
0000
0000
0000
0100
0010
1000
0000
0020
0000
0030
0000
0002
0000
0000
0000
,
0000
0000
0010
0010
1000
0000
0000
0000
1000
0003
0000
0000
0011
0000
0000
0000
,
1010
0000
0000
0000
0100
0010
1000
0000
0000
0000
0000
0000
0002
0000
0100
0000
,
0000
0000
0100
0010
1000
0000
0000
0000
1003
0000
0000
0000
0101
0000
0000
0000
,
1001
0000
0000
0000
0100
0000
0001
1000
0010
1000
0100
1000
0001
0010
0100
0000
,
0001
0100
1000
0010
0001
1000
0100
0000
0001
0100
1000
0010
1000
0001
0100
0000
,
1010
0000
0000
0000
0100
0000
0001
0100
0001
0010
0100
1000
0100
0001
0010
0000
,
1000
0010
0001
0100
1000
0001
0010
0000
0001
0100
1000
0010
0100
0010
0001
0000
,
1001
0000
0000
0100
0020
0030
0001
2000
3000
0010
0002
0000
0000
0000
0000
0003
,
0100
0010
0001
1000
0010
0100
0001
0000
0010
0100
0001
0010
0100
1000
0010
0000
,
0011
0000
0000
0000
0001
0000
1000
0001
0100
0010
1000
0100
0001
0010
0001
0000
,
1000
0100
0010
1000
0100
1000
0001
1000
0010
0100
1000
0100
0010
0100
0010
0000
,
1100
0000
0000
0000
0001
0000
1000
0001
0100
0010
1000
0100
0001
0010
0001
0000
,
1000
0100
0010
1000
0100
1000
0001
0000
0010
0100
1000
0001
1000
0010
0100
0000
,
0011
0000
0000
0000
0010
0000
1000
0001
0100
0010
1000
0100
1000
0001
0010
0000
,
1000
0100
0010
0001
0100
1000
0001
0000
0010
0001
1000
0100
0010
1000
0010
0000
,
1100
0000
0000
0000
0001
0000
0100
0001
0100
0010
0001
0100
0001
1000
0001
0000
,
1000
0100
0010
0001
0100
1000
0001
0000
0010
0001
1000
0100
0010
0001
0010
0000
,
0110
0000
0000
0000
0001
0000
1000
0001
0100
0010
1000
0100
0001
1000
0001
0000
,
1000
0100
0010
0001
0100
1000
0001
0000
0010
0001
1000
0100
0010
0001
1000
0000
,
1100
0000
0000
0000
0001
0000
0100
0001
0100
0010
1000
0100
0001
0010
1000
0000
,
1000
0100
0010
0001
0010
1000
0001
0000
0010
0100
1000
0001
0010
0100
1000
0000
,
0110
0000
0000
0000
0001
0000
1000
0001
0100
0010
1000
0100
0001
1000
0001
0000
,
1000
0100
0010
0100
0010
1000
0001
0000
0000
0000
0000
0000
0000
0000
0000
0000
,
1010
0000
0000
0100
0011
0000
0000
0000
1001
0000
0000
0000
0110
0000
0000
0101
,
0000
0000
1010
0000
1100
0000
0000
0000
1100
0000
0110
0000
0011
0000
0000
1010
,
0000
0000
0000
0000
1001
0000
0000
0000
0101
0000
0000
0000
0110
0000
0000
0001
,
0010
0000
1000
0100
0001
0000
0000
0110
0000
0000
1100
0000
0110
0000
0100
0010
,
1000
0000
0000
0000
0000
0000
0100
0000
0010
0000
0001
0000
0010
0000
0000
0000
0000
0000
1000
0000
0000
0000
0000
0000
1000
0000
0000
0100
0000
0000
0010
0000
0000
1000
0000
0000
0000
0000
0000
0000
0000
0000
1000
0000
0000
0000
0000
0000
,
1000
0000
0100
0001
0010
0100
0001
0000
1100
0000
0110
0000
0011
0000
0000
1010
,
0000
0000
0101
0000
1001
0000
0000
1010
0000
0000
0101
0000
1001
0000
0100
0010
,
1000
0001
0010
0100
0000
1010
0000
0011
0000
0110
0000
0000
1001
0000
0000
0000
,
1001
0000
0000
0000
0100
0010
1000
0000
0000
0000
0000
0000
0020
0000
0000
0000
,
0000
0000
0100
0100
1000
0000
0000
0000
1030
0000
0000
0000
0011
0000
0000
0000
,
1100
0000
0000
0000
0100
0010
1000
0000
0020
0000
0030
0000
0002
0000
0000
0000
,
0000
0000
0010
0010
1000
0000
0000
0000
1000
0003
0000
0000
0011
0000
0000
0000
,
1010
0000
0000
0000
0100
0010
1000
0000
0200
0000
0300
0000
0020
0000
0030
0000
,
0001
1000
0100
0010
1000
0000
0000
0000
1020
0000
0000
0030
0001
0000
0100
0000
,
1001
0000
0000
0000
0100
0010
1000
0000
0000
0000
0000
0000
0020
0000
0100
0000
,
0000
0000
0100
0100
1000
0000
0000
0000
1030
0000
0000
0000
0011
0000
0000
0000
,
0000
0200
0300
0000
2000
3000
0000
0002
0003
0000
0200
0000
0000
0000
0000
0000
,
0000
0300
0000
0000
0001
0010
1000
0100
0000
0000
0000
0000
0000
0000
0000
0000
,
0010
1000
0000
0000
0000
0000
0001
0100
0000
0000
0000
0000
0000
0000
0000
0000
,
0010
0100
0000
0000
0000
0000
0000
0000
0001
0010
0100
0000
0000
0000
0000
0000
,
0000
0200
0300
0000
2000
3000
0000
0002
0003
0000
0200
0000
0000
0000
0000
0000
,
0000
0300
0000
0000
0001
0010
1000
0100
0000
0000
0000
0000
0000
0000
0000
0000
,
0010
1000
0000
0000
0000
0000
0001
0100
0000
0000
0000
0000
0000
0000
0000
0000
,
0010
0100
0000
0000
0000
0000
0000
0000
0001
0010
0100
0000
0000
0000
0000
0000
,
0000
0000
0000
0000
1000
0000
0100
0001
0100
0010
1000
0001
1000
0010
0100
0000
,
1000
0010
0100
1000
0100
0010
0001
0000
0010
0100
1000
0001
0010
0100
0010
0000
,
1001
0000
0000
0000
1000
0000
0100
0001
0100
0010
1000
0001
1000
0010
0100
0000
,
1000
0010
0100
1000
0100
0010
0001
0000
0010
0100
1000
0001
0010
0100
0010
0000
,
0000
0000
0000
0000
1000
0000
0100
0001
0100
0010
1000
0001
1000
0010
0100
0000
,
1000
0010
0100
1000
0100
0010
0001
0000
0010
0100
1000
0001
0010
0100
0010
0000
,
1001
0000
0000
0000
1000
0000
0100
0001
0100
0010
1000
0001
1000
0010
0100
0000
,
1000
0010
0100
1000
0100
0010
0001
0000
1100
0000
0000
0000
0011
0000
0000
0000
,
1000
0000
0000
1000
0100
0010
0001
0000
0000
0010
0000
0000
1000
0010
0100
0001
0000
0000
0100
0010
0001
0010
0000
0000
,
1000
0000
0000
0001
0010
0100
1000
0000
0000
0010
0000
0000
0001
0100
0010
1000
0000
0000
0100
0000
0000
0010
0100
0001
,
1000
0000
0000
1000
0100
0010
0001
0000
0000
0010
0000
0000
1000
0010
0100
0001
0000
0000
0100
0010
0001
0010
0000
0000
,
1000
0000
0000
0001
0010
0100
1000
0000
0000
0000
0000
0000
1100
0000
0000
0000
0000
0000
0011
0000
0000
0000
0000
0000
,
1000
0000
0000
1000
0100
0010
0001
0000
0000
0010
0000
0000
1000
0010
0100
0001
0000
0000
0100
0010
0001
0010
0000
0000
,
1000
0000
0000
0001
0010
0100
1000
0000
0000
0010
0000
0000
0001
0100
0010
1000
0000
0000
0100
0000
0000
0010
0100
0001
,
1000
0000
0000
1000
0100
0010
0001
0000
0000
0010
0000
0000
1000
0010
0100
0001
0000
0000
0100
0010
0001
0010
0000
0000
,
1000
0000
0000
0001
0010
0100
1000
0000
0000
0000
0000
0000
1100
0000
0000
0000
0000
0000
0022
0000
0000
0000
0000
0000
,
0000
0000
0000
0000
0000
0000
0000
0033
0000
0000
0000
0000
0000
0000
0000
0000
0000
0000
0000
0000
0000
0000
0000
0000
;

//---------------dance-single - Copied from Copied f----------------
#NOTES:
     dance-single:
     Copied from Copied f:
     Hard:
     7:
     0.353,0.579,0.376,0.226,0.307,462.000,93.000,56.000,0.000,0.000:
0000
0000
0000
0000
,
0000
0000
0000
0000
,
1100
0110
0011
1001
,
0022
0000
0033
1000
0202
0000
0000
0303
,
1001
0000
0202
0000
,
0303
0000
0000
0000
0001
0010
0100
1000
0000
0000
0000
0000
0000
0000
0000
0000
,
0010
1000
0000
0000
0000
0000
0001
0100
0000
0000
0000
0000
0000
0000
0000
0000
,
0010
0100
0000
0000
0000
0000
0000
0000
0001
0010
0100
0000
0000
0000
0000
0000
,
1010
0000
2200
0000
,
3300
0000
0000
0000
0001
0100
0010
1000
0000
0000
0000
0000
0000
0000
0000
0000
,
1000
0001
0000
0000
0000
0000
0010
1000
0000
0000
0000
0000
0000
0000
0000
0000
,
0100
0001
0000
0000
0000
0000
0000
0000
0001
0010
0001
0000
0000
0000
0000
0000
,
0010
0000
0000
0100
0020
0030
0001
2000
3000
0010
0002
0000
0000
0000
0000
0000
,
0000
0000
0003
0000
0010
1000
0100
0001
0000
0000
0000
0000
0000
0000
0000
0000
,
0010
0100
0000
0000
0000
0000
0100
0010
0000
0000
0000
0000
0000
0000
0000
0000
,
0010
0001
0000
0000
0000
0000
0000
0000
0001
0100
0010
0000
0000
0000
0000
0000
,
1001
0000
2002
0000
,
3003
0000
0000
0000
0001
0010
0100
1000
0000
0000
0000
0000
0000
0000
0000
0000
,
0010
1000
0000
0000
0000
0000
0001
0100
0000
0000
0000
0000
0000
0000
0000
0000
,
0010
0100
0000
0000
0000
0000
0000
0000
0001
1000
0100
0000
0000
0000
0000
0000
,
1010
0000
2020
0000
,
3030
0000
0000
0000
0100
0010
0100
0010
0000
0000
0000
0000
0000
0000
0000
0000
,
0010
1000
0000
0000
0000
0000
0001
1000
0000
0000
0000
0000
0000
0000
0000
0000
,
0100
0010
0000
0000
0000
0000
0000
0000
0010
0100
0010
0000
0000
0000
0000
0000
,
1001
0000
0022
0000
,
0033
0000
0000
0000
0001
1000
0001
1000
0000
0000
0000
0000
0000
0000
0000
0000
,
0010
0100
0000
0000
0000
0000
0001
0100
0000
0000
0000
0000
0000
0000
0000
0000
,
1000
0010
0000
0000
0000
0000
0000
0000
1000
0100
0010
0000
0000
0000
0000
0000
,
1001
0000
0202
0000
,
0303
0000
0000
0000
0001
0010
0100
1000
0000
0000
0000
0000
0000
0000
0000
0000
,
0010
1000
0000
0000
0000
0000
0001
0100
0000
0000
0000
0000
0000
0000
0000
0000
,
0010
0100
0000
0000
0000
0000
0000
0000
0001
0010
0100
0000
0000
0000
0000
0000
,
0110
0000
0202
0000
,
0303
0000
0000
0000
1000
0001
0010
0100
0000
0000
0000
0000
0000
0000
0000
0000
,
0010
0100
0000
0000
0000
0000
0100
0001
0000
0000
0000
0000
0000
0000
0000
0000
,
0001
0100
0000
0000
0000
0000
0000
0000
1000
0010
0100
0000
0000
0000
0000
0000
,
0000
0000
0100
1100
0000
0000
0020
0000
,
0000
0100
1000
0000
1030
0000
0011
0000
,
1100
0000
0100
1100
0020
0030
0002
0000
,
0000
0000
0010
0000
1000
0000
0000
0000
1000
0003
0000
0000
0011
0000
0000
0000
,
1010
0000
0001
1100
0000
0000
0002
0100
,
0000
0100
1000
0000
1003
0000
0101
0000
,
1001
0000
0220
0000
,
0330
0000
0000
0000
1000
0001
0010
0001
0000
0000
0000
0000
0000
0000
0000
0000
,
0010
1000
0000
0000
0000
0000
0010
0100
0000
0000
0000
0000
0000
0000
0000
0000
,
0010
0001
0000
0000
0000
0000
0000
0000
0001
0010
0001
0000
0000
0000
0000
0000
,
0000
2000
3000
0000
0020
0030
0000
0002
0003
0000
0020
0000
0000
0000
0000
0000
,
0000
0030
0000
0000
1100
0110
0011
0000
,
1000
0001
0000
0000
0000
0000
0001
0010
0000
0000
0000
0000
0000
0000
0000
0000
,
0001
0100
0000
0000
0000
0000
0000
0000
0001
0100
0010
0000
0000
0000
0000
0000
,
0110
0000
2002
0000
,
3003
0000
0000
0000
0001
0010
0001
1000
0000
0000
0000
0000
0000
0000
0000
0000
,
0001
1000
0000
0000
0000
0000
0001
0100
0000
0000
0000
0000
0000
0000
0000
0000
,
0001
0010
0000
0000
0000
0000
0000
0000
0001
1000
0100
0000
0000
0000
0000
0000
,
1010
0000
0202
0000
,
0303
0000
0000
0000
0001
0100
0010
1000
0000
0000
0000
0000
0000
0000
0000
0000
,
1000
0001
0000
0000
0000
0000
0001
1000
0000
0000
0000
0000
0000
0000
0000
0000
,
0100
0010
0000
0000
0000
0000
0000
0000
0001
1000
0001
0000
0000
0000
0000
0000
,
1001
0000
0000
0000
,
0000
0000
0000
0000
,
1001
0000
0000
0000
,
0000
0000
0000
0000
,
1010
0000
0000
0000
0011
0000
0000
0000
1001
0000
0000
0000
0110
0000
0000
0101
,
0000
0000
1010
0000
1100
0000
0000
0000
1100
0000
0110
0000
0011
0000
0000
1010
,
0000
0000
0000
0000
1001
0000
0000
0000
0101
0000
0000
0000
0110
0000
0000
0001
,
0010
0000
1000
0100
0001
0000
0000
0110
0000
0000
1100
0000
0110
0000
0100
0010
,
1000
0000
0100
0000
0010
0000
1000
0000
1000
0000
0000
1000
0000
0000
1000
0000
,
1000
0000
0100
0000
0010
0000
0001
0000
1100
0000
0110
0000
0011
0000
0000
1010
,
0000
0000
0000
0000
1001
0000
0000
1010
0000
0000
0000
0000
1001
0000
0100
0000
,
1000
0001
0010
0100
0000
1010
0000
0011
0000
0110
0000
0000
1001
0000
0000
0000
,
1001
0000
0000
1010
0000
0000
0020
0000
,
0000
0100
1000
0000
1030
0000
0011
0000
,
1100
0000
0100
1100
0020
0030
0002
0000
,
0000
0000
0010
0000
1000
0000
0000
0000
1000
0003
0000
0000
0011
0000
0000
0000
,
1010
0000
0010
1010
0200
0300
0020
0030
,
0001
1000
0100
0010
1000
0000
0000
0000
1020
0000
0030
0000
0001
0000
0100
0000
,
1001
0000
0100
1100
0000
0000
0020
0100
,
0000
0100
1000
0000
1030
0000
0011
0000
,
0000
0200
0300
0000
2000
3000
0000
0002
0003
0000
0200
0000
0000
0000
0000
0000
,
0000
0300
0000
0000
0001
0010
1000
0100
0000
0000
0000
0000
0000
0000
0000
0000
,
0010
1000
0000
0000
0000
0000
0001
0100
0000
0000
0000
0000
0000
0000
0000
0000
,
0010
0100
0000
0000
0000
0000
0000
0000
0001
0010
0100
0000
0000
0000
0000
0000
,
0000
0200
0300
0000
2000
3000
0000
0002
0003
0000
0200
0000
0000
0000
0000
0000
,
0000
0300
0000
0000
0001
0010
1000
0100
0000
0000
0000
0000
0000
0000
0000
0000
,
0010
1000
0000
0000
0000
0000
0001
0100
0000
0000
0000
0000
0000
0000
0000
0000
,
0010
0100
0000
0000
0000
0000
0000
0000
0001
0010
0100
0000
0000
0000
0000
0000
,
1001
0000
0202
0000
,
0303
0000
0000
0000
0001
0010
0100
1000
0000
0000
0000
0000
0000
0000
0000
0000
,
0010
1000
0000
0000
0000
0000
0001
0100
0000
0000
0000
0000
0000
0000
0000
0000
,
0010
0100
0000
0000
0000
0000
0000
0000
0001
0010
0100
0000
0000
0000
0000
0000
,
1010
0000
2200
0000
,
3300
0000
0000
0000
0001
0100
0010
1000
0000
0000
0000
0000
0000
0000
0000
0000
,
1000
0001
0000
0000
0000
0000
0010
1000
0000
0000
0000
0000
0000
0000
0000
0000
,
0100
0001
0000
0000
0000
0000
0000
0000
1100
0000
0000
0000
0011
0000
0000
0000
,
1001
0000
0000
0000
1000
0000
0100
0001
0100
0010
1000
0001
1000
0010
0100
0000
,
1000
0010
0100
1000
0100
0010
0001
0000
0010
0100
1000
0001
0010
0100
0010
0000
,
1001
0000
0000
0000
1000
0000
0100
0001
0100
0010
1000
0001
1000
0010
0100
0000
,
1000
0010
0100
1000
0100
0010
0001
0000
1100
0000
0000
0000
0011
0000
0000
0000
,
1001
0000
0000
0000
1000
0000
0100
0001
0100
0010
1000
0001
1000
0010
0100
0000
,
1000
0010
0100
1000
0100
0010
0001
0000
0010
0100
1000
0001
0010
0100
0010
0000
,
1001
0000
0000
0000
1000
0000
0100
0001
0100
0010
1000
0001
1000
0010
0100
0000
,
1000
0010
0100
1000
0100
0010
0001
0000
1100
0000
0000
0000
0022
0000
0000
0000
,
0000
0000
0000
0033
0000
0000
0000
0000
;

//---------------dance-single - Copied from Copied f----------------
#NOTES:
     dance-single:
     Copied from Copied f:
     Medium:
     5:
     0.326,0.538,0.473,0.178,0.246,404.000,117.000,44.000,0.000,0.000:
0000
0000
0000
0000
,
0000
0000
0000
0000
,
1100
0110
0011
1001
,
0022
0000
0033
1000
0202
0000
0000
0303
,
1001
0000
0200
0000
,
0300
0000
0000
0000
0001
0010
0100
1000
0000
0000
0000
0000
0000
0000
0000
0000
,
0010
1000
0000
0000
0000
0000
0001
0100
0000
0000
0000
0000
0000
0000
0000
0000
,
0010
0100
0000
0000
0000
0000
0000
0000
0001
0010
0100
0000
0000
0000
0000
0000
,
1010
0000
0200
0000
,
0300
0000
0000
0000
0001
0100
0010
1000
0000
0000
0000
0000
0000
0000
0000
0000
,
1000
0001
0000
0000
0000
0000
0001
1000
0000
0000
0000
0000
0000
0000
0000
0000
,
0100
0010
0000
0000
0000
0000
0000
0000
0001
1000
0001
0000
0000
0000
0000
0000
,
0010
0000
0000
0000
0020
0030
0000
2000
3000
0000
0002
0000
0000
0000
0000
0000
,
0000
0000
0003
0000
0010
0100
1000
0001
0000
0000
0000
0000
0000
0000
0000
0000
,
0010
0100
0000
0000
0000
0000
0100
0010
0000
0000
0000
0000
0000
0000
0000
0000
,
0010
0001
0000
0000
0000
0000
0000
0000
0001
0100
0010
0000
0000
0000
0000
0000
,
1001
0000
0200
0000
,
0300
0000
0000
0000
0001
0100
0010
1000
0000
0000
0000
0000
0000
0000
0000
0000
,
0010
1000
0000
0000
0000
0000
0001
0100
0000
0000
0000
0000
0000
0000
0000
0000
,
0010
0100
0000
0000
0000
0000
0000
0000
0001
0010
0100
0000
0000
0000
0000
0000
,
1001
0000
0200
0000
,
0300
0000
0000
0000
0001
0010
0100
1000
0000
0000
0000
0000
0000
0000
0000
0000
,
0010
1000
0000
0000
0000
0000
0001
0100
0000
0000
0000
0000
0000
0000
0000
0000
,
0010
0100
0000
0000
0000
0000
0000
0000
0001
0010
0100
0000
0000
0000
0000
0000
,
1001
0000
0200
0000
,
0300
0000
0000
0000
0001
0100
0010
1000
0000
0000
0000
0000
0000
0000
0000
0000
,
0010
1000
0000
0000
0000
0000
0001
0100
0000
0000
0000
0000
0000
0000
0000
0000
,
0010
0100
0000
0000
0000
0000
0000
0000
0001
0010
0100
0000
0000
0000
0000
0000
,
1001
0000
0200
0000
,
0300
0000
0000
0000
0001
0010
0100
1000
0000
0000
0000
0000
0000
0000
0000
0000
,
0010
1000
0000
0000
0000
0000
0001
0100
0000
0000
0000
0000
0000
0000
0000
0000
,
0010
0100
0000
0000
0000
0000
0000
0000
0001
0010
0100
0000
0000
0000
0000
0000
,
1001
0000
0200
0000
,
0300
0000
0000
0000
0001
0100
0010
1000
0000
0000
0000
0000
0000
0000
0000
0000
,
0010
1000
0000
0000
0000
0000
0001
0100
0000
0000
0000
0000
0000
0000
0000
0000
,
0010
0100
0000
0000
0000
0000
0000
0000
0001
0010
0100
0000
0000
0000
0000
0000
,
0000
0000
0000
1100
0000
0000
0020
0000
,
0000
1000
1030
0011
,
1100
0000
0000
1010
0200
0300
0002
0000
,
0000
0000
0000
0000
1000
0000
0000
0000
1000
0003
0000
0000
0011
0000
0000
0000
,
1010
0000
0000
1100
0000
0000
0002
0100
,
0000
0100
1000
0000
1003
0000
0101
0000
,
1001
0000
0200
0000
,
0300
0000
0000
0000
0001
0010
0100
1000
0000
0000
0000
0000
0000
0000
0000
0000
,
0010
1000
0000
0000
0000
0000
0001
0100
0000
0000
0000
0000
0000
0000
0000
0000
,
0010
0100
0000
0000
0000
0000
0000
0000
0001
0010
0100
0000
0000
0000
0000
0000
,
1001
2000
3000
0000
0020
0030
0000
0002
0003
0000
0020
0000
0000
0000
0000
0000
,
0000
0030
0000
0000
1100
0110
0011
0000
,
1000
0001
0000
0000
0000
0000
0001
1000
0000
0000
0000
0000
0000
0000
0000
0000
,
0100
0010
0000
0000
0000
0000
0000
0000
0001
1000
0001
0000
0000
0000
0000
0000
,
1001
0000
0200
0000
,
0300
0000
0000
0000
0001
0010
0100
1000
0000
0000
0000
0000
0000
0000
0000
0000
,
0010
1000
0000
0000
0000
0000
0001
0100
0000
0000
0000
0000
0000
0000
0000
0000
,
0010
0100
0000
0000
0000
0000
0000
0000
0001
0010
0100
0000
0000
0000
0000
0000
,
1001
0000
0200
0000
,
0300
0000
0000
0000
0001
0100
0010
1000
0000
0000
0000
0000
0000
0000
0000
0000
,
1000
0001
0000
0000
0000
0000
0001
1000
0000
0000
0000
0000
0000
0000
0000
0000
,
0100
0010
0000
0000
0000
0000
0000
0000
0001
1000
0001
0000
0000
0000
0000
0000
,
1001
0000
0000
0000
,
0000
0000
0000
0000
,
1001
0000
0000
0000
,
0000
0000
0000
0000
,
1010
0000
0000
0000
0011
0000
0000
0000
1001
0000
0000
0000
0110
0000
0000
0101
,
0000
0000
1010
0000
1100
0000
0000
0000
1100
0000
0110
0000
0011
0000
0000
1010
,
0000
0000
0000
0000
1001
0000
0000
0000
0101
0000
0000
0000
0110
0000
0000
0001
,
0000
0000
1000
0000
0001
0000
0000
0010
0000
0000
1000
0000
0010
0000
0100
0000
,
1000
0000
0100
0000
0010
0000
1000
0000
1000
0000
0000
1000
0000
0000
1000
0000
,
1000
0000
0100
0000
0010
0000
0001
0000
1100
0000
0110
0000
0011
0000
0000
1010
,
0000
0000
0000
0000
1001
0000
0000
1010
0000
0000
0000
0000
1001
0000
0000
0000
,
1000
0000
0000
0000
0000
0110
0000
1001
0000
0110
0000
0000
1001
0000
0000
0000
,
1001
0000
0000
1010
0000
0000
0020
0000
,
0000
0100
1000
0000
1030
0000
0011
0000
,
1100
0000
0100
1100
0020
0030
0002
0000
,
0000
0000
0010
0000
1000
0000
0000
0000
1000
0003
0000
0000
0011
0000
0000
0000
,
1010
0000
0010
1010
0200
0300
0020
0030
,
0001
1000
0100
0010
1000
0000
0000
0000
1020
0000
0030
0000
0001
0000
0100
0000
,
1001
0000
0100
1100
0000
0000
0020
0100
,
0000
0100
1000
0000
1030
0000
0011
0000
,
0000
0200
0300
0000
2000
3000
0000
0002
0003
0000
0200
0000
0000
0000
0000
0000
,
0000
0300
0000
0000
0001
0010
1000
0100
0000
0000
0000
0000
0000
0000
0000
0000
,
0010
1000
0000
0000
0000
0000
0001
0100
0000
0000
0000
0000
0000
0000
0000
0000
,
0010
0100
0000
0000
0000
0000
0000
0000
0001
0010
0100
0000
0000
0000
0000
0000
,
0000
0200
0300
0000
2000
3000
0000
0002
0003
0000
0200
0000
0000
0000
0000
0000
,
0000
0300
0000
0000
0001
0010
1000
0100
0000
0000
0000
0000
0000
0000
0000
0000
,
0010
1000
0000
0000
0000
0000
0001
0100
0000
0000
0000
0000
0000
0000
0000
0000
,
0010
0100
0000
0000
0000
0000
0000
0000
0001
0010
0100
0000
0000
0000
0000
0000
,
1001
0000
0200
0000
,
0300
0000
0000
0000
0001
0010
0100
1000
0000
0000
0000
0000
0000
0000
0000
0000
,
0010
1000
0000
0000
0000
0000
0001
0100
0000
0000
0000
0000
0000
0000
0000
0000
,
0010
0100
0000
0000
0000
0000
0000
0000
0001
0010
0100
0000
0000
0000
0000
0000
,
1001
0000
0200
0000
,
0300
0000
0000
0000
0001
0010
0100
1000
0000
0000
0000
0000
0000
0000
0000
0000
,
0010
1000
0000
0000
0000
0000
0001
0100
0000
0000
0000
0000
0000
0000
0000
0000
,
0010
0100
0000
0000
0000
0000
0000
0000
1100
0000
0000
0000
0011
0000
0000
0000
,
1001
0000
0000
0000
1010
0000
0101
0000
1100
0000
0000
1010
0000
0000
1001
0000
,
1001
0000
0000
0101
0000
0000
0011
0000
0011
0000
0000
0101
0000
0000
1001
0000
,
1001
0000
0000
0000
1010
0000
0101
0000
1100
0000
0000
1010
0000
0000
1001
0000
,
1001
0000
0000
0101
0000
0000
1100
0000
1100
0000
0000
0000
0011
0000
0000
0000
,
1001
0000
0000
0000
1010
0000
0101
0000
1100
0000
0000
1010
0000
0000
1001
0000
,
1001
0000
0000
0101
0000
0000
0011
0000
0011
0000
0000
0101
0000
0000
1001
0000
,
1001
0000
0000
0000
1010
0000
0101
0000
1100
0000
0000
1010
0000
0000
1001
0000
,
1001
0000
0000
0101
0000
0000
1100
0000
1100
0000
0000
0000
0022
0000
0000
0000
,
0000
0000
0000
0033
0000
0000
0000
0000
;
