#TITLE:Dracula's Castle;
#SUBTITLE:(Castlevania-SOTN);
#ARTIST:KONAMI;
#TITLETRANSLIT:;
#SUBTITLETRANSLIT:;
#ARTISTTRANSLIT:;
#CREDIT:;
#BANNER:Castle-BN.png;
#BACKGROUND:Castle-BG.png;
#LYRICSPATH:;
#CDTITLE:;
#MUSIC:Castle.mp3;
#OFFSET:-0.361;
#SAMPLESTART:51.421;
#SAMPLELENGTH:14.420;
#SELECTABLE:YES;
#DISPLAYBPM:136.000;
#BPMS:0.000=136.083,116.000=136.203,188.000=132.063;
#STOPS:232.000=1.260
;
#BGCHANGES:;
// cache tags:
#FIRSTBEAT:8.000;
#LASTBEAT:233.000;
#SONGFILENAME:Songs/new cc/Dracula's Castle/Castle.sm;
#HASMUSIC:1;
#HASBANNER:1;
#MUSICLENGTH:114.889;
// end cache tags

//---------------dance-single - ----------------
#NOTES:
     dance-single:
     :
     Beginner:
     1:
     0.063,0.101,0.017,0.009,0.000,48.000,2.000,1.000,0.000,0.000:
0000
0000
0000
0000
,
0000
0000
0000
0000
,
0000
0000
0000
0000
,
0000
0000
0000
0000
,
0000
0000
0000
0000
,
0000
0000
0000
0000
,
0000
0000
0000
0000
,
0000
0000
0000
0000
,
0000
0000
0000
0000
,
0000
0000
0000
0000
,
0000
0000
0000
0000
,
0000
0000
0000
0000
,
1000
0000
0000
0000
,
0001
0000
0000
0000
,
0100
0000
0000
0000
,
0010
0000
0000
0000
,
1000
0000
0000
0000
,
1000
0000
0000
0000
,
0001
0000
0000
0000
,
1000
0000
1000
0000
,
0001
0000
0000
0000
,
1000
0000
0000
0000
,
0100
0000
0000
0000
,
0010
0000
0000
0000
,
0001
0000
0000
0000
,
1000
0000
0000
0000
,
0010
0000
0000
0000
,
0100
0000
0000
0000
,
0010
0000
0000
0000
,
1001
0000
0000
0000
,
0100
0000
0000
0000
,
0010
0000
0000
0000
,
1000
0000
0000
0000
,
0001
0000
0000
0000
,
0100
0000
0000
0000
,
0010
0000
0000
0000
,
1000
0000
0000
0000
,
0001
0000
0000
0000
,
0100
0000
0000
0000
,
0010
0000
0000
0000
,
0100
0000
0000
0000
,
0001
0000
0000
0000
,
1000
0000
0000
0000
,
0010
0000
0000
0000
,
1000
0000
0000
0000
,
0020
0000
0000
0000
,
0000
0000
0000
0030
,
1000
0000
0000
0000
,
0001
0000
0000
0000
,
0100
0000
0000
0000
,
0010
0000
0000
0000
,
1000
0000
0000
0000
,
0001
0000
0000
0000
,
0100
0000
0000
0000
,
0010
0000
0000
0000
,
1000
0000
0000
0000
,
0001
0000
0000
0000
,
0100
0000
0000
0000
,
0010
0110
0000
0000
;

//---------------dance-single - ----------------
#NOTES:
     dance-single:
     :
     Easy:
     2:
     0.162,0.203,0.026,0.087,0.000,117.000,3.000,10.000,0.000,0.000:
0000
0000
0000
0000
,
0000
0000
0000
0000
,
0000
0000
0000
0000
,
0000
0000
0000
0000
,
0001
0000
0000
0000
,
0100
0000
0000
0000
,
0020
0000
0030
0000
,
0200
0000
0300
0000
,
0010
0000
0000
0000
,
1000
0000
0000
0000
,
0001
0000
0000
0000
,
0100
0000
0100
0000
,
0010
0010
0010
0000
,
1000
1000
1000
0000
,
0001
0000
0100
0000
,
0020
0000
0030
0000
,
0001
1000
1000
0000
,
0100
0010
0010
0000
,
0001
0000
0100
0010
,
0200
0000
0300
0000
,
0010
0000
1000
0000
,
0100
0010
0100
0000
,
0001
0000
1000
0000
,
0100
0010
0001
0000
,
0100
0000
0010
0000
,
1000
0100
1000
0000
,
0010
0000
0100
0000
,
0001
0000
0010
0000
,
0100
0000
1000
1000
,
1000
0000
0100
0000
,
0010
0001
0010
0000
,
0100
0000
0100
0000
,
1000
0010
0100
0000
,
0001
0000
0001
0000
,
1000
0100
1000
0000
,
0010
0000
0010
0000
,
0100
0001
0000
1000
,
0010
0000
0100
0000
,
2002
0000
3003
0000
,
0001
0000
0100
0000
,
0220
0000
0330
0000
,
0001
0000
1000
0000
,
0100
0000
0010
0000
,
0001
0000
0001
0000
,
1000
0000
1000
0000
,
0010
0010
0010
0000
,
1000
1000
1000
0000
,
0100
0000
0010
0000
,
0001
0000
0100
0000
,
0010
0000
1000
0000
,
0100
0000
0010
0000
,
0001
2000
0000
3000
,
0001
0001
0000
0000
,
0100
0002
0000
0003
,
0100
0000
0010
0000
,
1000
0001
0000
0010
,
0100
0010
0000
1000
,
0001
0100
0000
0010
,
1000
1001
0000
0000
;

//---------------dance-single - Copied from----------------
#NOTES:
     dance-single:
     Copied from:
     Medium:
     5:
     0.318,0.330,0.165,0.209,0.004,213.000,19.000,24.000,0.000,0.000:
0000
0000
0000
0000
,
0000
0000
0000
0000
,
0000
0000
0000
0000
,
0000
0000
0000
0000
,
1000
0100
0000
0010
,
0001
0100
0010
1000
,
0200
0300
0020
0030
,
0002
0003
0200
0300
,
0010
0000
1000
0000
0100
1000
0100
0000
,
0010
0000
0001
0000
0100
0001
0100
0000
,
0010
0000
1000
0000
0100
1000
0100
0000
,
0010
0000
0001
0000
0100
0100
0100
0100
,
0100
0010
2000
3000
,
0100
0010
0001
1000
,
0100
0000
0010
0001
0100
0000
0010
1000
,
0100
0000
0010
0000
0000
0001
0001
0001
,
1000
0000
0100
1000
0010
0000
0000
0000
,
0001
0000
1000
0100
0010
0000
0001
0000
,
1000
0000
0010
0100
0001
0000
0010
0100
,
1000
0000
0100
0000
0010
0000
0001
1000
,
0001
0000
0010
0000
0100
0000
1000
0010
,
0200
0310
2000
3100
,
0010
0001
1000
0100
,
2002
0000
0000
3003
,
0010
0000
1000
0100
1000
0000
0001
1000
,
0001
0000
0010
0100
0010
0000
0001
0000
,
2000
3100
0002
0013
,
0200
0010
0010
0310
,
0001
1001
0000
1100
,
1001
0000
0000
0000
0010
0000
1000
0100
,
0010
0000
0001
0000
1001
0000
0000
0100
,
0010
0000
0000
0010
0100
0000
0000
0100
,
0020
1030
0000
0110
,
0002
0000
0003
0000
0100
0000
0010
1000
,
0200
0000
0310
0000
1001
0000
0000
0010
,
0100
0000
0000
0100
0010
0000
0000
0010
,
0200
0000
0001
0301
,
1000
0000
0100
1000
0010
0000
0100
0001
,
0020
0000
0000
0130
,
1000
0000
1000
0100
1000
0000
0001
0010
,
0002
0000
0000
0013
,
0100
1100
0010
0011
,
1000
1001
0100
0101
,
1001
0000
1001
0000
,
0110
0000
0110
0000
,
2002
0000
0000
0000
,
0000
0000
0003
0000
0100
0100
3100
0000
,
0001
0100
0010
0010
,
1000
0001
0100
0010
,
1000
0100
0010
0100
,
0001
1000
0010
0100
,
0001
2000
0000
3000
,
0010
1000
0001
0100
,
0010
1000
0200
0000
0000
0000
0300
0000
,
0010
0001
1000
0100
,
1000
0000
1100
0000
0001
1000
0001
0000
,
0100
0000
0101
0000
0010
1000
0010
0000
,
0100
0000
0000
0000
0001
0000
0000
0000
1000
0000
0100
0000
0000
0010
0000
0000
,
2002
3003
0000
0000
;

//---------------dance-single - Copied from----------------
#NOTES:
     dance-single:
     Copied from:
     Hard:
     8:
     0.463,0.481,0.139,0.165,0.279,337.000,16.000,19.000,2.000,0.000:
0000
0000
0000
0000
,
0000
0000
0000
0000
,
2000
0000
0000
3000
,
0200
0000
0310
0001
,
0100
0020
0030
1000
,
0100
0010
0100
1000
,
0002
0003
0200
0300
,
0020
0030
2000
3000
,
0100
0000
0010
0000
0001
0010
0001
0000
,
0010
0000
0100
0000
1000
0100
1000
0000
,
0100
0000
0010
0000
0001
0100
0010
0000
,
1000
0000
0100
0000
0010
0010
0010
0010
,
0010
0000
0000
0000
0001
0000
0100
0001
0100
0000
0000
0000
1010
0000
0000
0000
,
1000
0000
0000
0000
0100
0000
0010
0001
0010
0000
0000
0100
0000
0000
1000
0000
,
0010
0000
0000
0100
0000
0000
0001
0000
0010
0000
0000
0100
0000
0000
1000
0000
,
0020
0000
0130
0000
0000
1000
1001
0001
,
1001
0000
0000
0000
1000
0000
0100
1000
0100
0000
0000
0000
0110
0000
0000
0000
,
0001
0000
0000
0000
0100
0000
0010
1000
0010
0000
0000
0100
0000
0000
0001
0000
,
0010
0000
0000
0100
0000
0000
1000
0000
0100
0000
0000
0010
0000
0000
0001
0000
,
0200
0000
0000
0000
0310
0000
0000
0000
1000
0000
0100
0000
0010
0001
0010
0001
,
0010
0000
0000
0000
0001
0000
1000
0100
1000
0000
0000
0100
0000
0000
0010
0000
,
0001
0100
0010
1000
0100
0000
0110
0000
,
0001
0000
0000
0010
0000
0000
0100
0000
1000
0000
0000
0100
0000
0000
0010
0000
,
0200
0000
0310
0000
0000
0100
0110
0010
,
0110
0000
0000
0100
0000
0000
1000
0000
0010
0000
0000
0100
0000
0000
0001
0000
,
0010
0000
0000
0100
0000
0000
1000
0000
0200
0000
0000
0000
0310
0000
0000
0000
,
0001
0000
0000
0010
0000
0000
0100
0000
0100
0000
0000
0010
0000
0000
0001
0000
,
0002
0000
0000
0000
0100
0000
0000
0000
1000
0000
0000
0000
0013
0000
0100
1000
,
0100
0000
0000
0000
0010
0000
0000
0000
0001
0000
1000
0000
0100
1000
0100
1000
,
0100
0000
0000
0000
0010
0000
0001
0010
0001
0000
0000
0010
0000
0000
0100
0000
,
1000
0000
0000
0000
1100
0000
0000
0000
0110
0000
0000
0000
0001
0000
0100
0010
,
1000
0000
0100
0000
0010
0000
0001
0010
0100
0000
1000
0000
0100
0000
1000
0010
,
1000
0100
0010
0000
0001
0001
0001
0000
,
1001
0000
0000
0000
1000
0000
0100
1000
0100
0000
0000
0010
0000
0000
0001
0000
,
0100
0000
0010
0000
1000
0000
0000
0000
1100
0000
0000
0000
0010
0000
0001
0010
,
0001
0000
0010
0000
0100
0000
1000
0100
1000
0000
0100
0000
0010
0000
0001
0010
,
0002
0000
0000
0000
1000
0000
0000
0000
0103
0000
0000
0000
0001
0100
0001
0100
,
0001
0000
0000
0010
0000
0000
0100
0000
1000
0000
0000
0010
0000
0000
0100
0000
,
0020
0100
1000
0031
,
0010
0000
0000
1000
0000
0000
0100
0000
0010
0000
0000
0001
0000
0000
0100
0000
,
0020
0001
1000
0130
,
0010
0000
0000
1000
0000
0000
0100
0000
0010
0000
0000
0001
0000
0000
0100
0000
,
0010
0000
0000
1000
0000
0000
0100
0000
1000
0000
0000
0010
0000
0000
0100
0000
,
0001
0000
0000
0000
0010
0000
0001
0010
0001
0000
0000
0000
0011
0000
0000
0000
,
1000
0000
0000
0000
0100
0000
1000
0100
1000
0000
0000
0000
1001
0000
0000
0000
,
1000
0100
1000
0001
1000
0100
1000
0001
,
0010
0001
0100
0001
1000
0100
0010
0000
,
0001
0000
0100
0000
0010
0000
1000
0000
0100
0000
0010
0001
0000
0010
0001
0000
,
0100
0000
0010
0000
1000
0000
0100
0000
0010
0000
0001
0010
0000
0000
0100
0000
,
1000
0000
0100
0000
1000
0000
0100
0000
0010
0000
0001
0100
0000
0001
0100
0000
,
0010
0000
1000
0000
0100
0000
0010
0000
0001
0000
0001
0100
0000
0000
0010
0000
,
1000
0100
0020
0000
0000
0000
0000
0000
,
0031
0000
0000
0000
1000
0000
0000
0000
0100
0000
0000
0010
0000
0000
0001
0000
,
0100
0010
2000
0000
0000
0000
0100
0000
,
3001
0101
1000
1100
,
0001
1000
0000
0000
1000
0100
0000
0000
0010
0001
0000
0100
0000
0010
1000
0000
,
0100
1000
0000
0000
0100
0010
0000
0000
0001
0010
0000
0010
0001
0000
1000
0000
,
0010
0000
0100
0000
0001
0000
0010
0000
0100
0000
1000
0000
0000
0010
0000
0000
,
2002
3003
0000
M00M
0000
0000
0000
0000
0000
0000
0000
0000
0000
0000
0000
0000
;

//---------------dance-single - ----------------
#NOTES:
     dance-single:
     :
     Challenge:
     9:
     0.652,0.658,0.783,0.279,0.309,402.000,90.000,32.000,13.000,26.000:
0000
0000
0000
0000
,
0000
0000
0000
0000
,
0010
1000
0100
1000
0010
1000
0100
1000
,
0010
0100
0001
0010
0001
0100
0001
0010
,
0002
1003
0100
0020
,
0032
0203
0310
1000
,
0200
0310
0002
1003
,
0020
0130
0002
1003
,
1000
0100
1000
0100
1000
0100
1000
0100
,
0010
0100
0010
0100
0010
0100
0010
0100
,
0010
0001
0010
0001
0010
0001
0010
0001
,
0100
0010
0100
0001
1001
1001
1001
1001
,
1001
0000
1000
0000
0100
0000
0010
0001
0010
0000
0100
0000
1100
0000
0000
0000
,
0100
0000
0010
0000
0001
0000
0100
0001
0100
0000
0010
0000
1000
0000
0100
0000
,
1000
0000
0000
1010
0000
0000
0100
0000
0101
0000
0000
1001
0000
0000
1100
0000
,
0220
1000
0001
1330
,
1100
0000
1000
0000
0100
0000
0010
0001
0010
0000
0100
0000
1100
0000
0000
0000
,
0100
0000
0010
0000
0001
0000
0100
0010
0100
0000
0010
0000
1000
0000
0100
0000
,
0011
0000
0000
0101
0000
0000
1001
0000
1100
0000
0000
0110
0000
0000
0011
0000
,
1001
0000
0100
0000
0010
0000
0000
0000
1000
0000
0100
0000
0010
0001
0010
0001
,
0010
0000
0100
0000
1000
0000
0100
1000
0100
0000
0010
0000
0001
0000
0100
0000
,
0010
1000
0100
0010
2002
0000
0010
3003
,
0011
0000
0000
0110
0000
0000
1100
0000
1001
0000
0000
0101
0000
0000
1010
0000
,
0220
0001
1000
0331
,
1100
0000
0000
0110
0000
0000
0011
0000
1001
0000
0000
0101
0000
0000
0110
0000
,
1010
0000
0000
1100
0000
0000
0110
0000
0220
0000
0000
0000
1001
0000
0330
0000
,
0001
0000
0000
0011
0000
0000
1000
0000
0100
0000
0000
1100
0000
0000
0010
0000
,
20M2
0M00
00M0
0000
0M10
0000
0MM0
0000
01M0
0000
0MM0
0000
3013
0000
0000
0000
,
0100
0000
0010
0000
1001
0000
0000
0000
1000
0001
0100
0001
1000
0001
1000
0001
,
0100
0001
0100
0000
0001
0010
0001
0000
0100
0001
0100
0000
0010
1000
0010
0000
,
0100
0001
0100
0000
0010
1000
0010
0000
1001
0000
0000
0000
1001
0000
1000
0100
,
0010
0000
0001
0000
0010
0000
0100
1000
0100
0000
0010
0000
0001
0000
0100
0010
,
0100
0001
0011
0000
0110
1100
1001
0000
,
1000
0100
1000
0000
0001
0010
0001
0000
0010
0100
0010
0000
0100
1000
0100
0000
,
0010
0001
0010
0000
0001
0100
0001
0000
1001
0000
0000
0000
1001
0000
0100
0010
,
1000
0000
0100
0000
0010
0000
0001
0010
0100
0000
1000
0000
0100
0000
0010
0001
,
0100
0000
0010
0000
0100
0000
0010
0000
0100
0010
0100
0010
0100
0010
0100
0010
,
0110
0000
0000
1010
0000
0000
0110
0000
0101
0000
0000
0011
0000
0000
0110
0000
,
2200
0001
0010
3311
,
0011
0000
0000
0110
0000
0000
1100
0000
0110
0000
0000
1100
0000
0000
0110
0000
,
0022
1000
0100
1133
,
1000
0000
0000
1100
0000
0000
0100
0000
0010
0000
0000
0011
0000
0000
0100
0000
,
0010
0000
0000
1100
0000
0000
0010
0000
0001
0000
0000
0110
0000
0000
1010
0000
,
1001
0000
0000
0000
0100
0000
0010
1000
0010
0000
0100
0000
0101
0000
0000
0000
,
0101
0000
1000
0000
0100
0000
0010
0001
0010
0000
0100
0000
1100
0000
0000
0000
,
0100
0100
0100
0100
0100
0100
0100
0100
,
0010
0010
0010
0010
0010
0010
0010
0000
,
0100
0000
1000
0000
0100
0000
1000
0000
0010
0000
0100
0001
0000
0001
0010
0000
,
0110
0000
0100
0000
1000
0000
0100
0000
0010
0000
0001
0100
0000
0000
0110
0000
,
0010
0000
1000
0000
0100
0000
1000
0000
0010
0000
0100
0001
0000
0001
0010
0000
,
0110
0000
0010
0000
0001
0000
0100
0000
0010
0000
0000
1010
0000
0000
0100
0000
,
0001
1000
2200
0000
0010
0000
0001
0000
,
3322
0000
0000
0000
1133
0000
0000
0000
1000
0000
0000
0100
0000
0000
0010
0000
,
0001
0100
0220
0000
1000
0000
0001
0000
,
1331
0000
0100
0000
0010
1000
0100
0000
,
0010
0011
0000
0000
0101
0000
0000
0000
0010
1010
0000
0100
0000
0001
1000
0000
,
0100
1100
0000
0000
0010
0011
0000
0000
0001
0100
0000
0100
0001
0000
0010
0000
,
0100
0000
1000
0000
0010
0000
0100
0000
0002
0000
0020
0000
0000
0200
0000
0000
,
2000
3333
MMMM
0000
0000
0000
0000
0000
0000
0000
0000
0000
0000
0000
0000
0000
;
