#TITLE:Tank;
#SUBTITLE:(Para Para Mix);
#ARTIST:菅野よう子 & the Seatbelts;
#TITLETRANSLIT:;
#SUBTITLETRANSLIT:;
#ARTISTTRANSLIT:Yoko Kanno & The Seatbelts;
#CREDIT:;
#BANNER:Cowboy Bebop - Tank [Para Para Mix].png;
#BACKGROUND:Cowboy Bebop - Tank [Para Para Mix] bg.png;
#LYRICSPATH:;
#CDTITLE:cdtitle.png;
#MUSIC:Cowboy Bebop - Tank [Para Para Mix].mp3;
#OFFSET:-7.147;
#SAMPLESTART:27.280;
#SAMPLELENGTH:12.400;
#SELECTABLE:YES;
#BPMS:0.000=153.985;
#STOPS:47.750=0.800
;
#BGCHANGES:;
// cache tags:
#FIRSTBEAT:0.000;
#LASTBEAT:272.000;
#SONGFILENAME:Songs/Fresh Flock of Fantastic Files F4/(Zaghurim) Tank (Para Para Mix)/Cowboy Bebop - Tank [Para Para Mix].sm;
#HASMUSIC:1;
#HASBANNER:1;
#MUSICLENGTH:116.566;
// end cache tags

//---------------dance-single - ----------------
#NOTES:
     dance-single:
     :
     Hard:
     10:
     0.919,0.788,1.000,0.069,0.738,601.000,141.000,8.000,0.000,0.000:
0010
0001
0000
0001
0010
0000
0010
0100
0000
0100
0010
0000
1001
0000
0110
0000
,
1001
0000
1001
0000
0000
1010
0101
0000
,
0010
1000
0000
1000
0010
0000
0010
0100
0000
0100
0010
0000
1001
0000
0110
0000
,
1001
0000
1010
1001
0000
0101
0011
0000
,
0100
0001
0000
0001
0100
0000
0100
0010
0000
0010
0100
0000
1010
0000
0101
0000
,
1001
0000
1001
0000
0000
0101
1001
0000
,
1000
0001
0000
0001
1000
0000
0100
0010
0000
0010
0100
0000
1100
0000
0110
0000
,
1001
0000
0110
0010
0110
1000
0110
0000
,
0001
1000
0001
0010
1000
0100
0010
0001
0010
0000
0000
0000
0000
0000
0000
0000
,
0000
0000
0010
0000
0100
0010
0000
0001
0000
0000
0010
0000
0100
0000
0010
0000
,
1000
0010
0000
0100
0010
0000
0100
0001
0000
0010
0100
0000
1000
0000
0010
0000
,
1000
0000
0100
0000
0010
0001
0000
1000
0100
1000
0001
0010
0001
0010
0100
0010
,
0000
0000
0000
0000
0000
0000
0000
0000
0100
0001
0000
0001
0100
0000
0100
0010
,
0000
0010
0100
0000
0101
0000
0010
0000
0101
0000
0001
0000
0101
0000
0100
0000
,
1100
0000
1000
0000
1010
0000
0010
0000
0010
0100
0000
0100
0010
0000
0100
0001
,
0000
0001
0100
0000
1001
0000
0010
0000
1001
0000
0001
0000
0101
0000
0100
0000
,
0110
0000
0010
0000
0011
0000
0001
0000
1000
0001
0000
0100
0010
0000
0010
0001
,
0000
0001
0010
0000
0110
0000
0010
0000
1001
0000
1000
0000
1010
0000
0010
0000
,
0110
0000
0100
0000
0101
0000
0001
0000
0001
0010
0000
0100
0010
0000
0010
0001
,
0000
0100
1000
0000
0101
0000
0010
0000
1001
0000
1000
0000
1010
0000
0010
0000
,
0110
0000
0100
0000
0101
0000
0001
0000
1000
0100
0010
0100
0010
0100
0010
0001
,
0110
0000
0100
0000
1010
0000
0010
0000
0101
0000
0010
0000
0100
0010
0000
0001
,
0000
0000
0010
0000
0100
0000
0010
0000
1000
0001
0000
0100
0001
0000
0010
0001
,
0100
0010
1000
0100
0010
0001
0110
0000
1000
0000
0110
0000
0110
0000
0000
0000
,
0000
0000
0000
0000
0010
0000
0010
0000
0100
1000
0000
0010
0100
0000
0010
0100
,
0000
0100
0010
0000
1010
0000
0100
0000
1001
0000
0010
0000
1100
0000
0010
0001
,
0010
0000
0100
0000
0010
0000
0000
0000
0100
0010
0000
0010
0100
0000
0010
1000
,
0000
0100
0010
0000
1001
0000
0100
0000
1001
0000
0100
0000
0011
0000
0100
0010
,
0100
0000
1000
0000
0010
0000
0000
0000
1000
0010
0000
0100
0001
0000
0100
0010
,
0000
0010
0100
0000
0110
0000
0100
0000
1001
0000
0001
0000
0101
0000
0100
1000
,
0100
0010
0100
0010
0001
0000
0000
0000
0010
0100
0000
0010
0100
0000
0010
1000
,
0000
0010
0001
0000
1010
0000
0100
0000
1001
0000
0100
0000
1001
0000
0100
0000
,
0110
0000
0010
0000
1010
0000
1000
0000
0001
0001
0100
0010
1000
0010
0100
0001
,
0100
0000
0010
0000
0001
0000
0000
0000
0100
0010
0100
0001
0010
0100
0010
1000
,
0010
0000
0100
0000
0010
0000
0100
0000
0001
1000
0000
0010
1000
0000
0100
1000
,
0010
0100
0001
0010
0100
1000
0100
0010
0000
0000
0000
0000
1001
0000
2002
0000
,
0000
3003
0010
0010
1001
0000
1001
0000
,
1001
0000
1001
0001
0011
0000
0011
0001
,
0101
0000
0101
0100
0110
0000
1010
0010
,
1001
0000
1010
0000
1100
0000
1010
0000
0000
0000
0000
0000
,
0002
0000
0000
0000
0010
0000
0010
0000
0013
0000
1000
0010
1000
0000
1010
0000
,
0110
0000
0101
0000
0011
0000
0110
0000
0000
0000
1100
0000
0000
1010
0000
0000
,
0101
0000
0000
0011
0000
0000
0110
0000
1010
0000
0100
0000
0011
0000
0100
0000
,
0110
0010
1100
0010
0101
0010
1010
0010
,
0110
0001
0010
0001
0010
0001
0010
0001
0100
0010
0000
0001
0010
0000
0001
1000
,
0000
1000
0001
0000
0011
0000
0010
0000
0001
0000
0001
0000
0001
0010
0100
1000
,
0100
0001
0100
0001
0010
1000
0010
1000
0010
0100
0000
1000
0100
0000
1000
0001
,
0000
0001
1000
0000
1100
0000
0001
0000
1000
0100
0000
0100
0010
0000
0010
0001
,
0000
0001
0010
0000
0110
0000
1001
0000
0010
0100
0000
0100
0010
0000
1000
0001
,
0000
0001
1000
0000
1100
0000
0001
0000
1100
0000
0100
0000
0110
0000
0010
0000
,
0011
0000
0001
0000
0101
0000
0100
0000
1000
0000
0100
0000
0010
0100
1000
0000
,
0100
0000
0010
0000
0001
0010
0100
0000
0010
0000
0001
0000
0010
0100
0010
0000
,
0010
0000
1000
0000
0020
0000
0000
0000
1030
1000
0001
0100
0010
1000
0010
0001
,
0010
0000
0000
0000
0000
0000
1000
0000
0000
0000
0000
0000
0110
0000
0000
0000
0000
0000
0001
0000
0000
0000
0000
0000
0110
0000
0000
0000
0000
0000
1000
0000
0000
0000
0000
0000
0110
0000
0000
0001
0000
0000
0000
0000
0000
0000
1010
0000
,
0000
0000
1100
0000
0110
0000
0110
0000
1000
0010
0000
0010
1000
0000
1000
0001
,
0000
0000
0000
0001
0000
0000
1000
0000
0000
0000
0000
0000
0010
0000
0000
0000
0000
0000
0001
0000
0000
0000
0000
0110
0000
0000
0000
0000
0000
0110
0000
0000
0000
0000
0000
0000
2002
0000
0000
0000
0000
0000
0000
0000
0000
0000
0000
0000
,
0000
0000
3003
0000
0010
0000
0010
0000
0100
0001
0000
0001
0100
0000
0100
0010
,
0000
0010
0100
0000
0101
0000
0010
0000
0101
0000
0001
0000
0101
0000
0100
0000
,
1100
0000
1000
0000
1010
0000
0010
0000
0010
0100
0000
0100
0010
0000
0100
0001
,
0000
0001
0100
0000
1001
0000
0010
0000
1001
0000
0001
0000
0101
0000
0100
0000
,
0110
0000
0010
0000
0011
0000
0001
0000
1000
0001
0000
0100
0010
0000
0010
0001
,
0000
0001
0010
0000
0110
0000
0010
0000
1001
0000
1000
0000
1010
0000
0010
0000
,
0110
0000
0100
0000
0101
0000
0001
0000
0001
0010
0000
0100
0010
0000
0010
0001
,
0000
0100
1000
0000
0101
0000
0010
0000
1001
0000
1000
0000
1010
0000
0010
0000
,
0110
0000
0100
0000
0101
0000
0001
0000
1000
0100
0010
0100
0010
0100
0010
0001
,
0110
0000
0100
0000
1010
0000
0010
0000
0101
0000
0010
0000
0100
0010
0000
0001
,
0000
0000
0010
0000
0100
0000
0010
0000
1000
0100
0010
0001
0100
0010
1000
0010
,
0001
0010
0100
1000
0001
1000
0001
0220
0000
0000
0000
0000
0000
0000
0000
0000
,
0330
0000
0000
0000
;

//---------------dance-single - ----------------
#NOTES:
     dance-single:
     :
     Challenge:
     12:
     1.000,1.000,1.000,0.069,0.862,643.000,209.000,8.000,0.000,0.000:
0010
0001
0000
0001
0010
0000
0010
0100
0000
0100
0010
0000
1001
0000
0110
0000
,
1001
0000
1001
0000
0000
1010
0101
0000
,
0010
1000
0000
1000
0010
0000
0010
0100
0000
0100
0010
0000
1001
0000
0110
0000
,
1001
0000
1010
1001
0000
0101
0011
0000
,
0100
0001
0000
0001
0100
0000
0100
0010
0000
0010
0100
0000
1010
0000
0101
0000
,
1001
0000
1001
0000
0000
0101
1001
0000
,
1000
0001
0000
0001
1000
0000
0100
0010
0000
0010
0100
0000
1100
0000
0110
0000
,
1001
0000
0110
0010
0110
1000
0110
0000
,
0001
1000
0001
0010
1000
0100
0010
0001
0010
0000
0000
0000
0000
0000
0000
0000
,
0000
0000
0010
0000
0100
0010
0000
0001
0000
0000
0010
0000
0100
0000
0010
0000
,
1000
0010
0000
0100
0010
0000
0100
0001
0000
0010
0100
0000
1000
0000
0010
0000
,
1000
0000
0100
0000
0010
0001
0000
1000
0100
1000
0001
0010
0001
0010
0100
0010
,
0000
0000
0000
0000
0000
0000
0000
0000
1010
0001
0000
0100
0011
0000
0100
0010
,
1001
0010
0100
0000
0101
0000
0010
0000
0101
0000
0001
0010
0101
0000
0100
0010
,
1100
0000
1000
0100
1010
0000
0010
0000
0011
0100
0000
0100
1010
0000
0100
0001
,
1100
0010
0100
0000
1001
0000
0010
0000
1001
0000
0001
0010
0101
0000
0100
1000
,
0110
0000
0010
0100
0011
0000
0001
0000
1001
0010
0000
0100
0011
0000
0010
0001
,
1010
0100
1000
0000
0110
0000
0010
0000
1001
0000
1000
0100
1010
0000
0010
0001
,
0110
0000
0100
1000
0101
0000
0001
0000
1001
0010
0000
0100
0011
0000
0100
0001
,
1010
0100
1000
0000
0101
0000
0010
0000
1001
0000
1000
0100
1010
0000
0010
0001
,
0110
0000
0100
0010
0101
0000
0001
0000
1000
1000
0010
0100
0010
0100
0010
0001
,
0110
0000
0100
0000
1010
0000
0010
0000
0101
0000
0010
0000
0100
0010
0000
0001
,
0000
0000
0010
0000
0100
0000
0010
0000
1000
0001
0000
0100
0001
0000
0010
0001
,
0100
0010
1000
0100
0010
0001
0110
0000
1000
0000
0110
0000
0110
0000
0000
0000
,
0000
0000
0000
0000
0010
0000
0010
0000
0101
1000
0000
0010
1100
0000
0010
0100
,
1001
0100
0010
0000
1010
0000
0100
0000
1001
0000
0010
0000
1100
0000
0010
0001
,
0010
0000
0100
0000
0010
0000
0000
0000
1100
0010
0000
0010
0101
0000
0010
1000
,
0011
0100
0010
0000
1001
0000
0100
0000
1001
0000
0100
0000
0011
0000
0100
0010
,
0100
0000
1000
0000
0010
0000
0000
0000
1001
0100
0000
0010
1100
0000
0100
1000
,
0101
0000
0010
0000
0001
0000
0000
0000
0110
0000
0000
0000
0100
0000
0000
0000
1001
0000
0000
0000
0001
0000
0010
0000
0101
0000
0000
0000
0100
0000
1000
0100
,
0010
0001
1000
0000
0100
0000
0010
0000
0001
0000
0000
0000
0000
0000
0000
0000
0011
0000
0100
0000
0000
0000
0010
0000
1100
0000
0000
0000
0010
0000
1000
0000
,
0101
0010
0001
0000
1010
0000
0100
0000
1001
0000
0100
0000
1001
0000
0100
0000
,
0110
0000
0010
0000
1010
0000
1000
0000
0001
0001
0100
0010
1000
0010
0100
0001
,
0100
0000
0010
0000
0001
0000
0000
0000
0100
0010
0100
0001
0010
0100
0010
1000
,
0010
0000
0100
0000
0010
0000
0100
0000
0001
1000
0000
0010
1000
0000
0100
1000
,
0010
0100
0001
0010
0100
1000
0100
0010
0000
0000
0000
0000
1001
0000
2002
0000
,
0000
3003
0010
0010
1001
0000
1001
0000
,
1001
0000
1001
0001
0011
0000
0011
0001
,
0101
0000
0101
0100
0110
0000
1010
0010
,
1001
0000
1010
0000
1100
0000
1010
0000
0000
0000
0000
0000
,
0002
0000
0010
0010
0013
0000
0000
1010
,
0110
0000
0101
0000
0011
0000
0110
0000
0000
0000
1100
0000
0000
1010
0000
0000
,
0101
0000
0000
0011
0000
0000
0110
0000
1010
0000
0100
0000
0011
0000
0100
0000
,
0110
0010
1100
0010
0101
0010
1010
0010
,
0011
0100
0010
0001
0010
0001
0010
0001
1100
0010
0000
0001
1010
0000
0001
1000
,
0110
1000
0001
0000
0011
0000
0010
0000
0001
0000
0001
0000
0001
0010
0100
1000
,
0100
0001
0100
0001
0010
1000
0010
1000
0011
0100
0000
1000
0101
0000
1000
0001
,
0110
0001
1000
0000
1100
0000
0001
0000
1100
0011
0000
1010
0101
0000
1001
0110
,
0000
0101
1010
0000
0110
0000
1001
0000
0011
0100
0000
1000
0101
0000
1000
0001
,
0110
0001
1000
0000
1100
0000
0001
0000
1100
0000
0010
0100
0011
0000
0010
0100
,
1010
0000
0100
1000
0110
0000
1000
0000
1010
0000
0101
0000
0011
0100
1010
0000
,
0110
0000
0011
0000
1100
0010
0101
0000
1010
0000
0011
0000
0101
0010
0101
0000
,
0011
0000
1100
0000
0021
0000
0000
0000
1030
1000
0001
0100
0010
1000
0010
0001
,
0010
0000
0000
0000
0000
0000
1000
0000
0000
0000
0000
0000
0110
0000
0000
0000
0000
0000
0001
0000
0000
0000
0000
0000
0110
0000
0000
0000
0000
0000
1000
0000
0000
0000
0000
0000
0110
0000
0000
0001
0000
0000
0000
0000
0000
0000
1010
0000
,
0000
0000
1100
0000
0110
0000
0110
0000
1000
0010
0000
0010
1000
0000
1000
0001
,
0000
0000
0000
0001
0000
0000
1000
0000
0000
0000
0000
0000
0010
0000
0000
0000
0000
0000
0001
0000
0000
0000
0000
0110
0000
0000
0000
0000
0000
0110
0000
0000
0000
0000
0000
0000
2002
0000
0000
0000
0000
0000
0000
0000
0000
0000
0000
0000
,
0000
0000
3003
0000
0010
0000
0010
0000
1010
0001
0000
0100
0011
0000
0100
0010
,
1001
0010
0100
0000
0101
0000
0010
0000
0101
0000
0001
0010
0101
0000
0100
0010
,
1100
0000
1000
0100
1010
0000
0010
0000
0011
0100
0000
0100
1010
0000
0100
0001
,
1100
0010
0100
0000
1001
0000
0010
0000
1001
0000
0001
0010
0101
0000
0100
1000
,
0110
0000
0010
0100
0011
0000
0001
0000
1001
0010
0000
0100
0011
0000
0010
0001
,
1010
0100
1000
0000
0110
0000
0010
0000
1001
0000
1000
0100
1010
0000
0010
0001
,
0110
0000
0100
1000
0101
0000
0001
0000
1001
0010
0000
0100
0011
0000
0100
0001
,
1010
0100
1000
0000
0101
0000
0010
0000
1001
0000
1000
0100
1010
0000
0010
0001
,
0110
0000
0100
0010
0101
0000
0001
0000
1000
1000
0010
0100
0010
0100
0010
0001
,
0110
0000
0100
0000
1010
0000
0010
0000
0101
0000
0010
0000
0100
0010
0000
0001
,
0000
0000
0010
0000
0100
0000
0010
0000
1000
0100
0010
0001
0100
0010
1000
0010
,
0001
0010
0100
1000
0001
1000
0001
0220
0000
0000
0000
0000
0000
0000
0000
0000
,
0330
0000
0000
0000
;
