#TITLE:V3;
#SUBTITLE:;
#ARTIST:Beautiful Day;
#TITLETRANSLIT:;
#SUBTITLETRANSLIT:;
#ARTISTTRANSLIT:;
#CREDIT:;
#BANNER:V3.png;
#BACKGROUND:V3-bg.png;
#LYRICSPATH:;
#CDTITLE:mslogo.png;
#MUSIC:V3.mp3;
#OFFSET:-0.708;
#SAMPLESTART:38.000;
#SAMPLELENGTH:26.000;
#SELECTABLE:YES;
#BPMS:0.000=80.000,36.000=160.000;
#STOPS:;
#BGCHANGES:;
// cache tags:
#FIRSTBEAT:0.000;
#LASTBEAT:412.000;
#SONGFILENAME:Songs/Essential Sim Collection/(Mystic Snake) V3/V3.sm;
#HASMUSIC:1;
#HASBANNER:1;
#MUSICLENGTH:171.894;
// end cache tags

//---------------dance-single - ----------------
#NOTES:
     dance-single:
     :
     Hard:
     11:
     0.801,0.989,0.791,0.430,0.526,754.000,136.000,74.000,0.000,0.000:
1010
0000
0000
0000
0000
0000
0000
1010
1100
0000
0000
0000
0000
0000
0000
1100
,
1010
0000
0000
0000
0000
1000
0100
0010
0001
1000
0010
0100
0001
1000
0100
0010
,
0001
0010
0100
1000
0001
0100
0010
1000
,
1000
0000
0010
0000
0100
0000
0001
0000
1000
0010
0100
0000
0001
0010
0100
1000
,
1010
0000
0000
0000
0010
0000
0100
0000
0011
0010
0100
1000
0100
0010
0001
0010
,
1100
0000
0000
0000
0000
0000
1000
0100
1001
0000
0010
0000
0100
0000
1000
0010
,
1010
0000
0000
0000
0001
0000
1000
0000
1100
0000
0000
0000
0000
1000
0000
0000
,
1100
0100
0010
0001
1000
0001
0010
0100
1000
0001
1000
0100
0010
0001
0010
0100
,
2002
0000
0000
0000
,
3003
0000
0000
0000
1000
0000
0100
0000
1000
0000
0000
1000
0000
0000
0010
0000
,
0000
0000
1000
0100
1000
0000
0010
0000
1000
0000
0000
1000
0000
0000
0010
0000
,
0000
0000
0100
0001
0100
0000
0001
0000
0010
0000
0000
0001
0000
0000
0010
0000
,
0100
0000
0000
0000
1100
0000
0000
0000
0101
0000
0000
0000
1001
0000
0001
0010
,
1100
0000
0000
0000
1010
0000
1100
0000
1010
0000
0000
0101
0000
0000
2020
0000
,
3030
0000
0101
0000
0000
0000
0101
0000
1100
0000
0000
0011
0000
0000
0202
0000
,
0303
0000
1001
0000
0000
0000
1001
0000
0101
0000
0000
1100
0000
0000
1001
0000
,
0011
0000
0000
0110
0000
0000
1100
0000
1010
0000
1000
0000
0100
0000
0010
0000
,
0120
0000
0000
0031
0210
0000
0000
1300
,
0120
0000
0000
0000
0000
0000
0031
1000
0100
0000
0010
0000
0001
0000
0100
0000
,
0010
0100
0010
0001
0022
0033
2200
3300
,
2002
0000
0000
0000
3003
0000
0001
0010
,
0200
0000
0000
0000
1300
0000
1000
0100
,
0020
0000
0000
0000
0031
0000
0001
0010
,
1100
0000
1000
0100
0011
0000
0100
0010
,
1001
0000
1001
0000
1001
0100
0010
0001
,
0120
0000
0000
0031
0120
0000
0000
1030
,
0120
0000
0000
0000
0000
0000
0031
1000
0100
0000
0010
0000
0100
0000
0010
0000
,
0001
1000
0100
0010
0022
0033
2200
3300
,
2002
0000
0000
0000
3003
0000
0100
0010
,
0002
0000
0000
0000
1003
0000
0010
0100
,
0002
0000
0000
0000
1003
0000
1000
0100
,
0011
0000
0001
0010
1100
0000
0010
0100
,
1001
0000
1001
0000
1001
1000
0100
0010
,
0001
0010
0001
0010
0100
1000
0100
0010
,
0001
0010
0001
0010
0100
1000
0100
0010
,
0001
0010
0001
0010
0100
1000
0100
0010
,
0001
0010
0100
1000
0001
0000
0000
0000
,
1000
0100
0001
0010
0100
1000
0100
0010
,
0001
0100
0001
0010
0100
1000
0100
0010
,
0001
0100
0001
0010
0100
1000
0100
0010
,
0011
0100
1000
0110
0001
0010
1100
0100
,
1001
0001
0010
0100
1000
0001
0010
0100
,
1001
0000
0100
0001
0010
0001
0010
0100
1000
0100
0010
0001
0010
0100
1000
0001
,
0110
1000
0010
0100
0001
1000
0010
0100
,
0011
1000
0010
0100
0001
1000
0010
0100
0001
1000
0010
0100
0001
1000
0010
0100
,
0001
0010
0100
1000
0001
0100
0010
1000
,
0002
0000
0000
0000
0000
0000
0000
0000
0023
0000
0000
0000
0000
0000
0000
0030
,
1100
0010
0001
0110
1000
0100
0011
0100
,
1000
0000
1010
0000
0100
0000
0001
0010
1100
0000
0010
0000
0011
0000
0000
0000
,
1001
0100
0010
1001
0010
0100
1010
0100
,
1000
0000
0101
0000
0010
0000
1000
0100
0011
0000
1000
0000
0110
0000
0000
0000
,
1001
1000
0100
1000
0010
1000
0100
1000
0010
1000
0100
1000
0010
1000
0100
1000
,
0010
0100
0001
0100
0010
0100
0001
0100
0010
0100
0001
0100
0010
0100
0001
0100
,
0010
1000
0100
1000
0001
1000
0100
1000
0001
1000
0100
1000
0001
1000
0100
1000
,
0001
0010
0100
0010
0001
0010
0100
0010
0001
0010
0100
0010
0001
0010
0100
0010
,
0001
1000
0100
0010
0100
1000
0100
0010
0100
1000
0100
0010
0100
1000
0100
0010
,
0100
1000
0010
0100
0010
1000
0010
0100
0010
1000
0010
0100
0010
1000
0010
0100
,
0010
1000
0001
1000
0010
1000
0001
1000
0010
1000
0001
1000
0010
1000
0001
1000
,
0010
0100
0001
0100
1000
0100
0001
0100
1000
0100
0001
0100
1000
0100
0001
0100
,
1000
0001
0100
0001
0010
0100
0001
0100
,
1000
0001
0010
0001
0100
1000
0001
0010
,
1000
0100
1000
0100
0010
0001
0010
0001
0010
0100
1000
0001
0010
0100
1000
0100
,
1000
0100
0010
0001
0010
0001
0010
0100
1000
0001
0010
0100
1000
0100
1000
0100
,
0010
0100
0010
0100
0010
0100
0001
1000
0001
1000
0001
1000
0001
1000
0001
1000
,
0100
1000
0100
1000
0100
1000
0100
1000
0100
1000
0100
0010
0001
0010
0100
1000
,
0100
1000
0100
1000
0100
0010
0001
0010
0001
0010
0100
0010
0100
1000
0100
1000
,
0100
0010
0100
0001
0010
0001
0010
0100
1000
0100
1000
0001
0010
0100
1000
0000
,
2200
0000
0000
0000
0000
0000
0000
3300
,
0000
0011
0110
1100
1100
0011
1100
0011
,
2002
0000
0000
0000
0000
3003
0220
0330
,
2200
0000
0000
3300
,
0022
0033
0022
0000
0000
0000
0000
0000
,
0000
0000
0000
0000
0000
0000
0033
0000
1001
0000
0000
1100
0000
1010
0000
0000
,
0022
0000
0033
0000
0000
0022
0000
0000
0000
0000
0000
0000
0000
0000
0000
0000
,
0000
0000
0000
0000
0000
0000
0000
0033
,
2002
0000
0000
0000
0000
0000
0000
3003
,
1010
0100
1100
0000
0000
0000
1001
0000
0000
0000
0101
0000
0000
0000
1100
0000
,
2002
0000
0000
0000
,
3003
1000
0100
0010
1002
0000
0000
1003
,
2001
0000
0000
0000
0000
0000
3001
0000
1002
0000
0000
0000
0000
0000
1003
0100
,
0010
1000
0100
0010
0001
1000
0100
0010
,
0202
0303
2020
3030
0220
0000
0000
0000
,
0330
0000
1000
0100
0020
0000
0000
0000
,
0031
0000
0001
0010
0200
0000
0000
0000
,
1300
0000
0010
0001
1100
0000
1000
0100
,
0011
0000
0010
0100
1001
0000
1001
0000
,
1001
1000
0100
0010
0012
0000
0000
0103
,
2100
0000
0000
0000
0000
0000
3100
0000
0012
0000
0000
0000
0000
0000
0013
0100
,
1000
0001
0010
0100
1000
0100
0010
0001
,
2020
3030
0022
0033
0220
0000
0000
0000
,
0330
0000
0010
0100
2000
0000
0000
0000
,
3001
0000
0100
0010
0002
0000
0000
0000
,
1003
0000
1000
0001
1100
0000
0001
1000
,
0101
0000
0010
0100
1000
0000
0011
0000
,
1000
0000
0011
0000
0000
0001
0010
0100
,
1000
0100
0010
0001
0100
0000
0011
0000
,
0100
0000
0011
0000
0000
0010
0100
1000
,
0001
0000
0010
0000
0100
0000
1000
0000
0100
0000
0000
0000
1000
0100
0010
0001
,
1001
0010
1001
0010
,
1100
0000
0010
0000
0011
0010
1100
0010
,
0011
0000
0010
0000
1100
0000
0010
0000
1100
0000
0001
0010
0001
0010
0100
1000
,
0100
1000
0100
0010
0100
0010
0100
0010
2002
0000
0000
0000
0000
0000
0000
0000
,
0000
0000
0000
0000
0000
0000
0000
3003
,
1001
0000
0000
0000
;

//---------------dance-single - Copied from----------------
#NOTES:
     dance-single:
     Copied from:
     Challenge:
     12:
     0.877,0.989,0.704,0.326,0.733,878.000,121.000,56.000,0.000,0.000:
1010
0000
0000
0000
0000
0000
0000
1010
1100
0000
0000
0000
0000
0000
0000
1100
,
1010
0000
0000
0000
0000
1000
0100
0010
0001
1000
0010
0100
0001
1000
0100
0010
,
0001
0010
0100
1000
0001
0100
0010
1000
,
1000
0000
0010
0000
0100
0000
0001
0000
1000
0010
0100
0000
0001
0010
0100
1000
,
1010
0000
0000
0000
0010
0000
0100
0000
0011
0010
0100
1000
0100
0010
0001
0010
,
1100
0000
0000
0000
0000
0000
1000
0100
1001
0000
0010
0000
0100
0000
1000
0010
,
1010
0000
0000
0000
0001
0000
1000
0000
1100
0000
0000
0000
0000
1000
0000
0000
,
1100
0100
0010
0001
1000
0001
0010
0100
1000
0001
1000
0100
0010
0001
0010
0100
,
2002
0000
0000
0000
,
3003
0000
0000
0000
1000
0000
0100
0000
1000
0000
0000
1000
0000
0000
0010
0000
,
0000
0000
1000
0100
1000
0000
0010
0000
1000
0000
0000
1000
0000
0000
0010
0000
,
0000
0000
0100
0001
0100
0000
0001
0000
0010
0000
0000
0001
0000
0000
0010
0000
,
0100
0000
0000
0000
1100
0000
0000
0000
0101
0000
0000
0000
1001
0000
0001
0010
,
1100
0000
0000
0000
1010
0000
1100
0000
1010
0000
0000
0101
0000
0000
2020
0000
,
3030
0000
0101
0000
0000
0000
0101
0000
1100
0000
0000
0011
0000
0000
0202
0000
,
0303
0000
1001
0000
0000
0000
1001
0000
0101
0000
0000
1100
0000
0000
1001
0000
,
0011
0000
0000
0110
0000
0000
1100
0000
1010
0000
1000
0000
0100
0000
0010
0000
,
0120
0000
0000
0031
0210
0000
0000
1300
,
0120
0000
0000
0000
0000
0000
0031
1000
0100
0000
0010
0000
0001
0000
0100
0000
,
0010
0100
0010
0001
0022
0033
2200
3300
,
2002
0000
0000
0000
3003
0000
0001
0010
,
0200
0000
0000
0000
1300
0000
1000
0100
,
0020
0000
0000
0000
0031
0000
0001
0010
,
1100
0000
1000
0100
0011
0000
0100
0010
,
1001
0000
1001
0000
1001
0100
0010
0001
,
0120
0000
0000
0031
0120
0000
0000
1030
,
0120
0000
0000
0000
0000
0000
0031
1000
0100
0000
0010
0000
0100
0000
0010
0000
,
0001
1000
0100
0010
0022
0033
2200
3300
,
2002
0000
0000
0000
3003
0000
0100
0010
,
0002
0000
0000
0000
1003
0000
0010
0100
,
0002
0000
0000
0000
1003
0000
1000
0100
,
0011
0000
0001
0010
1100
0000
0010
0100
,
1001
0000
1001
0000
1001
1000
0100
0010
,
0001
0010
0001
0010
0100
1000
0100
0010
,
0001
0010
0001
0010
0100
1000
0100
0010
,
0001
0010
0001
0010
0100
1000
0100
0010
,
0011
0110
1100
1010
1001
0000
0000
0000
,
1000
0100
0001
0010
0100
1000
0100
0010
,
0001
0100
0001
0010
0100
1000
0100
0010
,
0001
0100
0001
0010
0100
1000
0100
0010
,
0011
0100
1000
0110
0001
0010
1100
0100
,
1001
0001
0010
0100
1000
0001
0010
0100
,
1001
0000
0100
0001
0010
0001
0010
0100
1000
0100
0010
0001
0010
0100
1000
0001
,
0110
1000
0010
0100
0001
1000
0010
0100
,
0011
1000
0010
0100
0001
1000
0010
0100
0001
1000
0010
0100
0001
1000
0010
0100
,
0001
0010
0100
1000
0001
0100
0010
1000
,
0002
0000
0000
0000
0000
0000
0000
0000
0023
0000
0000
0000
0000
0000
0000
0030
,
1100
0010
0001
0110
1000
0100
0011
0100
,
1000
0000
1010
0000
0100
0000
1001
0101
1100
0000
0010
0000
0011
0000
0000
0000
,
1001
0100
0010
1001
0010
0100
1010
0100
,
1000
0000
0101
0000
0010
0000
1100
0110
0011
0000
1000
0000
0110
0000
0000
0000
,
1001
1000
0100
1000
0010
1000
0100
1000
0010
1000
0100
1000
0010
1000
0100
1000
,
0010
0100
0001
0100
0010
0100
0001
0100
0010
0100
0001
0100
0010
0100
0001
0100
,
0010
1000
0100
1000
0001
1000
0100
1000
0001
1000
0100
1000
0001
1000
0100
1000
,
0001
0010
0100
0010
0001
0010
0100
0010
0001
0010
0100
0010
0001
0010
0100
0010
,
0001
1000
0100
0010
0100
1000
0100
0010
0100
1000
0100
0010
0100
1000
0100
0010
,
0100
1000
0010
0100
0010
1000
0010
0100
0010
1000
0010
0100
0010
1000
0010
0100
,
0010
1000
0001
1000
0010
1000
0001
1000
0010
1000
0001
1000
0010
1000
0001
1000
,
0010
0100
0001
0100
1000
0100
0001
0100
1000
0100
0001
0100
1000
0100
0001
0100
,
1000
0001
0100
0001
0010
0100
0001
0100
,
1000
0001
0010
0001
0100
1000
0001
0010
,
1000
0100
1000
0100
0010
0001
0010
0001
0010
0100
1000
0001
0010
0100
1000
0100
,
1000
0100
0010
0001
0010
0001
0010
0100
1000
0001
0010
0100
1000
0100
1000
0100
,
0010
0100
0010
0100
0010
0100
0001
1000
0001
1000
0001
1000
0001
1000
0001
1000
,
0100
1000
0100
1000
0100
1000
0100
1000
0100
1000
0100
0010
0001
0010
0100
1000
,
0100
1000
0100
1000
0100
0010
0001
0010
0001
0010
0100
0010
0100
1000
0100
1000
,
0100
0010
0100
0001
0010
0001
0010
0100
1000
0100
1000
0001
0010
0100
1000
0000
,
0000
0000
0000
0000
0000
0000
0000
1000
0100
0010
0001
0010
0100
1000
0100
0000
,
0000
0000
0000
0100
0010
0001
0010
0001
0010
0100
1000
0100
1000
0100
1000
0100
,
0010
0001
0010
0100
1000
0100
0010
0001
1000
0100
0010
0100
1000
0001
0010
0100
,
0010
0001
0010
0100
1000
0001
1000
0100
0010
0001
0010
0100
1000
0100
0010
0001
,
1000
0010
1000
0001
1000
0010
1000
0001
1000
0010
1000
0100
1000
0100
0010
0100
,
1000
0001
0010
0001
0010
0100
0010
0001
0010
0100
1000
0010
0100
0001
0010
0100
,
0010
0100
1000
0100
0010
0001
0010
0001
0010
0100
1000
0100
1000
0100
0010
0001
,
0010
0001
0010
0100
1000
0100
1000
0100
0010
0100
0010
0001
0010
0001
0010
0100
,
0010
0100
1000
0100
1000
0100
0010
0001
1000
0100
0010
0001
1000
0100
0010
0001
,
1000
0010
0100
0001
1000
0010
0100
0001
1000
0010
0100
0001
1000
0100
0010
0001
,
2002
0000
0000
0000
,
3003
1000
0100
0010
1002
0000
0000
1003
,
2001
0000
0000
0000
0000
0000
3001
0000
1002
0000
0000
0000
0000
0000
1003
0100
,
0010
1000
0100
0010
0001
1000
0100
0010
,
0202
0303
2020
3030
0220
0000
0000
0000
,
0330
0000
1000
0100
0020
0000
0000
0000
,
0031
0000
0001
0010
0200
0000
0000
0000
,
1300
0000
0010
0001
1100
0000
1000
0100
,
0011
0000
0010
0100
1001
0000
1001
0000
,
1001
1000
0100
0010
0012
0000
0000
0103
,
2100
0000
0000
0000
0000
0000
3100
0000
0012
0000
0000
0000
0000
0000
0013
0100
,
1000
0001
0010
0100
1000
0100
0010
0001
,
2020
3030
0022
0033
0220
0000
0000
0000
,
0330
0000
0010
0100
2000
0000
0000
0000
,
3001
0000
0100
0010
0002
0000
0000
0000
,
1003
0000
1000
0001
1100
0000
0001
1000
,
0101
0000
0010
0100
1000
0000
0011
0000
,
1000
0000
0011
0000
0000
0001
0010
0100
,
1000
0100
0010
0001
0100
0000
0011
0000
,
0100
0000
0011
0000
0000
0010
0100
1000
,
0001
0000
0010
0000
0100
0000
1000
0000
0100
0000
0000
0000
1000
0100
0010
0001
,
1001
0010
1001
0010
,
1100
0000
0010
0000
0011
0010
1100
0010
,
0011
0000
0010
0000
1100
0000
0010
0000
1100
0000
0001
0010
0001
0010
0100
1000
,
0100
1000
0100
0010
0100
0010
0100
0010
2002
0000
0000
0000
0000
0000
0000
0000
,
0000
0000
0000
0000
0000
0000
0000
3003
,
1001
0000
0000
0000
;

//---------------dance-single - Copied from Copied f----------------
#NOTES:
     dance-single:
     Copied from Copied f:
     Edit:
     13:
     0.911,1.000,0.919,0.337,0.733,880.000,158.000,58.000,0.000,0.000:
1010
0000
0000
0000
0000
0000
0000
1010
1100
0000
0000
0000
0000
0000
0000
1100
,
1010
0000
0000
0000
0000
1000
0100
0010
0001
1000
0010
0100
0001
1000
0100
0010
,
0001
0010
0100
1000
0001
0100
0010
1000
,
1000
0000
0010
0000
0100
0000
0001
0000
1000
0010
0100
0000
0001
0010
0100
1000
,
1010
0000
0000
0000
0010
0000
0100
0000
0011
0010
0100
1000
0100
0010
0001
0010
,
1100
0000
0000
0000
0000
0000
1000
0100
1001
0000
0010
0000
0100
0000
1000
0010
,
1010
0000
0000
0000
0001
0000
1000
0000
1100
0000
0000
0000
0000
1000
0000
0000
,
1100
0100
0010
0001
1000
0001
0010
0100
1000
0001
1000
0100
0010
0001
0010
0100
,
2002
0000
0000
0000
,
3003
0000
0000
0000
1000
0000
0100
0000
1000
0000
0000
1000
0000
0000
0010
0000
,
0000
0000
1000
0100
1000
0000
0010
0000
1000
0000
0000
1000
0000
0000
0010
0000
,
0000
0000
0100
0001
0100
0000
0001
0000
0010
0000
0000
0001
0000
0000
0010
0000
,
0100
0000
0000
0000
1100
0000
0000
0000
0101
0000
0000
0000
1001
0000
0001
0010
,
1100
0000
0000
0000
1010
0000
1100
0000
1010
0000
0000
0101
0000
0000
2020
0000
,
3030
0000
0101
0000
0000
0000
0101
0000
1100
0000
0000
0011
0000
0000
0202
0000
,
0303
0000
1001
0000
0000
0000
1001
0000
0101
0000
0000
1100
0000
0000
1001
0000
,
0011
0000
0000
0110
0000
0000
1100
0000
1010
0000
1000
0000
0100
0000
0010
0000
,
0120
0000
0000
0031
0210
0000
0000
1300
,
0120
0000
0000
0000
0000
0000
0031
1000
0100
0000
0010
0000
0001
0000
0100
0000
,
0010
0100
0010
0001
0022
0033
2200
3300
,
2002
0000
0000
0000
3003
0000
0001
0010
,
0200
0000
0000
0000
1300
0000
1000
0100
,
0020
0000
0000
0000
0031
0000
0001
0010
,
1100
0000
1000
0100
0011
0000
0100
0010
,
1001
0000
1001
0000
1001
0100
0010
0001
,
0120
0000
0000
0031
0120
0000
0000
1030
,
0120
0000
0000
0000
0000
0000
0031
1000
0100
0000
0010
0000
0100
0000
0010
0000
,
0001
1000
0100
0010
0022
0033
2200
3300
,
2002
0000
0000
0000
3003
0000
0100
0010
,
0002
0000
0000
0000
1003
0000
0010
0100
,
0002
0000
0000
0000
1003
0000
1000
0100
,
0011
0000
0001
0010
1100
0000
0010
0100
,
1001
0000
1001
0000
1001
1000
0100
0010
,
0001
0010
0001
0010
0100
1000
0100
0010
,
0001
0010
0001
0010
0100
1000
0100
0010
,
0001
0010
0001
0010
0100
1000
0100
0010
,
0011
0110
1100
1010
1001
0000
0000
0000
,
1000
0100
0001
0010
0100
1000
0100
0010
,
0001
0100
0001
0010
0100
1000
0100
0010
,
0001
0100
0001
0010
0100
1000
0100
0010
,
0011
0100
1000
0110
0001
0010
1100
0100
,
1001
0001
0010
0100
1000
0001
0010
0100
,
1001
0000
0100
0001
0010
0001
0010
0100
1000
0100
0010
0001
0010
0100
1000
0001
,
0110
1000
0010
0100
0001
1000
0010
0100
,
0011
1000
0010
0100
0001
1000
0010
0100
0001
1000
0010
0100
0001
1000
0010
0100
,
0001
0010
0100
1000
0001
0100
0010
1000
,
0002
0000
0000
0000
0000
0000
0000
0000
0023
0000
0000
0000
0000
0000
0000
0030
,
1100
0010
0001
0110
1000
0100
0011
0100
,
1000
0000
1010
0000
0100
0000
1001
0101
1100
0000
0010
0000
0011
0000
0000
0000
,
1001
0100
0010
1001
0010
0100
1010
0100
,
1000
0000
0101
0000
0010
0000
1100
0110
0011
0000
1000
0000
0110
0000
0000
0000
,
1001
1000
0100
1000
0010
1000
0100
1000
0010
1000
0100
1000
0010
1000
0100
1000
,
0011
0100
0001
0100
0010
0100
0001
0100
0010
0100
0001
0100
0010
0100
0001
0100
,
1010
1000
0100
1000
0001
1000
0100
1000
0001
1000
0100
1000
0001
1000
0100
1000
,
1001
0010
0100
0010
0001
0010
0100
0010
1001
0010
0100
0010
1001
0010
0100
0010
,
1001
1000
0100
0010
0100
1000
0100
0010
0110
1000
0100
0010
0100
1000
0100
0010
,
0110
1000
0010
0100
0010
1000
0010
0100
1010
1000
0010
0100
0010
1000
0010
0100
,
1010
1000
0001
1000
0010
1000
0001
1000
0010
1000
0001
1000
0010
1000
0001
1000
,
1010
0100
0001
0100
1000
0100
0001
0100
1000
0100
0001
0100
1000
0100
0001
0100
,
1000
0001
0100
0001
0010
0100
0001
0100
,
1000
0001
0010
0001
0100
1000
0001
0010
,
1000
0100
1000
0100
0010
0001
0010
0001
0010
0100
1000
0001
0010
0100
1000
0100
,
1000
0100
0010
0001
0010
0001
0010
0100
1000
0001
0010
0100
1000
0100
1000
0100
,
0010
0100
0010
0100
0010
0100
0001
1000
0001
1000
0001
1000
0001
1000
0001
1000
,
0100
1000
0100
1000
0100
1000
0100
1000
0100
1000
0100
0010
0001
0010
0100
1000
,
0100
1000
0100
1000
0100
0010
0001
0010
0001
0010
0100
0010
0100
1000
0100
1000
,
0100
0010
0100
0001
0010
0001
0010
0100
1000
0100
1000
0001
0010
0100
1000
0000
,
2200
0000
3300
0000
0000
0000
0000
1000
0100
0010
0001
0010
0100
1000
0100
0000
,
0000
0000
1100
0100
0110
0001
0011
0001
0110
0100
1100
0100
1001
0100
1010
0100
,
0011
0001
0010
0100
1000
0100
0010
0001
1000
0100
0010
0100
1001
0001
0010
0100
,
0110
0001
0010
0100
1000
0001
1000
0100
0010
0001
0010
0100
1000
0100
0010
0001
,
1010
0010
1000
0001
1010
0010
1000
0001
1000
0010
1000
0100
1000
0100
0010
0100
,
1000
0001
0010
0001
0010
0100
0110
0001
0010
0100
1100
0010
0100
0011
0010
0100
,
1010
0100
1000
0100
0010
0011
0010
0001
0010
0100
1000
0100
1000
0100
0010
0001
,
0010
0001
0010
0100
1000
0100
1000
0100
0010
0100
0010
0001
0010
0001
0010
0100
,
0110
0100
1000
0100
1000
0100
0010
0001
1000
0100
0010
0001
1000
0100
0010
0001
,
1010
0110
0101
0001
1000
0010
0110
0001
1000
0010
0110
0001
1010
0100
0110
0001
,
2002
0000
0000
0000
,
3003
1000
0100
0010
1002
0000
0000
1003
,
2001
0000
0000
0000
0000
0000
3001
0000
1002
0000
0000
0000
0000
0000
1003
0100
,
0010
1000
0100
0010
0001
1000
0100
0010
,
0202
0303
2020
3030
0220
0000
0000
0000
,
0330
0000
1000
0100
0020
0000
0000
0000
,
0031
0000
0001
0010
0200
0000
0000
0000
,
1300
0000
0010
0001
1100
0000
1000
0100
,
0011
0000
0010
0100
1001
0000
1001
0000
,
1001
1000
0100
0010
0012
0000
0000
0103
,
2100
0000
0000
0000
0000
0000
3100
0000
0012
0000
0000
0000
0000
0000
0013
0100
,
1000
0001
0010
0100
1000
0100
0010
0001
,
2020
3030
0022
0033
0220
0000
0000
0000
,
0330
0000
0010
0100
2000
0000
0000
0000
,
3001
0000
0100
0010
0002
0000
0000
0000
,
1003
0000
1000
0001
1100
0000
0001
1000
,
0101
0000
0010
0100
1000
0000
0011
0000
,
1000
0000
0011
0000
0000
0001
0010
0100
,
1000
0100
0010
0001
0100
0000
0011
0000
,
0100
0000
0011
0000
0000
0010
0100
1000
,
0001
0000
0010
0000
0100
0000
1000
0000
0100
0000
0000
0000
1000
0100
0010
0001
,
1001
0010
1001
0010
,
1100
0000
0010
0000
0011
0010
1100
0010
,
0011
0000
0010
0000
1100
0000
0010
0000
1100
0000
0001
0010
0001
0010
0100
1000
,
0100
1000
0100
0010
0100
0010
0100
0010
2002
0000
0000
0000
0000
0000
0000
0000
,
0000
0000
0000
0000
0000
0000
0000
3003
,
1001
0000
0000
0000
;
