#TITLE:Frantic;
#SUBTITLE:The Battle for Wesnoth OST;
#ARTIST:Aleksi Aubry-Carlson;
#TITLETRANSLIT:;
#SUBTITLETRANSLIT:;
#ARTISTTRANSLIT:;
#CREDIT:Arch0wl;
#BANNER:frantic-bn.png;
#BACKGROUND:frantic-bg.png;
#LYRICSPATH:;
#CDTITLE:!arch0wltitle.png;
#MUSIC:frantic.ogg;
#OFFSET:2.846;
#SAMPLESTART:50.745;
#SAMPLELENGTH:22.575;
#SELECTABLE:YES;
#BPMS:0.000=170.000;
#STOPS:;
#BGCHANGES:0.000=frantic-bg.png=1.000=0=0=1,
99999=-nosongbg-=1.000=0=0=0 // don't automatically add -songbackground-
;
// cache tags:
#FIRSTBEAT:8.000;
#LASTBEAT:247.750;
#SONGFILENAME:Songs/Archmage and Dark0wl Hammer of Thor UltraHyperMegaPack/Frantic/frantic.sm;
#HASMUSIC:1;
#HASBANNER:1;
#MUSICLENGTH:105.000;
// end cache tags

//---------------dance-single - Arch0wl----------------
#NOTES:
     dance-single:
     Arch0wl:
     Hard:
     11:
     0.918,1.000,0.095,0.057,0.990,659.000,10.000,6.000,0.000,0.000:
0000
0000
0000
0000
,
0000
0000
0000
0000
,
1000
0000
0100
0000
0010
0000
1000
0000
0010
0000
0001
0000
0100
0010
0100
0010
,
1000
0000
0001
0000
0010
0000
1000
0000
0010
0000
0001
0000
1000
0100
1000
0100
,
0010
0000
0001
0000
0100
0000
0010
0000
0001
0000
0010
0000
1000
0001
1000
0001
,
0010
0000
0100
0000
0001
0000
1000
0000
0001
0000
0100
0000
1000
0100
1000
0100
,
0010
0000
0001
0000
1100
0000
0010
0000
0001
0000
1000
0000
0010
0100
1000
0001
,
0010
0000
1000
0000
0101
0000
1000
0000
0001
0000
0010
0000
0100
1000
0001
0100
,
0010
0000
0100
0000
1001
0000
0010
0000
1000
0000
0100
0000
0010
0001
1000
0010
,
0100
0000
0001
0000
1100
0000
0001
0000
1000
0000
0010
0000
0100
0001
1000
0100
,
0010
0000
0001
0000
0010
0000
0001
0000
0100
0000
0010
0000
0100
0010
0100
0010
,
1000
0000
0100
0000
1000
0000
0100
0000
0010
0000
0001
0000
0010
0001
0010
0001
,
1000
0000
0010
0000
1000
0000
0010
0000
1000
0000
0010
0000
1000
0010
1000
0010
,
0100
0000
0001
0000
0100
0000
0001
0000
0100
0000
0001
0000
0100
0001
0100
0001
,
1000
0000
0001
0000
1000
0000
0001
0000
0010
0000
0001
0000
0010
0001
0010
0001
,
0100
0000
0010
0000
0100
0000
0010
0000
1000
0000
0100
0000
1000
0100
1000
0100
,
0010
0001
0010
0001
0010
0001
0010
0001
0010
0001
0010
0001
0010
0001
0010
0001
,
0010
0001
0010
0001
0010
0001
0010
0001
0010
0001
0010
0001
0010
0001
0010
0001
,
1100
0000
0100
0000
1000
0000
0001
0000
1001
0000
0010
0000
0100
0010
0100
0010
,
1001
0000
0001
0000
1000
0000
0001
0000
0110
0000
0010
0000
0100
0010
0100
0010
,
1000
0000
0100
0000
1000
0000
0100
0000
1000
0000
0100
0000
1000
0100
1000
0100
,
1000
0000
0100
0000
1000
0000
0100
0000
1000
0000
0100
0000
1000
0100
1000
0100
,
0001
0000
0010
0000
0100
0000
0010
0000
0001
0100
0001
0100
0010
0000
0001
0000
,
0010
0000
0100
0000
0001
0010
0001
0010
0100
0000
0010
0000
0001
0000
0010
0000
,
0001
0100
0001
0100
0010
0000
0001
0000
0010
0000
0100
0000
0001
0000
0100
0001
,
0100
0001
1000
0000
0100
0000
0010
0000
0100
0000
1000
0000
0010
0100
0010
0100
,
1000
0000
0100
0000
0010
0000
1000
0000
0100
0010
0100
0010
1000
0000
0010
0000
,
0100
0000
1000
0000
0010
0100
0010
0100
1000
0000
0100
0000
0010
0000
1000
0000
,
0100
0010
0100
0010
1000
0000
0010
0000
0100
0000
1000
0000
0010
0000
0100
0001
,
0100
0001
1000
0000
0100
0000
0001
0000
0100
0000
1000
0000
0001
0100
0001
0100
,
0010
1000
0001
1000
0100
1000
0001
1000
0010
1000
0001
1000
0100
1000
0001
1000
,
0010
1000
0001
1000
0100
1000
0001
1000
0010
1000
0001
1000
0100
1000
0001
1000
,
0010
1000
0001
1000
0100
1000
0010
1000
0001
1000
0010
1000
0100
1000
0010
1000
,
0001
1000
0010
1000
0100
1000
0010
1000
0001
1000
0010
1000
0100
1000
0010
1000
,
0001
0010
0100
1000
0010
0100
0001
0010
0100
1000
0001
1000
0010
1000
0001
1000
,
0100
1000
0010
0100
0001
0010
0100
1000
0001
1000
0010
1000
0100
1000
0010
1000
,
0001
1000
0010
1000
0100
1000
0001
1000
0010
1000
0001
1000
0100
1000
0001
1000
,
0010
1000
0001
1000
0100
1000
0001
1000
0010
1000
0001
1000
0100
1000
0001
1000
,
0001
0000
0010
0000
0010
0000
0010
0000
0100
0100
0010
0010
0001
0000
0100
0000
,
0100
0000
0100
0000
0001
0001
0010
0010
0100
0000
0010
0000
0010
0000
0010
0000
,
0100
0100
0010
0010
0001
0000
0100
0000
0100
0000
0100
0000
0001
0000
0010
0010
,
0001
0001
1000
0000
0100
0000
0100
0000
0100
0000
0100
0000
1000
1000
0100
0100
,
0010
0000
0100
0000
0100
0000
0100
0000
1000
1000
0010
0010
0100
0000
1000
0000
,
1000
0000
1000
0000
0100
0100
0010
0010
1000
0000
0100
0000
0100
0000
0100
0000
,
1000
1000
0100
0100
0010
0000
1000
0000
1000
0000
1000
0000
0010
0000
0100
0100
,
1000
1000
0010
0000
0100
0000
0100
0000
0100
0000
0100
0000
0010
0010
0100
0100
,
0001
0000
1000
0000
0010
0000
0100
0000
0001
0100
0010
0100
0001
0000
1000
0000
,
0100
0000
0010
0000
0001
1000
0100
1000
0001
0000
0010
0000
0100
0000
1000
0000
,
0010
0000
0100
0000
0010
1000
0100
1000
0010
0000
0100
0001
0010
0001
0100
0000
,
0001
1000
0001
1000
1000
0001
1000
1000
,
0001
0000
0100
0010
0100
0000
0001
0000
0001
0000
0001
0000
0010
0100
0010
0000
,
0001
0000
0001
0000
1000
0010
0100
0010
1000
0000
0001
0000
0001
0000
0001
0000
,
1000
0010
0001
0010
1000
0000
0001
0010
1000
0010
0001
0000
1000
0010
0001
0010
,
1000
0000
0000
0000
0101
0000
0000
0000
1010
0000
0000
0000
0010
0100
1000
0100
,
0002
0000
0203
0000
,
0320
0000
2030
0000
,
3002
0000
0000
0000
,
2003
0000
0000
0000
,
3001
0010
0100
1000
0001
0010
0100
1000
0001
0100
0010
1000
0001
0100
0010
1000
,
0001
0010
0100
1000
0001
0010
0100
1000
0001
0100
0010
1000
0001
0100
0010
1000
,
0001
0010
0100
1000
0001
0010
0100
1000
0001
0010
0100
1000
0001
0010
0100
1000
,
0001
0100
0010
1000
0001
0100
0010
1000
0001
0100
0010
1000
0001
0100
0010
1000
;
