#TITLE:Scribble Love;
#SUBTITLE:;
#ARTIST:Sharpnel.exe;
#TITLETRANSLIT:;
#SUBTITLETRANSLIT:;
#ARTISTTRANSLIT:;
#CREDIT:;
#BANNER:scribble love bn.png;
#BACKGROUND:scribble love bg.png;
#LYRICSPATH:;
#CDTITLE:;
#MUSIC:scribble love.ogg;
#OFFSET:-5.457;
#SAMPLESTART:76.780;
#SAMPLELENGTH:21.942;
#SELECTABLE:YES;
#BPMS:0.000=175.000;
#STOPS:;
#BGCHANGES:;
// cache tags:
#FIRSTBEAT:0.000;
#LASTBEAT:656.000;
#SONGFILENAME:Songs/SHARPNELSTREAMZ v2/Scribble Love/Scribble Love.sm;
#HASMUSIC:1;
#HASBANNER:1;
#MUSICLENGTH:235.911;
// end cache tags

//---------------dance-single - 15+ (@@)----------------
#NOTES:
     dance-single:
     15+ (@@):
     Challenge:
     15:
     1.000,1.000,0.025,0.140,1.000,2424.000,6.000,33.000,2.000,0.000:
1000
0000
0010
1000
0001
0000
0010
0001
1000
0000
0010
1000
0001
0000
0010
0001
,
0100
0000
0001
1000
0100
0000
1000
0001
0100
0000
0001
1000
0100
0000
0010
0001
,
0100
0000
0010
1000
0001
0000
0010
0001
1000
0000
0010
1000
0001
0000
0010
0001
,
0100
0000
0010
1000
0001
0100
0001
1000
0100
0010
0100
1000
0001
0100
0010
1000
,
0100
0000
1000
0100
0010
0000
0001
0100
0010
0000
1000
0100
0010
0000
0001
0100
,
0010
0000
1000
0001
0010
0000
0001
0100
0010
0000
1000
0001
0010
0000
0001
0100
,
0010
0000
0100
0001
1000
0000
0100
0010
0001
0000
0100
0001
1000
0000
0100
1000
,
0010
0000
1000
0001
0100
0000
0001
0010
0100
0000
1000
0001
0100
0010
1000
0100
,
0010
0000
0001
0010
0100
0000
1000
0010
0100
0000
0001
0010
0100
0000
1000
0010
,
0100
0000
0001
1000
0100
0000
1000
0010
0100
0000
0001
1000
0100
0000
1000
0010
,
0100
0000
0010
1000
0001
0000
0010
0100
1000
0000
0010
1000
0001
0000
0010
0001
,
1000
0100
1000
0001
0100
0010
1000
0001
0100
0001
1000
0100
0010
0001
0010
0100
,
0010
0001
0100
0010
1000
0001
0010
0001
0100
0010
1000
0001
0010
0001
0100
0010
,
1000
0001
0010
0100
0010
0100
1000
0001
0100
0001
1000
0001
0100
0010
1000
0001
,
0010
0100
1000
0010
1000
0001
0010
0100
1000
0010
1000
0001
0010
0100
1000
0010
,
1000
0001
0010
0100
0010
0100
1000
0001
0100
0001
1000
0001
0010
0100
0010
0001
,
0100
0010
1000
0100
1000
0001
0100
0010
1000
0100
1000
0001
0100
0010
1000
0100
,
1000
0001
0100
0010
0100
0010
1000
0001
0010
0001
1000
0001
0010
0100
1000
0001
,
0100
0001
0010
0100
1000
0001
0100
0001
0010
0100
1000
0001
0100
0001
0010
0100
,
1000
0001
0100
0010
0100
0010
1000
0001
0010
0001
1000
0001
0010
0100
1000
0010
,
0100
0001
0010
0100
1000
0001
0100
0001
0010
0100
1000
0001
0100
0001
0010
0100
,
1000
0001
0100
0010
0100
0010
1000
0001
0010
0001
1000
0001
0010
0100
1000
0001
,
0100
0010
1000
0100
1000
0001
0100
0010
1000
0100
1000
0001
0100
0010
1000
0100
,
1000
0001
0100
0010
0100
0010
1000
0001
0010
0001
1000
0001
0100
0010
0100
0001
,
0010
0100
1000
0010
1000
0001
0010
0100
1000
0010
1000
0001
0010
0100
1000
0010
,
1000
0001
0010
0100
0010
0100
1000
0001
0100
0001
1000
0001
0100
0010
1000
0001
,
0010
0001
0100
0010
1000
0001
0010
0001
0100
0010
1000
0001
0010
0001
0100
0010
,
1000
0001
0010
0100
1000
0100
0010
0001
1000
0001
0100
0010
1000
0001
1000
0100
,
0010
0001
0010
0100
0010
0001
0010
0100
0010
0001
0010
0100
1000
0001
0100
0010
,
1000
0100
0010
0100
1000
0100
0010
0100
1000
0100
0010
0100
1000
0001
0100
0010
,
1000
0100
1000
0001
1000
0100
1000
0001
1000
0100
1000
0001
1000
0010
0100
0001
,
0100
0010
1000
0001
0010
0100
1000
1000
,
0010
0100
0001
0100
0010
0100
0001
0100
0010
0100
0001
0100
0010
1000
0001
0010
,
0001
0100
0010
1000
0010
0100
0010
1000
0010
0100
0010
1000
0001
0010
0100
1000
,
0010
1000
0001
1000
0010
1000
0001
1000
0010
1000
0001
1000
0100
0010
0001
1000
,
0001
0100
0010
0100
0001
1000
0001
0001
,
0010
0100
1000
0100
0010
0100
1000
0100
0010
0100
1000
0100
0010
0001
1000
0010
,
0100
0001
0010
0001
1000
0001
0010
0001
1000
0001
0010
0001
1000
0010
0100
0001
,
0010
0100
0010
0001
0010
0100
0010
0001
0010
0100
0010
0001
1000
0010
0100
0001
,
1000
0000
0010
0000
0100
0000
0001
0000
0010
0000
0100
1000
0001
0000
0010
0001
,
0100
0010
1000
0010
0100
0010
1000
0010
0100
0010
1000
0010
0100
0001
1000
0100
,
0010
0001
0100
0001
1000
0001
0100
0001
1000
0001
0100
0001
1000
0100
0010
0001
,
0100
0010
0100
0001
0100
0010
0100
0001
0100
0010
0100
0001
1000
0100
0010
0001
,
0100
0010
1000
0001
1000
0100
0010
0001
1000
0010
1000
0001
0010
0100
0010
0001
,
1000
0100
1000
0001
0100
0010
0100
0001
1000
0100
0010
0001
0010
0100
1000
0001
,
0100
0010
0100
0001
1000
0010
1000
0001
0010
0100
0010
0001
1000
0010
1000
0001
,
0010
0100
1000
0001
0100
0010
1000
0001
0010
0100
0010
0100
1000
0010
1000
0001
,
0100
0010
0100
0001
0100
0010
1000
0001
0010
0100
1000
0100
0010
0100
1000
0010
,
0100
0001
1000
0001
0100
0001
1000
0100
0010
0100
1000
0001
0100
0010
0100
0001
,
0010
0100
1000
0100
0010
0100
1000
0001
0100
0010
0100
0001
0100
0010
0100
0001
,
1000
0100
0010
0001
0010
0100
1000
0001
1000
0010
0100
0001
1000
0001
0100
0010
,
1000
0100
1000
0001
1000
0001
1000
0010
0100
0001
0100
0010
1000
0100
0010
0100
,
1000
0001
1000
0010
0100
0001
0100
0010
1000
0100
0010
0001
0010
0100
0010
0001
,
0100
0010
1000
0010
0100
0001
1000
0010
1000
0100
0010
0001
1000
0001
0010
0100
,
1000
0010
0100
0001
1000
0001
0100
0010
1000
0100
0010
0001
1000
0100
0010
0100
,
1000
0010
0100
0010
1000
0001
0100
0001
0010
0100
0010
0001
1000
0100
0010
0001
,
0100
0010
1000
0001
0100
0001
1000
0010
1000
0100
0010
0100
1000
0001
0010
0001
,
0100
0010
1000
0001
0100
0001
1000
0010
1000
0100
0010
0001
1000
0001
0010
0001
,
0100
0010
1000
0001
0100
0010
0100
0001
0010
0100
1000
0001
1000
0100
0010
0001
,
1000
0000
0010
0000
1000
0000
0001
0000
0010
0000
0100
1000
0010
0100
0001
0010
,
0001
1000
0001
0010
0100
1000
0100
0010
0001
0100
0010
1000
0010
0100
0010
1000
,
0100
0010
0001
0010
0100
1000
0001
0010
0001
0100
0010
1000
0001
1000
0010
0100
,
0001
0010
0100
1000
0001
1000
0100
0010
0001
0100
0010
1000
0001
0100
0010
0100
,
0001
0010
0100
0010
0001
1000
0100
1000
0010
0100
0010
1000
0001
0100
0010
1000
,
0100
0010
0001
1000
0100
1000
0001
0010
0001
0100
0010
0100
0001
1000
0010
1000
,
0100
0010
0001
1000
0100
1000
0001
0010
0001
0100
0010
1000
0001
1000
0010
1000
,
0100
0010
0001
1000
0100
0010
0100
1000
0010
0100
0001
1000
0001
0100
0010
1000
,
0100
0010
0001
0010
0100
1000
0001
0100
0010
1000
0010
0100
0001
1000
0100
1000
,
0010
0100
0010
0100
0010
1000
0010
1000
0100
0010
0001
0010
0100
1000
0010
0100
,
0001
0100
0010
1000
0100
1000
0001
0010
0001
0010
0100
1000
0100
1000
0001
1000
,
0010
0100
0010
0100
0010
1000
0010
1000
0100
0010
0001
0010
0100
1000
0010
0100
,
0001
0100
0010
1000
0100
1000
0001
0010
0001
0010
0100
1000
0100
1000
0010
0100
,
0001
0010
0001
0010
0001
1000
0001
1000
0010
0100
0001
0100
0010
1000
0100
0010
,
0001
0010
0100
1000
0010
1000
0001
0100
0001
0100
0010
1000
0010
1000
0001
1000
,
0001
0010
0001
0010
0001
1000
0001
1000
0010
0100
0001
0100
0010
1000
0100
0010
,
0001
0010
0100
1000
0010
1000
0001
0100
0010
1000
0010
1000
0001
0100
0001
1000
,
0100
0010
0100
0010
0100
1000
0100
1000
0010
0100
0001
0100
0010
1000
0100
0010
,
0001
0010
0100
1000
0010
1000
0001
0100
0001
0100
0010
1000
0010
1000
0001
1000
,
0100
0010
0100
0010
0100
1000
0100
1000
0010
0100
0001
0100
0010
1000
0100
0010
,
0001
0010
0100
1000
0010
1000
0001
0100
0001
0100
0010
1000
0010
1000
0100
0010
,
0001
0100
0001
0100
0001
1000
0001
1000
0100
0010
0001
0010
0100
1000
0010
0100
,
0001
0100
0010
1000
0100
1000
0001
0010
0001
0010
0100
1000
0100
1000
0001
1000
,
0001
0100
0001
0100
0001
1000
0001
1000
0100
0010
0001
0010
0100
1000
0010
0100
,
0001
0100
0010
1000
0100
1000
0001
0010
0100
1000
0100
1000
0002
0023
0230
2300
,
3010
0100
0010
1000
0010
0100
0010
1000
0010
0100
0010
1000
0001
1000
0100
0010
,
0002
0103
0010
0100
0001
0100
0010
0100
0001
0100
0010
0100
0001
1000
0100
0010
,
0002
0103
0001
1000
0001
0100
0001
1000
0001
0100
0001
1000
0001
0010
0100
1000
,
0200
0300
0010
0000
0001
0000
1000
0000
0010
0000
0100
0000
0002
0203
0320
2030
,
3100
0010
0001
0010
0100
0010
0001
0010
0100
0010
0001
0010
0100
1000
0001
0100
,
0002
0013
0100
1000
0100
0010
0100
1000
0100
0010
0100
1000
0001
0100
0010
1000
,
0100
1000
0001
1000
0100
1000
0001
1000
0100
1000
0001
1000
0010
0100
0001
1000
,
0002
0003
0010
0000
0100
0000
0220
0330
0010
0000
0001
0000
2002
3003
0001
0000
,
0100
0010
1000
0010
0100
0010
1000
0010
0100
0010
1000
0010
0100
0001
1000
0100
,
0020
0031
0100
0001
1000
0001
0100
0001
1000
0001
0100
0001
1000
0100
0010
0001
,
0200
0310
0100
0001
0100
0010
0100
0001
0100
0010
0100
0001
1000
0100
0010
0001
,
2000
3000
0100
0000
1000
0000
0001
0000
0100
0000
0010
0000
2000
3020
0230
0302
,
0013
0100
1000
0100
0010
0100
1000
0100
0010
0100
1000
0100
0010
0001
1000
0010
,
0200
0301
0010
0001
1000
0001
0010
0001
1000
0001
0010
0001
1000
0010
0100
0001
,
0010
0100
0010
0001
0010
0100
0010
0001
0010
0100
0010
0001
1000
0010
0100
0001
,
0010
0100
1000
0001
1000
0010
0100
0001
1000
0010
1000
0001
0010
0100
0010
0001
,
1000
0010
1000
0001
0010
0100
0010
0001
1000
0010
0100
0001
0100
0010
1000
0001
,
0010
0100
0010
0001
1000
0100
1000
0001
0100
0010
0100
0001
1000
0100
1000
0001
,
0100
0010
1000
0001
0010
0100
1000
0001
0100
0010
0100
0010
1000
0100
1000
0001
,
0010
0100
0010
0001
0010
0100
1000
0001
0100
0010
1000
0010
0100
0010
1000
0100
,
0010
0001
1000
0001
0010
0001
1000
0010
0100
0010
1000
0001
0010
0100
0010
0001
,
0100
0010
1000
0010
0100
0010
1000
0001
0010
0100
0010
0001
0010
0100
0010
0001
,
1000
0010
0100
0001
0100
0010
1000
0001
1000
0100
0010
0001
1000
0001
0010
0100
,
1000
0010
1000
0001
1000
0001
1000
0100
0010
0001
0010
0100
1000
0010
0100
0001
,
1000
0000
0000
0000
0000
0000
0000
0000
0000
0000
0000
0000
1000
0100
0010
0001
,
0100
0010
1000
0001
1000
0010
0100
0001
1000
0100
0010
0100
1000
0001
0010
0100
,
1000
0001
0100
0010
0100
0001
1000
0010
1000
0001
0010
0100
1000
0100
0010
0001
,
0100
0010
1000
0001
1000
0010
0100
0001
1000
0100
1000
0001
0010
0100
1000
0001
,
1000
0010
0100
0001
1000
0010
1000
0001
0010
0100
0010
0001
1000
0100
0010
0001
,
0100
0010
1000
0010
0100
0001
1000
0010
1000
0001
0010
0100
1000
0001
1000
0100
,
1000
0001
0100
0010
1000
0010
0100
0001
1000
0100
0010
0001
1000
0001
0010
0100
,
1000
0010
0100
0010
1000
0001
0100
0001
1000
0100
0010
0001
0010
0100
0010
0001
,
1000
0010
1000
0010
1000
0001
0100
0010
1000
0001
1000
0010
0100
0001
1000
0001
,
0010
0100
1000
0001
1000
0100
0010
0001
1000
0010
0100
0010
1000
0001
0100
0010
,
1000
0001
0010
0100
0010
0001
1000
0100
1000
0001
0100
0010
1000
0010
0100
0001
,
0010
0100
1000
0001
1000
0100
0010
0001
1000
0010
1000
0001
0100
0010
1000
0001
,
1000
0100
0010
0001
1000
0100
1000
0001
0100
0010
0100
0001
1000
0010
0100
0001
,
0010
0100
1000
0100
0010
0001
1000
0100
1000
0001
0100
0010
1000
0001
1000
0010
,
1000
0001
0010
0100
1000
0100
0010
0001
1000
0010
0100
0001
1000
0001
0100
0010
,
1000
0100
0010
0100
1000
0001
0010
0001
1000
0010
0100
0001
0100
0010
1000
0010
,
0100
0001
1000
0001
0010
0100
1000
0001
0100
0001
1000
0010
1000
0001
0010
0100
,
1000
0001
0100
0001
1000
0100
0010
0001
1000
0010
0100
0001
1000
0100
1000
0001
,
0100
0010
0100
0001
1000
0100
0010
0100
1000
0001
0100
0001
1000
0100
0010
0001
,
1000
0010
0100
0001
1000
0100
1000
0001
0100
0010
1000
0001
0010
0100
0010
0001
,
0100
0010
1000
0001
0010
0100
1000
0001
1000
0010
0100
0001
1000
0100
1000
0001
,
0100
0010
0100
0001
1000
0100
0010
0001
1000
0010
0100
0010
1000
0001
0010
0100
,
1000
0001
0100
0001
1000
0100
0010
0100
1000
0001
1000
0010
1000
0100
0010
0001
,
1000
0001
0100
0010
1000
0001
0010
0001
1000
0001
0100
0010
1000
0001
0010
0001
,
1000
0010
1000
0010
0100
0001
1000
0001
0010
0100
0010
0100
1000
0100
1000
0001
,
1000
0100
0010
0001
1000
0010
0100
0001
1000
0100
0010
0100
1000
0001
1000
0010
,
1000
0001
0010
0001
1000
0010
0100
0010
1000
0001
0010
0001
1000
0010
0100
0001
,
1000
0100
0010
0001
1000
0010
1000
0001
0010
0100
1000
0001
0100
0010
0100
0001
,
0010
0100
1000
0001
0100
0010
1000
0001
1000
0100
0010
0001
1000
0010
1000
0001
,
0010
0100
0010
0001
1000
0010
0100
0001
1000
0100
0010
0100
1000
0001
0100
0010
,
1000
0001
0010
0001
1000
0010
0100
0010
1000
0001
1000
0100
1000
0010
0100
0001
,
1000
0001
0010
0100
1000
0001
0100
0001
1000
0001
0010
0100
1000
0001
0100
0001
,
1000
0100
1000
0100
0010
0001
1000
0001
0100
0010
0100
0010
1000
0010
1000
0001
,
0010
0100
0010
0100
0010
0001
0010
0001
0100
0010
1000
0010
0100
0001
0010
0100
,
1000
0100
0010
0001
0100
0001
1000
0010
1000
0010
0100
0001
0100
0001
1000
0001
,
0010
0100
0010
0100
0010
0001
0010
0001
0100
0010
1000
0010
0100
0001
0010
0100
,
1000
0100
0010
0001
0100
0001
1000
0010
1000
0010
0100
0001
0100
0001
0010
0100
,
1000
0010
1000
0010
1000
0001
1000
0001
0010
0100
1000
0100
0010
0001
0100
0010
,
1000
0010
0100
0001
0010
0001
1000
0100
1000
0100
0010
0001
0010
0001
1000
0001
,
1000
0010
1000
0010
1000
0001
1000
0001
0010
0100
1000
0100
0010
0001
0100
0010
,
1000
0010
0100
0001
0010
0001
1000
0100
0010
0001
0010
0001
1000
0100
1000
0001
,
0100
0010
0100
0010
0100
0001
0100
0001
0010
0100
1000
0100
0010
0001
0100
0010
,
1000
0010
0100
0001
0010
0001
1000
0100
1000
0100
0010
0001
0010
0001
1000
0001
,
0100
0010
0100
0010
0100
0001
0100
0001
0010
0100
1000
0100
0010
0001
0100
0010
,
1000
0010
0100
0001
0010
0001
1000
0100
1000
0100
0010
0001
0010
0001
0100
0010
,
1000
0100
1000
0100
1000
0001
1000
0001
0100
0010
1000
0010
0100
0001
0010
0100
,
1000
0100
0010
0001
0100
0001
1000
0010
1000
0010
0100
0001
0100
0001
1000
0001
,
1000
0100
1000
0100
1000
0001
1000
0001
0100
0010
1000
0010
0100
0001
0010
0100
,
1000
0100
0010
0001
0100
0001
1000
0010
0100
0001
0100
0001
1000
0001
1000
0100
,
1000
0000
2002
0000
0000
3003
0000
0000
0202
0000
0000
0303
0001
0000
0001
0000
,
0022
0033
0010
0000
0100
0000
2100
0000
0000
0000
0000
0000
0002
0000
0000
0000
,
0000
0000
0000
0000
,
0000
0000
0000
0000
,
3003
0000
0000
0000
,
0000
0000
0000
0000
,
0000
0000
0000
0000
,
M00M
0000
0000
0000
;

//---------------dance-single - 14- (@@TYLR)----------------
#NOTES:
     dance-single:
     14- (@@TYLR):
     Hard:
     14:
     1.000,1.000,0.051,0.538,1.000,2090.000,12.000,127.000,19.000,0.000:
0001
0000
0100
0001
1000
0000
0100
1000
0001
0000
0100
0001
1000
0000
0100
1000
,
0010
0000
1000
0001
0010
0000
0001
1000
0010
0000
1000
0001
0010
0000
0100
1000
,
0010
0000
0100
0001
1000
0000
0100
1000
0001
0000
0100
0001
1000
0000
0100
1000
,
0010
0000
0100
0001
1000
0010
1000
0001
0010
0100
0010
0001
1000
0010
0100
0001
,
0010
0000
0001
0010
0100
0000
1000
0010
0100
0000
0001
0010
0100
0000
1000
0010
,
0100
0000
0001
1000
0100
0000
1000
0010
0100
0000
0001
1000
0100
0000
1000
0010
,
0100
0000
0010
1000
0001
0000
0010
0100
1000
0000
0010
1000
0001
0000
0010
0001
,
0100
0000
0001
1000
0010
0000
1000
0100
0010
0000
0001
1000
0010
0100
0001
0010
,
0100
0000
1000
0100
0010
0000
0001
0100
0010
0000
1000
0100
0010
0000
0001
0100
,
0010
0000
1000
0001
0010
0000
0001
0100
0010
0000
1000
0001
0010
0000
0001
0100
,
0010
0000
0100
0001
1000
0000
0100
0010
0001
0000
0100
0001
1000
0000
0100
1000
,
0001
0010
0001
1000
0010
0100
0001
1000
0010
1000
0001
0010
0100
1000
0100
0010
,
0100
1000
0010
0100
0001
1000
0100
1000
0010
0100
0001
1000
0100
1000
0010
0100
,
0001
1000
0100
0010
0100
0010
0001
1000
0010
1000
0001
1000
0010
0100
0001
1000
,
0100
0010
0001
0100
0001
1000
0100
0010
0001
0100
0001
1000
0100
0010
0001
0100
,
0001
1000
0100
0010
0100
0010
0001
1000
0010
1000
0001
1000
0100
0010
0100
1000
,
0010
0100
0001
0010
0001
1000
0010
0100
0001
0010
0001
1000
0010
0100
0001
0010
,
0001
1000
0010
0100
0010
0100
0001
1000
0100
1000
0001
1000
0100
0010
0001
1000
,
0010
1000
0100
0010
0001
1000
0010
1000
0100
0010
0001
1000
0010
1000
0100
0010
,
0001
1000
0010
0100
0010
0100
0001
1000
0100
1000
0001
1000
0100
0010
0001
0100
,
0010
1000
0100
0010
0001
1000
0010
1000
0100
0010
0001
1000
0010
1000
0100
0010
,
0001
1000
0010
0100
0010
0100
0001
1000
0100
1000
0001
1000
0100
0010
0001
1000
,
0010
0100
0001
0010
0001
1000
0010
0100
0001
0010
0001
1000
0010
0100
0001
0010
,
0001
1000
0010
0100
0010
0100
0001
1000
0100
1000
0001
1000
0010
0100
0010
1000
,
0100
0010
0001
0100
0001
1000
0100
0010
0001
0100
0001
1000
0100
0010
0001
0100
,
0001
1000
0100
0010
0100
0010
0001
1000
0010
1000
0001
1000
0010
0100
0001
1000
,
0100
1000
0010
0100
0001
1000
0100
1000
0010
0100
0001
1000
0100
1000
0010
0100
,
0001
1000
0100
0010
0001
0010
0100
1000
0001
1000
0010
0100
0001
0100
0010
1000
,
0200
0310
0200
1300
0001
0200
0301
0200
,
0310
0000
0200
0000
0301
0000
0200
0000
0310
0000
0200
0000
0301
0000
0100
M00M
,
0200
1300
0200
0310
0001
0200
0301
0200
,
0310
0200
0301
0200
0310
0200
0301
0010
,
0021
0130
0020
1030
0001
0020
0031
0020
,
0130
0020
0031
0020
0130
0020
0031
0010
,
0200
1300
0200
0310
0001
0200
0301
0200
,
0310
0200
0301
0200
0310
0200
0301
0010
,
1002
1003
0002
0103
0100
0002
1003
0002
,
0013
0002
0103
0002
1003
0002
0103
0001
,
0002
1003
0002
0013
0010
0002
1003
0002
,
0103
0002
0013
0002
1003
0002
0013
0001
,
2001
3001
2000
3010
0010
2000
3001
2000
,
3100
2000
3010
2000
3001
2000
3010
1000
,
0200
0310
0200
1300
0001
0200
0310
0200
,
0301
0100
0010
1000
0001
1000
0010
0100
0001
0010
0100
1000
0001
1000
0001
1000
,
0010
0000
1000
0001
1000
0000
0100
1000
0100
0000
0010
0001
1000
0001
0100
0010
,
1000
0000
0001
1000
0001
0000
1000
0100
1000
0000
0001
0010
0001
1000
0010
0100
,
0001
0000
1000
0001
1000
0000
0001
0010
0001
0000
0010
0100
1000
0001
0100
0010
,
1000
0000
0000
0000
0000
0000
0001
0000
0000
1000
0000
0000
0001
0000
0000
0000
0000
0000
1000
0000
0000
0100
0000
0000
1000
0000
0000
0000
0000
0000
0001
0000
0000
0010
0000
0000
0001
0000
1000
0000
0001
0000
1000
0000
0000
0010
0000
0000
,
0100
0000
0001
0100
0010
0000
0100
0001
1000
0000
0100
0010
0001
1000
0001
1000
,
0010
0000
1000
0010
0100
0000
0010
1000
0001
0000
1000
0001
0010
0100
0010
0001
,
1000
0000
0001
0100
0010
0000
1000
0001
0010
0000
0100
1000
0001
1000
0001
0100
,
0010
1000
0001
0100
0001
1000
0010
0100
0001
1000
0100
1000
0001
0010
0100
0010
,
0001
1000
0001
0100
0010
1000
0010
0100
0001
0010
0100
1000
0100
0010
0100
1000
,
0010
0100
0001
0100
0010
1000
0001
0100
0001
0010
0100
1000
0001
1000
0100
0010
,
0001
0100
0010
1000
0001
1000
0010
0100
0001
0010
0100
1000
0001
0010
0100
0010
,
0001
0100
0010
0100
0001
1000
0010
1000
0100
0010
0100
1000
0001
0010
0100
1000
,
0010
0100
0001
1000
0010
1000
0001
0100
0001
0010
0100
0010
0001
1000
0100
1000
,
0010
0100
0001
1000
0010
1000
0001
0100
0001
0010
0100
1000
0001
1000
0100
1000
,
0010
0100
0001
1000
0010
0100
0010
1000
0100
0010
0001
1000
0001
0010
0100
1000
,
0001
0000
0100
0000
0001
0000
1000
0000
0100
0000
0010
0001
0100
0010
1000
0100
,
1000
0001
1000
0100
0010
0001
0010
0100
1000
0010
0100
0001
0100
0010
0100
0001
,
0010
0100
1000
0100
0010
0001
1000
0100
1000
0010
0100
0001
1000
0001
0100
0010
,
1000
0100
0010
0001
1000
0001
0010
0100
1000
0010
0100
0001
1000
0010
0100
0010
,
1000
0100
0010
0100
1000
0001
0010
0001
0100
0010
0100
0001
1000
0010
0100
0001
,
0010
0100
1000
0001
0010
0001
1000
0100
1000
0010
0100
0010
1000
0001
0100
0001
,
0010
0100
1000
0001
0010
0001
1000
0100
1000
0010
0100
0001
1000
0001
0100
0001
,
0010
0100
1000
0001
0010
0100
0010
0001
0100
0010
1000
0001
1000
0010
0100
0001
,
0010
0100
1000
0100
0010
0001
1000
0010
0100
0001
0100
0010
1000
0001
0010
0001
,
0100
0010
0100
0010
0100
0001
0100
0001
0010
0100
1000
0100
0010
0001
0100
0010
,
1000
0010
0100
0001
0010
0001
1000
0100
1000
0100
0010
0001
0010
0001
1000
0001
,
0100
0010
0100
0010
0100
0001
0100
0001
0010
0100
1000
0100
0010
0001
0100
0010
,
1000
0010
0100
0001
0010
0001
1000
0100
1000
0100
0010
0001
0010
0001
0100
0010
,
1000
0100
1000
0100
1000
0001
1000
0001
0100
0010
1000
0010
0100
0001
0010
0100
,
1000
0100
0010
0001
0100
0001
1000
0010
1000
0010
0100
0001
0100
0001
1000
0001
,
1000
0100
1000
0100
1000
0001
1000
0001
0100
0010
1000
0010
0100
0001
0010
0100
,
1000
0100
0010
0001
0100
0001
1000
0010
0100
0001
0100
0001
1000
0010
1000
0001
,
0010
0100
0010
0100
0010
0001
0010
0001
0100
0010
1000
0010
0100
0001
0010
0100
,
1000
0100
0010
0001
0100
0001
1000
0010
1000
0010
0100
0001
0100
0001
1000
0001
,
0010
0100
0010
0100
0010
0001
0010
0001
0100
0010
1000
0010
0100
0001
0010
0100
,
1000
0100
0010
0001
0100
0001
1000
0010
1000
0010
0100
0001
0100
0001
0010
0100
,
1000
0010
1000
0010
1000
0001
1000
0001
0010
0100
1000
0100
0010
0001
0100
0010
,
1000
0010
0100
0001
0010
0001
1000
0100
1000
0100
0010
0001
0010
0001
1000
0001
,
1000
0010
1000
0010
1000
0001
1000
0001
0010
0100
1000
0100
0010
0001
0100
0010
,
1000
0010
0100
0001
0010
0001
1000
0100
0010
0001
0010
0001
2000
3200
0320
0032
,
2M03
3010
2000
3001
0001
2000
3100
2000
,
301M
2000
3001
2000
3100
2000
3001
1000
,
20M0
3100
2000
3001
0001
2000
3010
2000
,
31M0
0000
2000
0000
3001
0000
2000
0000
3010
0000
2000
0000
3001
0010
0100
1000
,
00M2
0103
0002
1003
1000
0002
0013
0002
,
01M3
0002
1003
0002
0013
0002
1003
0001
,
0200
0310
0200
0301
1000
0200
1300
0200
,
0310
0200
1300
020M
0310
0200
13M0
0001
,
2M01
3010
2000
3001
0001
2000
3100
2000
,
301M
2000
3001
2000
3100
2000
3001
1000
,
20M0
3100
2000
3001
0001
2000
3010
2000
,
31M0
0000
2000
0000
3001
0000
2000
0000
3010
0000
2000
0000
3001
0010
0100
1000
,
00M2
0103
0002
1003
1000
0002
0013
0002
,
01M3
0002
1003
0002
0013
0002
1003
0001
,
M200
0310
0200
0301
1000
0200
1300
0200
,
0310
0001
0010
0100
1000
0001
0100
0010
0100
0001
1000
0010
1000
0100
0010
0001
,
1000
0010
1000
0001
0010
0100
0010
0001
1000
0010
0100
0001
0100
0010
1000
0001
,
0010
0100
0010
0001
1000
0100
1000
0001
0100
0010
0100
0001
1000
0100
1000
0001
,
0100
0010
1000
0001
0010
0100
1000
0001
0100
0010
0100
0010
1000
0100
1000
0001
,
0010
0100
0010
0001
0010
0100
1000
0001
0100
0010
1000
0010
0100
0010
1000
0100
,
0010
0001
1000
0001
0010
0001
1000
0010
0100
0010
1000
0001
0010
0100
0010
0001
,
0100
0010
1000
0010
0100
0010
1000
0001
0010
0100
0010
0001
0010
0100
0010
0001
,
1000
0010
0100
0001
0100
0010
1000
0001
1000
0100
0010
0001
1000
0001
0010
0100
,
1000
0010
1000
0001
1000
0001
1000
0100
0010
0001
0010
0100
1000
0010
0100
0001
,
1000
0000
0000
0000
0000
0000
0000
0000
0000
0000
0000
0000
1000
0100
0010
0001
,
2000
3000
0000
0000
0010
0000
0000
0000
1000
0000
0000
0000
0100
0000
0000
0000
,
0010
0100
1000
0001
,
0201
0300
0000
0000
0010
0000
0000
0000
0100
0000
0000
0000
0001
0000
0000
0000
,
0010
0100
1000
0001
,
0201
0300
0000
0000
0010
0000
0000
0000
0100
0000
0000
0000
0001
0000
0000
0000
,
1000
0100
1000
0010
,
0120
0030
0000
0000
0100
0000
0000
0000
0001
0000
0000
0000
0100
0000
0010
0000
,
0000
0000
0000
0000
,
2001
3000
0001
0010
0001
0000
0010
0100
0010
0000
0100
1000
0001
1000
0100
0010
,
0001
0000
1000
0001
1000
0000
0001
0100
0001
0000
1000
0010
1000
0001
0010
0100
,
2000
3000
0001
0010
0001
0000
1000
0100
1000
0000
0001
1000
0001
0100
0010
1000
,
0100
0000
0010
0001
0010
0000
0100
1000
0100
0000
1000
0001
1000
0010
0100
0001
,
2000
3000
0001
0010
0001
0000
0100
0001
0100
0000
0001
1000
0100
0010
0001
0010
,
0200
0300
1000
0001
1000
0000
0001
0100
0001
0000
0010
0100
0010
0001
1000
0001
,
0200
0300
0001
1000
0001
0000
1000
0100
1000
0000
0001
0010
0100
0010
0001
1000
,
0001
0100
0001
0100
0010
1000
0010
1000
0100
0010
0001
1000
0010
0100
0001
0010
,
0001
1000
0010
1000
0001
0010
0100
1000
0001
0100
0010
1000
0001
0010
0001
1000
,
0010
0100
0010
1000
0001
0010
0100
0010
0001
1000
0010
1000
0001
0010
0100
1000
,
0001
0100
0010
1000
0001
0010
0001
1000
0010
0100
0001
1000
0100
0010
0100
1000
,
0010
0100
0001
1000
0100
0010
0001
1000
0001
0100
0010
1000
0001
0010
0001
1000
,
0010
0100
0010
1000
0001
0010
0100
1000
0001
0100
0010
0100
0001
1000
0100
0010
,
0001
1000
0010
1000
0001
0010
0100
0010
0001
1000
0001
0100
0001
0010
0100
1000
,
0001
1000
0010
0100
0001
1000
0100
1000
0001
1000
0010
0100
0001
1000
0100
1000
,
0001
0100
0001
0100
0010
1000
0001
1000
0100
0010
0100
0010
0001
0010
0001
1000
,
0001
0010
0100
1000
0001
0100
0010
1000
0001
0010
0100
0010
0001
1000
0001
0100
,
0001
1000
0100
1000
0001
0100
0010
0100
0001
1000
0100
1000
0001
0100
0010
1000
,
0001
0010
0100
1000
0001
0100
0001
1000
0100
0010
0001
1000
0010
0100
0010
1000
,
0100
0010
0001
1000
0010
0100
0001
1000
0001
0010
0100
1000
0001
0100
0001
1000
,
0100
0010
0100
1000
0001
0100
0010
1000
0001
0010
0100
0010
0001
1000
0010
0100
,
0001
1000
0100
1000
0001
0100
0010
0100
0001
1000
0001
0010
0001
0100
0010
1000
,
0001
1000
0100
0010
0001
1000
0010
1000
0001
1000
0100
0010
0001
1000
0010
1000
,
0001
0010
0001
0010
0100
1000
0001
1000
0010
0100
0010
0100
0001
0100
0001
1000
,
0100
0010
0100
0010
0100
1000
0100
1000
0010
0100
0001
0100
0010
1000
0100
0010
,
0001
0010
0100
1000
0010
1000
0001
0100
0001
0100
0010
1000
0010
1000
0001
1000
,
0100
0010
0100
0010
0100
1000
0100
1000
0010
0100
0001
0100
0010
1000
0100
0010
,
0001
0010
0100
1000
0010
1000
0001
0100
0001
0100
0010
1000
0010
1000
0100
0010
,
0001
0100
0001
0100
0001
1000
0001
1000
0100
0010
0001
0010
0100
1000
0010
0100
,
0001
0100
0010
1000
0100
1000
0001
0010
0001
0010
0100
1000
0100
1000
0001
1000
,
0001
0100
0001
0100
0001
1000
0001
1000
0100
0010
0001
0010
0100
1000
0010
0100
,
0001
0100
0010
1000
0100
1000
0001
0010
0100
1000
0100
1000
0001
0010
0001
1000
,
0010
0100
0010
0100
0010
1000
0010
1000
0100
0010
0001
0010
0100
1000
0010
0100
,
0001
0100
0010
1000
0100
1000
0001
0010
0001
0010
0100
1000
0100
1000
0001
1000
,
0010
0100
0010
0100
0010
1000
0010
1000
0100
0010
0001
0010
0100
1000
0010
0100
,
0001
0100
0010
1000
0100
1000
0001
0010
0001
0010
0100
1000
0100
1000
0010
0100
,
0001
0010
0001
0010
0001
1000
0001
1000
0010
0100
0001
0100
0010
1000
0100
0010
,
0001
0010
0100
1000
0010
1000
0001
0100
0001
0100
0010
1000
0010
1000
0001
1000
,
0001
0010
0001
0010
0001
1000
0001
1000
0010
0100
0001
0100
0010
1000
0100
0010
,
0001
0010
0100
1000
0010
1000
0001
0100
0010
1000
0010
1000
0001
1000
0001
0010
,
0001
0000
2002
0000
0000
3003
0000
0000
2020
0000
0000
3030
1000
0000
1000
0000
,
2200
3300
0100
0000
0010
0000
0012
0000
0000
0000
0000
0000
2000
0000
0000
0000
,
0000
0000
0000
0000
,
0000
0000
0000
0000
,
3003
0000
0000
0000
,
0000
0000
0000
0000
,
0000
0000
0000
0000
,
M00M
0000
0000
0000
;
