#TITLE:Owen The Speedster vs. Jerod The Drummer;
#SUBTITLE:(The Ultimate Battle);
#ARTIST:owenviau1;
#TITLETRANSLIT:;
#SUBTITLETRANSLIT:;
#ARTISTTRANSLIT:;
#CREDIT:owenviau1;
#BANNER:BN.png;
#BACKGROUND:BG.png;
#LYRICSPATH:;
#CDTITLE:;
#MUSIC:Owen The Speedster vs. Jerod The Drummer (The Ultimate Battle).mp3;
#OFFSET:-0.069;
#SAMPLESTART:202.064;
#SAMPLELENGTH:29.999;
#SELECTABLE:YES;
#DISPLAYBPM:120.000:240.000;
#BPMS:0.000=240.000,416.000=60.000,442.000=120.000,746.000=60.000,777.000=80.000,778.000=240.000,779.000=60.000;
#STOPS:;
#BGCHANGES:;
// cache tags:
#FIRSTBEAT:0.000;
#LASTBEAT:779.250;
#SONGFILENAME:Songs/owenviau1 (2016) (Pad & Index)/Owen The Speedster vs. Jerod The Drummer - [owenviau1] v1.0.1/Owen The Speedster vs. Jerod The Drummer.sm;
#HASMUSIC:1;
#HASBANNER:1;
#MUSICLENGTH:315.141;
// end cache tags

//---------------dance-single - 19.97 (20-) (owenvia----------------
#NOTES:
     dance-single:
     19.97 (20-) (owenvia:
     Challenge:
     20:
     1.000,1.000,0.102,0.251,1.000,2597.000,32.000,79.000,0.000,6.000:

1000
0100
0010
0000
0001
0100
0010
0000
1000
0000
0001
0100
0010
0000
1000
0100
,
0010
0001
0100
0000
0010
1000
0001
0000
0010
0000
0100
1000
0010
0100
0001
1000
,
0100
0010
0001
0000
1000
0010
1000
0000
0100
0000
0010
0001
0100
0000
0010
1000
,
0001
0010
0100
0000
1000
0001
0100
0000
0010
0000
0100
0001
1000
0000
0100
0010
,
0001
1000
0010
0000
0100
0001
1000
0000
0100
0000
0010
0001
0100
0000
0010
1000
,
0001
0010
0100
0000
1000
0010
0100
0000
0010
0000
1000
0001
0010
0000
0100
1000
,
0010
0100
0001
0000
1000
0100
1000
0000
0010
0000
0100
0001
0010
0000
0100
1000
,
0001
0100
0010
0000
0100
0001
1000
0000
0100
0000
0010
0001
0100
0000
0010
1000
,
0001
0000
0100
0010
1000
0000
0100
0010
0001
0000
0100
0010
1000
0000
0001
0010
,
0001
0000
0100
0010
1000
0000
0001
0010
0100
0000
1000
0010
0100
0000
0001
1000
,
0100
0000
0010
0001
1000
0000
0010
0100
0010
0000
1000
0001
0100
0000
0010
1000
,
0001
0000
0010
0001
0100
0000
0010
1000
0001
0000
0100
0010
0100
0000
0001
1000
,
0010
0000
0100
0001
0010
0000
0100
1000
0010
0000
0100
0001
0100
0000
0010
1000
,
0001
0000
0010
0100
1000
0000
0001
0100
0001
0000
0010
0100
1000
0000
0001
0010
,
0100
0000
1000
0010
0100
0000
0001
1000
0100
0000
0010
0001
1000
0000
0010
0100
,
0010
0000
1000
0001
0100
0000
0010
1000
0001
0000
0010
0001
0100
0000
0010
1000
,
0001
0000
0100
0010
0100
0000
0001
1000
0010
0000
0100
0001
0010
0000
0100
1000
,
0010
0000
0100
0001
0100
0000
0010
1000
0001
0000
0010
0100
1000
0000
0001
0010
,
0001
0000
0100
0010
1000
0000
0001
0010
0100
0000
1000
0010
0100
0000
0001
1000
,
0100
0000
0010
0001
1000
0000
0010
0100
0010
0000
1000
0001
0100
0000
0010
1000
,
0001
0000
0010
0001
0100
0000
0010
1000
0001
0000
0100
0010
0100
0000
0001
1000
,
0010
0000
0100
0001
0010
0000
0100
1000
0010
0000
0100
0001
0100
0000
0010
1000
,
0001
0000
0010
0100
1000
0000
0001
0010
0100
0000
1000
0010
0100
0000
0001
1000
,
0100
0000
0010
0001
1000
0000
0010
0100
0010
0000
1000
0001
0100
0000
0010
1000
,
0001
0100
0010
0100
0001
1000
0100
0010
,
0001
0100
0010
1000
0001
0100
0001
1000
,
0010
0100
0001
1000
0100
0010
0001
0100
,
0010
1000
0001
0010
0001
0100
0010
1000
,
0001
0010
0100
1000
0010
0100
0001
1000
,
0100
1000
0001
0100
0010
1000
0001
0010
,
0001
1000
0100
0010
0001
0100
0010
1000
,
0001
0010
0100
1000
0010
0100
0001
1000
,
0100
0000
0010
0001
0100
0010
1000
0001
0100
0001
0010
0100
1000
0010
0100
0001
,
1000
0100
0010
0001
0100
0010
1000
0001
0010
0001
0100
0010
0100
0001
1000
0010
,
1000
0100
0010
0001
0100
0010
1000
0001
0010
0100
1000
0001
0010
0001
0100
0010
,
1000
0100
0010
0001
0100
0001
1000
0010
0100
0001
0010
0100
1000
0001
0010
0001
,
0100
0010
1000
0001
0010
0100
1000
0001
0100
0001
0010
0100
1000
0010
0100
0001
,
1000
0010
1000
0100
0010
0001
0100
0010
1000
0001
0010
0001
0100
0010
1000
0001
,
0010
0001
1000
0100
1000
0010
0100
0001
1000
0100
0010
0001
0100
0010
0100
0001
,
1000
0100
0010
0001
1000
0010
0100
0010
1000
0001
0010
0001
0100
0010
0100
0001
,
1000
0100
0010
0001
0100
0010
1000
0001
,
0100
0001
1000
0010
0100
0001
1000
0100
,
0010
0001
0100
0010
1000
0001
0010
0001
,
0100
0010
1000
0001
0010
0100
1000
0010
,
0100
0001
1000
0100
1000
0001
0100
0010
,
1000
0001
0010
0001
1000
0100
0010
0001
,
0100
0010
1000
0001
0010
0100
1000
0010
,
0100
0001
1000
0100
0010
0001
0100
0010
,
1000
0001
0100
0001
1000
0010
0100
0001
,
1000
0100
0010
0001
0100
0010
1000
0001
,
0010
0001
0100
0010
1000
0001
0010
0100
,
1000
0010
0100
0001
1000
0100
1000
0001
,
0100
0010
1000
0001
0010
0001
1000
0100
,
0010
0001
0100
0010
1000
0001
0010
0100
,
1000
0010
0100
0001
1000
0100
0010
0001
,
0100
0010
1000
0001
0100
0001
1000
0010
,
0100
0001
1000
0100
0010
0001
0100
0010
,
1000
0001
0010
0001
0100
0010
1000
0001
,
0010
0100
1000
0010
0100
0001
1000
0100
,
1000
0001
0100
0010
1000
0001
0010
0001
,
1000
0100
0010
0001
0100
0010
1000
0001
0100
0001
1000
0010
0100
0001
0010
0100
,
1000
0010
0100
0001
0100
0010
1000
0100
0010
0001
1000
0010
1000
0001
0100
0001
,
0010
0100
1000
0010
0100
0001
1000
0100
1000
0010
0100
0001
0010
0100
1000
0001
,
0020
0030
0002
0003
0200
0300
0020
0030
2000
3000
0002
0003
0200
0300
0002
0003
4000
3000
0400
0300
0040
0030
0004
0003
0400
0300
0040
0030
0400
0300
0004
0003
,
1000
0010
0100
0001
1000
0100
0010
0001
0100
0010
1000
0001
0010
0001
0100
0010
,
0100
0001
1000
0010
1000
0100
0010
0001
0100
0010
1000
0001
0010
0100
1000
0001
,
0010
0001
0100
0010
1000
0100
0010
0001
0100
0001
1000
0010
0100
0001
0010
0100
,
1000
0001
0010
0001
0100
0010
1000
0001
0010
0100
1000
0001
0100
0001
0010
0100
,
1000
0010
0100
0001
1000
0010
1000
0100
0010
0001
0100
0010
1000
0001
0010
0001
,
0100
0010
1000
0001
0010
0001
1000
0100
1000
0010
0100
0001
1000
0100
0010
0001
,
0100
0010
0100
0001
1000
0100
0010
0001
1000
0010
0100
0010
1000
0001
0010
0001
,
0100
0010
0100
0001
1000
0010
0100
0001
1000
0100
0010
0001
0100
0010
1000
0001
,
0010
0001
0100
0010
0100
0001
1000
0010
1000
0100
0010
0001
0100
0010
1000
0001
,
0010
0100
1000
0001
0010
0001
0100
0010
1000
0100
0010
0001
0100
0001
1000
0010
,
0100
0001
0010
0100
1000
0001
0010
0001
0100
0010
1000
0001
0010
0100
1000
0001
,
0100
0001
0010
0100
1000
0010
0100
0001
1000
0010
1000
0100
0010
0001
0100
0010
,
1000
0001
0010
0001
0100
0010
1000
0001
0010
0001
1000
0100
1000
0010
0100
0001
,
1000
0100
0010
0001
0100
0010
0100
0001
1000
0100
0010
0001
1000
0010
0100
0010
,
1000
0001
0010
0001
0100
0010
0100
0001
1000
0010
0100
0001
1000
0100
0010
0001
,
0100
0010
1000
0001
0010
0001
0100
0010
0100
0001
1000
0010
1000
0100
0010
0001
,
0100
0010
1000
0001
0010
0100
1000
0001
0010
0001
0100
0010
1000
0100
0010
0001
,
0100
0001
1000
0010
0100
0001
0010
0100
1000
0001
0010
0001
0100
0010
1000
0001
,
0010
0100
1000
0001
0100
0001
0010
0100
1000
0010
0100
0001
1000
0010
1000
0100
,
0010
0001
0100
0010
1000
0001
0010
0001
0100
0010
1000
0001
0010
0001
1000
0100
,
1000
0010
0100
0001
1000
0100
0010
0001
0100
0010
0100
0001
1000
0100
0010
0001
,
1000
0010
0100
0010
1000
0001
0010
0001
0100
0010
0100
0001
1000
0010
0100
0001
,
1000
0100
0010
0001
0100
0010
1000
0001
0010
0001
0100
0010
0100
0001
1000
0010
,
1000
0100
0010
0001
0100
0010
1000
0001
0010
0100
1000
0001
0010
0001
0100
0010
,
1000
0100
0010
0001
0100
0001
1000
0010
0100
0001
0010
0100
1000
0001
0010
0001
,
0100
0010
1000
0001
0010
0100
1000
0001
0100
0001
0010
0100
1000
0010
0100
0001
,
1000
0010
1000
0100
0010
0001
0100
0010
1000
0001
0010
0001
0100
0010
1000
0001
,
0010
0001
1000
0100
1000
0010
0100
0001
1000
0100
0010
0001
0100
0010
0100
0001
,
1000
0100
0010
0001
1000
0010
0100
0010
1000
0001
0010
0001
0100
0010
0100
0001
,
1000
0010
0100
0001
1000
0100
0010
0001
0100
0010
1000
0001
0010
0001
0100
0010
,
0100
0001
1000
0010
1000
0100
0010
0001
0100
0010
1000
0001
0010
0100
1000
0001
,
0010
0001
0100
0010
1000
0100
0010
0001
0100
0001
1000
0010
0100
0001
0010
0100
,
1000
0001
0010
0001
0100
0010
1000
0001
0010
0100
1000
0001
0100
0001
0010
0100
,
1000
0010
0100
0001
1000
0010
1000
0100
0010
0001
0100
0010
1000
0001
0010
0001
,
0100
0010
1000
0001
0010
0001
1000
0100
1000
0010
0100
0001
1000
0100
0010
0001
,
0100
0010
0100
0001
1000
0100
0010
0001
1000
0010
0100
0010
1000
0001
0010
0001
,
0100
0010
0100
0001
1000
0010
0100
0001
1000
0100
0010
0001
0100
0010
1000
0001
,
0010
0001
0100
0010
0100
0001
1000
0010
1000
0100
0010
0001
0100
0010
1000
0001
,
0010
0100
1000
0001
0010
0001
0100
0010
1000
0100
0010
0001
0100
0001
1000
0010
,
0100
0001
0010
0100
1000
0001
0010
0001
0100
0010
1000
0001
0010
0100
1000
0001
,
0200
0000
0320
0000
,
2030
0000
3002
0000
,
0203
0000
0000
0000
0000
0020
0000
0300
2000
0000
0000
0000
0000
0000
0000
0000
,
3032
0000
0000
0000
0000
0200
0000
0003
0020
0000
0000
0000
0000
0000
0000
0000
,
2300
0000
0000
0032
3200
0000
0000
0000
,
2303
0000
0000
0020
3200
0000
0000
0000
,
0300
0000
0030
0000
2000
3000
2000
3000
,
2000
0000
0000
3010
0000
0000
0100
0000
0000
0001
1000
0001
1000
0000
0000
0010
0000
0000
0100
0000
0000
0010
0000
0000
,
1000
0000
0000
0001
0000
0000
0010
0000
0000
0100
1000
0100
2000
0000
0000
3000
0000
0000
2000
0000
0000
3000
0000
0000
,
2000
0000
0000
3100
0000
0000
0010
0000
0000
0001
0100
0001
0100
0000
0000
0010
0000
0000
1000
0000
0000
0100
0000
0000
,
0010
0001
2000
0000
3002
0003
0002
0003
,
0002
0000
0000
0103
0000
0000
0010
0000
0000
1000
0100
1000
0100
0000
0000
0010
0000
0000
0001
0000
0000
0100
0000
0000
,
0010
0000
0000
1000
0000
0000
0001
0000
0000
0010
0100
0010
0200
0000
0000
0300
0000
0000
0200
0000
0000
0300
0000
0000
,
0200
0000
0000
0310
0000
0000
1000
0000
0000
0001
0100
0001
0100
0000
0000
0010
0000
0000
1000
0000
0000
0100
0000
0000
,
0010
0001
2000
0000
3002
0003
0002
0003
,
0002
0000
0000
0103
0000
0000
0010
0000
0000
1000
0100
1000
0100
0000
0000
0010
0000
0000
0001
0000
0000
0100
0000
0000
,
0010
0000
0000
1000
0000
0000
0001
0000
0000
0010
0100
0010
0200
0000
0000
0300
0000
0000
0200
0000
0000
0300
0000
0000
,
0200
0000
0000
0310
0000
0000
1000
0000
0000
0001
0100
0001
0100
0000
0000
0010
0000
0000
1000
0000
0000
0100
0000
0000
,
0010
0001
0100
0010
2000
3000
2000
3000
,
2000
0000
0000
3010
0000
0000
0100
0000
0000
0001
1000
0001
1000
0000
0000
0010
0000
0000
0100
0000
0000
0010
0000
0000
,
1000
0000
0000
0001
0000
0000
0010
0000
0000
0100
1000
0100
2000
0000
0000
3000
0000
0000
2000
0000
0000
3000
0000
0000
,
2000
0000
0000
3100
0000
0000
0010
0000
0000
0001
0100
0001
0100
0000
0000
0010
0000
0000
1000
0000
0000
0100
0000
0000
,
0010
0000
0001
0000
1000
0010
0100
0000
0002
0000
0003
0000
0002
0000
0003
0000
,
0002
0000
0000
0103
0000
0000
0010
0000
0000
1000
0100
1000
0100
0000
0000
0010
0000
0000
0001
0000
0000
0100
0000
0000
,
0010
0000
0000
1000
0000
0000
0001
0000
0000
0010
0100
0010
0200
0000
0000
0300
0000
0000
0200
0000
0000
0300
0000
0000
,
0200
0000
0000
0310
0000
0000
1000
0000
0000
0001
0100
0001
0100
0000
0000
0010
0000
0000
1000
0000
0000
0100
0000
0000
,
0010
0001
0200
0000
0310
1000
0001
0100
,
0001
1000
0100
0010
0001
0100
0010
1000
,
0001
0010
0100
1000
0001
0010
0001
1000
,
0100
0010
0001
0100
0010
0100
0001
1000
,
0010
0000
0100
0000
0001
0000
1000
0000
0100
0010
0001
0100
0010
1000
0001
0100
,
0001
1000
0010
0100
0001
1000
0100
0010
0001
0100
0010
1000
0001
0010
0001
0100
,
0010
0000
0100
0000
0001
0000
1000
0000
0100
0000
0010
0000
0001
0000
1000
0000
0010
0100
0001
1000
0100
0010
0001
0100
0010
1000
0001
0100
0001
1000
0010
0100
,
0010
1000
0100
0010
0001
0100
0010
1000
0001
0010
0100
1000
0010
0100
0001
1000
0100
0010
0001
0100
0010
1000
0001
0010
0100
1000
0010
0100
0001
1000
0100
0010
,
0001
0000
0000
0000
0000
0000
0100
0000
0000
0000
0000
0000
0010
0000
0000
0000
0000
0000
1000
0000
0000
0000
0000
0000
0001
0000
0000
0000
0000
0000
0010
0000
0000
0000
0000
0000
0001
0000
0000
0000
0000
0000
0100
0000
0000
0000
0000
0000
0010
0000
0000
0000
0000
0000
1000
0000
0000
0000
0000
0000
0100
0000
0000
0000
0000
0000
0010
0000
0000
0000
0000
0000
0001
0000
0000
0000
0000
0000
0100
0000
0000
0000
0000
0000
0010
0000
0000
0000
0000
0000
1000
0000
0000
0000
0000
0000
0001
0000
0000
0000
0000
0000
0000
0000
0010
0000
0000
0000
0000
0000
0000
0000
0100
0000
0000
0000
0000
0000
0000
0000
1000
0000
0000
0000
0000
0000
0000
0000
0010
0000
0000
0000
0000
0000
0000
0000
0100
0000
0000
0000
0000
0000
0000
0000
0001
0000
0000
0000
0000
0000
0000
0000
1000
0000
0000
0000
0000
0000
0000
0000
0100
0000
0000
0000
0000
0000
0000
0000
1000
0000
0000
0000
0000
0000
0000
0000
0010
0000
0000
0000
0000
0000
0000
0000
0100
0000
0000
0000
0000
0000
0000
0000
,
0001
1000
0100
0010
0001
0100
0010
1000
0010
0100
0001
1000
0100
0010
0001
0100
0010
1000
0001
0010
0100
1000
0010
0100
,
0001
0100
0010
1000
0001
1000
0100
0010
0001
0100
0010
1000
0001
0010
0001
0100
0010
1000
0001
0100
0001
0010
0100
1000
,
0010
0100
0001
1000
0100
0010
0001
0100
0010
1000
0100
1000
0001
0010
0001
0100
0010
1000
0001
0100
0001
1000
0100
0010
,
0001
0100
0010
1000
0001
0010
0001
0100
0010
1000
0010
0100
0001
0010
0100
1000
0010
0100
0001
1000
0100
1000
0010
0100
,
0001
1000
0100
0010
0001
0100
0010
1000
0010
0100
0001
1000
0100
0010
0001
0100
0010
1000
0001
0010
0100
1000
0010
0100
,
0001
0100
0010
1000
0001
1000
0100
0010
0001
0100
0010
1000
0001
0010
0001
0100
0010
1000
0001
0100
0001
0010
0100
1000
,
0010
0100
0001
1000
0100
0010
0001
0100
0010
1000
0100
1000
0001
0010
0001
0100
0010
1000
0001
0100
0001
1000
0100
0010
,
0001
0100
0010
1000
0001
0010
0001
0100
0010
1000
0010
0100
0001
0010
0100
1000
0010
0100
0001
1000
0100
1000
0010
0100
,
0001
1000
0100
0010
0001
0100
0010
1000
0010
0100
0001
1000
0100
0010
0001
0100
0010
1000
0001
0010
0100
1000
0010
0100
,
0001
0100
0010
1000
0001
1000
0100
0010
0001
0100
0010
1000
0001
0010
0001
0100
0010
1000
0001
0100
0001
0010
0100
1000
,
0010
0100
0001
1000
0100
0010
0001
0100
0010
1000
0100
1000
0001
0010
0001
0100
0010
1000
0001
0100
0001
1000
0100
0010
,
0001
0100
0010
1000
0001
0010
0001
0100
0010
1000
0010
0100
0001
0010
0100
1000
0010
0100
0001
1000
0100
1000
0010
0100
,
0001
1000
0100
0010
0001
0100
0010
1000
0010
0100
0001
1000
0100
0010
0001
0100
0010
1000
0001
0010
0100
1000
0010
0100
,
0001
0100
0010
1000
0001
1000
0100
0010
0001
0100
0010
1000
0001
0010
0001
0100
0010
1000
0001
0100
0001
0010
0100
1000
,
0010
0100
0001
1000
0100
0010
0001
0100
0010
1000
0100
1000
0001
0010
0001
0100
0010
1000
0001
0100
0001
1000
0100
0010
,
0001
0100
0010
1000
0001
0010
0001
0100
0010
1000
0010
0100
0001
0010
0100
1000
0010
0100
0001
1000
0100
1000
0010
0100
,
0001
1000
0100
0010
0001
0100
0010
1000
0010
0100
0001
1000
0100
0010
0001
0100
0010
1000
0001
0010
0100
1000
0010
0100
,
0001
0100
0010
1000
0001
1000
0100
0010
0001
0100
0010
1000
0001
0010
0001
0100
0010
1000
0001
0100
0001
0010
0100
1000
,
0010
0100
0001
1000
0100
0010
0001
0100
0010
1000
0100
1000
0001
0010
0001
0100
0010
1000
0001
0100
0001
1000
0100
0010
,
0001
0100
0010
1000
0001
0010
0001
0100
0010
1000
0010
0100
0001
0010
0100
1000
0010
0100
0001
1000
0100
1000
0010
0100
,
0001
1000
0100
0010
0001
0100
0010
1000
0010
0100
0001
1000
0100
0010
0001
0100
0010
1000
0001
0010
0100
1000
0010
0100
,
0001
0100
0010
1000
0001
1000
0100
0010
0001
0100
0010
1000
0001
0010
0001
0100
0010
1000
0001
0100
0001
0010
0100
1000
,
0010
0100
0001
1000
0100
0010
0001
0100
0010
1000
0100
1000
0001
0010
0001
0100
0010
1000
0001
0100
0001
1000
0100
0010
,
0001
0100
0010
1000
0001
0010
0001
0100
0010
1000
0010
0100
0001
0010
0100
1000
0010
0100
0001
1000
0100
1000
0010
0100
,
0001
1000
0100
0010
0001
0100
0010
1000
0010
0100
0001
1000
0100
0010
0001
0100
0010
1000
0001
0010
0100
1000
0010
0100
,
0001
0100
0010
1000
0001
1000
0100
0010
0001
0100
0010
1000
0001
0010
0001
0100
0010
1000
0001
0100
0001
0010
0100
1000
,
0010
0100
0001
1000
0100
0010
0001
0100
0010
1000
0100
1000
0001
0010
0001
0100
0010
1000
0001
0100
0001
1000
0100
0010
,
0001
0100
0010
1000
0001
0010
0001
0100
0010
1000
0010
0100
0001
0010
0100
1000
0010
0100
0001
1000
0100
1000
0010
0100
,
0001
1000
0100
0010
0001
0100
0010
1000
0010
0100
0001
1000
0100
0010
0001
0100
0010
1000
0001
0010
0100
1000
0010
0100
,
0001
0100
0010
1000
0001
1000
0100
0010
0001
0100
0010
1000
0001
0010
0001
0100
0010
1000
0001
0100
0001
0010
0100
1000
,
0010
0100
0001
1000
0100
0010
0001
0100
0010
1000
0100
1000
0001
0010
0001
0100
0010
1000
0001
0100
0001
1000
0100
0010
,
0001
0000
0100
0000
0010
0000
1000
0000
0001
0000
0010
0000
0001
0000
0100
0000
0010
0000
1000
0000
0010
0000
0100
0000
0001
0000
0000
1000
0000
0000
0001
0000
0000
0010
0000
0000
0100
0000
0000
1000
0000
0000
0001
0000
0000
0100
0000
0000
,
0001
1000
0010
0100
0001
1000
0100
0010
0001
0100
0010
1000
0001
0010
0001
0100
,
0010
0100
0001
1000
0100
0010
0001
1000
0100
0010
0001
0100
0010
1000
0001
0100
,
0001
1000
0010
0100
0001
1000
0100
0010
0001
0100
0010
1000
0001
0010
0001
0100
,
0010
0100
0001
1000
0100
0010
0001
0100
0010
1000
0001
0100
0001
1000
0010
0100
,
0001
1000
0100
0010
0001
0100
0010
1000
0001
0010
0001
0100
0010
0100
0001
1000
,
0100
0010
0001
0100
0010
1000
0001
0100
0001
1000
0010
0100
0001
1000
0100
0010
,
0001
0100
0010
1000
0001
0010
0001
0100
0010
0100
0001
1000
0100
0010
0001
0100
,
0010
1000
0001
0100
0001
1000
0010
0100
0001
0000
0000
0101
0000
0000
0101
0000
,
0000
0000
0101
0000
0000
0000
0000
0000
1010
0000
0000
1010
0000
0000
1010
0000
,
0000
0000
1010
0000
0000
0000
0000
0000
1001
0000
0000
1001
0000
0000
1001
0000
,
0000
0000
1001
0000
0000
0000
0000
0000
0110
0000
0000
0110
0000
0000
0110
0000
,
0000
0000
0110
0000
0000
0000
0000
0000
1100
0000
0000
1100
0000
0000
1100
0000
,
0000
0000
1100
0000
0000
0000
0000
0000
0011
0000
0000
0011
0000
0000
0011
0000
,
0000
0000
0011
0000
0000
0000
0000
0000
0101
0000
0000
0101
0000
0000
0101
0000
,
0000
0000
0101
0000
0000
0000
0000
0000
1001
0000
0000
1001
0000
0000
1001
0000
,
0000
1001
0000
0000
2000
0000
0000
0000
,
3200
0000
0000
0000
0000
0000
0000
0300
0020
0000
0000
0000
0000
0000
0000
0000
,
0032
0000
0000
0003
2000
0000
0000
0000
,
3020
0000
0000
0000
0000
0000
0000
0030
0200
0000
0000
0000
0000
0000
0000
0000
,
0302
0000
0000
0000
0000
0000
0003
0000
2000
0000
0000
3020
0000
0000
0230
0000
,
0000
0000
0000
0000
0000
0000
0000
0000
0000
0000
0000
0000
0300
0000
0000
0000
0002
0000
0000
0000
2003
0000
0000
0000
0000
3200
0000
0000
0000
0000
0000
0000
,
0000
0000
0000
0000
0300
0000
0000
0000
2000
0000
0000
3002
0000
0000
0023
0000
,
0000
0000
0000
0000
0000
0000
0000
0000
0000
0000
0000
0000
0030
0000
0000
0000
0002
0000
0000
0000
2003
0000
0000
0000
0000
3200
0000
0000
0000
0000
0000
0000
,
0000
0000
0000
0000
0300
0000
0000
0000
0000
0000
0000
0000
2002
3003
0000
0000
;

//---------------dance-single - ----------------
#NOTES:
     dance-single:
     :
     Edit:
     20:
     1.000,1.000,0.102,0.251,1.000,2597.000,32.000,79.000,0.000,6.000:

1000
0100
0010
0000
0001
0100
0010
0000
1000
0000
0001
0100
0010
0000
1000
0100
,
0010
0001
0100
0000
0010
1000
0001
0000
0010
0000
0100
1000
0010
0100
0001
1000
,
0100
0010
0001
0000
1000
0010
1000
0000
0100
0000
0010
0001
0100
0000
0010
1000
,
0001
0010
0100
0000
1000
0001
0100
0000
0010
0000
0100
0001
1000
0000
0100
0010
,
0001
1000
0010
0000
0100
0001
1000
0000
0100
0000
0010
0001
0100
0000
0010
1000
,
0001
0010
0100
0000
1000
0010
0100
0000
0010
0000
1000
0001
0010
0000
0100
1000
,
0010
0100
0001
0000
1000
0100
1000
0000
0010
0000
0100
0001
0010
0000
0100
1000
,
0001
0100
0010
0000
0100
0001
1000
0000
0100
0000
0010
0001
0100
0000
0010
1000
,
0001
0000
0100
0010
1000
0000
0100
0010
0001
0000
0100
0010
1000
0000
0001
0010
,
0001
0000
0100
0010
1000
0000
0001
0010
0100
0000
1000
0010
0100
0000
0001
1000
,
0100
0000
0010
0001
1000
0000
0010
0100
0010
0000
1000
0001
0100
0000
0010
1000
,
0001
0000
0010
0001
0100
0000
0010
1000
0001
0000
0100
0010
0100
0000
0001
1000
,
0010
0000
0100
0001
0010
0000
0100
1000
0010
0000
0100
0001
0100
0000
0010
1000
,
0001
0000
0010
0100
1000
0000
0001
0100
0001
0000
0010
0100
1000
0000
0001
0010
,
0100
0000
1000
0010
0100
0000
0001
1000
0100
0000
0010
0001
1000
0000
0010
0100
,
0010
0000
1000
0001
0100
0000
0010
1000
0001
0000
0010
0001
0100
0000
0010
1000
,
0001
0000
0100
0010
0100
0000
0001
1000
0010
0000
0100
0001
0010
0000
0100
1000
,
0010
0000
0100
0001
0100
0000
0010
1000
0001
0000
0010
0100
1000
0000
0001
0010
,
0001
0000
0100
0010
1000
0000
0001
0010
0100
0000
1000
0010
0100
0000
0001
1000
,
0100
0000
0010
0001
1000
0000
0010
0100
0010
0000
1000
0001
0100
0000
0010
1000
,
0001
0000
0010
0001
0100
0000
0010
1000
0001
0000
0100
0010
0100
0000
0001
1000
,
0010
0000
0100
0001
0010
0000
0100
1000
0010
0000
0100
0001
0100
0000
0010
1000
,
0001
0000
0010
0100
1000
0000
0001
0010
0100
0000
1000
0010
0100
0000
0001
1000
,
0100
0000
0010
0001
1000
0000
0010
0100
0010
0000
1000
0001
0100
0000
0010
1000
,
0001
0100
0010
0100
0001
1000
0100
0010
,
0001
0100
0010
1000
0001
0100
0001
1000
,
0010
0100
0001
1000
0100
0010
0001
0100
,
0010
1000
0001
0010
0001
0100
0010
1000
,
0001
0010
0100
1000
0010
0100
0001
1000
,
0100
1000
0001
0100
0010
1000
0001
0010
,
0001
1000
0100
0010
0001
0100
0010
1000
,
0001
0010
0100
1000
0010
0100
0001
1000
,
0100
0000
0010
0001
0100
0010
1000
0001
0100
0001
0010
0100
1000
0010
0100
0001
,
1000
0100
0010
0001
0100
0010
1000
0001
0010
0001
0100
0010
0100
0001
1000
0010
,
1000
0100
0010
0001
0100
0010
1000
0001
0010
0100
1000
0001
0010
0001
0100
0010
,
1000
0100
0010
0001
0100
0001
1000
0010
0100
0001
0010
0100
1000
0001
0010
0001
,
0100
0010
1000
0001
0010
0100
1000
0001
0100
0001
0010
0100
1000
0010
0100
0001
,
1000
0010
1000
0100
0010
0001
0100
0010
1000
0001
0010
0001
0100
0010
1000
0001
,
0010
0001
1000
0100
1000
0010
0100
0001
1000
0100
0010
0001
0100
0010
0100
0001
,
1000
0100
0010
0001
1000
0010
0100
0010
1000
0001
0010
0001
0100
0010
0100
0001
,
1000
0100
0010
0001
0100
0010
1000
0001
,
0100
0001
1000
0010
0100
0001
1000
0100
,
0010
0001
0100
0010
1000
0001
0010
0001
,
0100
0010
1000
0001
0010
0100
1000
0010
,
0100
0001
1000
0100
1000
0001
0100
0010
,
1000
0001
0010
0001
1000
0100
0010
0001
,
0100
0010
1000
0001
0010
0100
1000
0010
,
0100
0001
1000
0100
0010
0001
0100
0010
,
1000
0001
0100
0001
1000
0010
0100
0001
,
1000
0100
0010
0001
0100
0010
1000
0001
,
0010
0001
0100
0010
1000
0001
0010
0100
,
1000
0010
0100
0001
1000
0100
1000
0001
,
0100
0010
1000
0001
0010
0001
1000
0100
,
0010
0001
0100
0010
1000
0001
0010
0100
,
1000
0010
0100
0001
1000
0100
0010
0001
,
0100
0010
1000
0001
0100
0001
1000
0010
,
0100
0001
1000
0100
0010
0001
0100
0010
,
1000
0001
0010
0001
0100
0010
1000
0001
,
0010
0100
1000
0010
0100
0001
1000
0100
,
1000
0001
0100
0010
1000
0001
0010
0001
,
1000
0100
0010
0001
0100
0010
1000
0001
0100
0001
1000
0010
0100
0001
0010
0100
,
1000
0010
0100
0001
0100
0010
1000
0100
0010
0001
1000
0010
1000
0001
0100
0001
,
0010
0100
1000
0010
0100
0001
1000
0100
1000
0010
0100
0001
0010
0100
1000
0001
,
0020
0030
0002
0003
0200
0300
0020
0030
2000
3000
0002
0003
0200
0300
0002
0003
4000
3000
0400
0300
0040
0030
0004
0003
0400
0300
0040
0030
0400
0300
0004
0003
,
1000
0010
0100
0001
1000
0100
0010
0001
0100
0010
1000
0001
0010
0001
0100
0010
,
0100
0001
1000
0010
1000
0100
0010
0001
0100
0010
1000
0001
0010
0100
1000
0001
,
0010
0001
0100
0010
1000
0100
0010
0001
0100
0001
1000
0010
0100
0001
0010
0100
,
1000
0001
0010
0001
0100
0010
1000
0001
0010
0100
1000
0001
0100
0001
0010
0100
,
1000
0010
0100
0001
1000
0010
1000
0100
0010
0001
0100
0010
1000
0001
0010
0001
,
0100
0010
1000
0001
0010
0001
1000
0100
1000
0010
0100
0001
1000
0100
0010
0001
,
0100
0010
0100
0001
1000
0100
0010
0001
1000
0010
0100
0010
1000
0001
0010
0001
,
0100
0010
0100
0001
1000
0010
0100
0001
1000
0100
0010
0001
0100
0010
1000
0001
,
0010
0001
0100
0010
0100
0001
1000
0010
1000
0100
0010
0001
0100
0010
1000
0001
,
0010
0100
1000
0001
0010
0001
0100
0010
1000
0100
0010
0001
0100
0001
1000
0010
,
0100
0001
0010
0100
1000
0001
0010
0001
0100
0010
1000
0001
0010
0100
1000
0001
,
0100
0001
0010
0100
1000
0010
0100
0001
1000
0010
1000
0100
0010
0001
0100
0010
,
1000
0001
0010
0001
0100
0010
1000
0001
0010
0001
1000
0100
1000
0010
0100
0001
,
1000
0100
0010
0001
0100
0010
0100
0001
1000
0100
0010
0001
1000
0010
0100
0010
,
1000
0001
0010
0001
0100
0010
0100
0001
1000
0010
0100
0001
1000
0100
0010
0001
,
0100
0010
1000
0001
0010
0001
0100
0010
0100
0001
1000
0010
1000
0100
0010
0001
,
0100
0010
1000
0001
0010
0100
1000
0001
0010
0001
0100
0010
1000
0100
0010
0001
,
0100
0001
1000
0010
0100
0001
0010
0100
1000
0001
0010
0001
0100
0010
1000
0001
,
0010
0100
1000
0001
0100
0001
0010
0100
1000
0010
0100
0001
1000
0010
1000
0100
,
0010
0001
0100
0010
1000
0001
0010
0001
0100
0010
1000
0001
0010
0001
1000
0100
,
1000
0010
0100
0001
1000
0100
0010
0001
0100
0010
0100
0001
1000
0100
0010
0001
,
1000
0010
0100
0010
1000
0001
0010
0001
0100
0010
0100
0001
1000
0010
0100
0001
,
1000
0100
0010
0001
0100
0010
1000
0001
0010
0001
0100
0010
0100
0001
1000
0010
,
1000
0100
0010
0001
0100
0010
1000
0001
0010
0100
1000
0001
0010
0001
0100
0010
,
1000
0100
0010
0001
0100
0001
1000
0010
0100
0001
0010
0100
1000
0001
0010
0001
,
0100
0010
1000
0001
0010
0100
1000
0001
0100
0001
0010
0100
1000
0010
0100
0001
,
1000
0010
1000
0100
0010
0001
0100
0010
1000
0001
0010
0001
0100
0010
1000
0001
,
0010
0001
1000
0100
1000
0010
0100
0001
1000
0100
0010
0001
0100
0010
0100
0001
,
1000
0100
0010
0001
1000
0010
0100
0010
1000
0001
0010
0001
0100
0010
0100
0001
,
1000
0010
0100
0001
1000
0100
0010
0001
0100
0010
1000
0001
0010
0001
0100
0010
,
0100
0001
1000
0010
1000
0100
0010
0001
0100
0010
1000
0001
0010
0100
1000
0001
,
0010
0001
0100
0010
1000
0100
0010
0001
0100
0001
1000
0010
0100
0001
0010
0100
,
1000
0001
0010
0001
0100
0010
1000
0001
0010
0100
1000
0001
0100
0001
0010
0100
,
1000
0010
0100
0001
1000
0010
1000
0100
0010
0001
0100
0010
1000
0001
0010
0001
,
0100
0010
1000
0001
0010
0001
1000
0100
1000
0010
0100
0001
1000
0100
0010
0001
,
0100
0010
0100
0001
1000
0100
0010
0001
1000
0010
0100
0010
1000
0001
0010
0001
,
0100
0010
0100
0001
1000
0010
0100
0001
1000
0100
0010
0001
0100
0010
1000
0001
,
0010
0001
0100
0010
0100
0001
1000
0010
1000
0100
0010
0001
0100
0010
1000
0001
,
0010
0100
1000
0001
0010
0001
0100
0010
1000
0100
0010
0001
0100
0001
1000
0010
,
0100
0001
0010
0100
1000
0001
0010
0001
0100
0010
1000
0001
0010
0100
1000
0001
,
0200
0000
0320
0000
,
2030
0000
3002
0000
,
0203
0000
0000
0000
0000
0020
0000
0300
2000
0000
0000
0000
0000
0000
0000
0000
,
3032
0000
0000
0000
0000
0200
0000
0003
0020
0000
0000
0000
0000
0000
0000
0000
,
2300
0000
0000
0032
3200
0000
0000
0000
,
2303
0000
0000
0020
3200
0000
0000
0000
,
0300
0000
0030
0000
2000
3000
2000
3000
,
2000
0000
0000
3010
0000
0000
0100
0000
0000
0001
1000
0001
1000
0000
0000
0010
0000
0000
0100
0000
0000
0010
0000
0000
,
1000
0000
0000
0001
0000
0000
0010
0000
0000
0100
1000
0100
2000
0000
0000
3000
0000
0000
2000
0000
0000
3000
0000
0000
,
2000
0000
0000
3100
0000
0000
0010
0000
0000
0001
0100
0001
0100
0000
0000
0010
0000
0000
1000
0000
0000
0100
0000
0000
,
0010
0001
2000
0000
3002
0003
0002
0003
,
0002
0000
0000
0103
0000
0000
0010
0000
0000
1000
0100
1000
0100
0000
0000
0010
0000
0000
0001
0000
0000
0100
0000
0000
,
0010
0000
0000
1000
0000
0000
0001
0000
0000
0010
0100
0010
0200
0000
0000
0300
0000
0000
0200
0000
0000
0300
0000
0000
,
0200
0000
0000
0310
0000
0000
1000
0000
0000
0001
0100
0001
0100
0000
0000
0010
0000
0000
1000
0000
0000
0100
0000
0000
,
0010
0001
2000
0000
3002
0003
0002
0003
,
0002
0000
0000
0103
0000
0000
0010
0000
0000
1000
0100
1000
0100
0000
0000
0010
0000
0000
0001
0000
0000
0100
0000
0000
,
0010
0000
0000
1000
0000
0000
0001
0000
0000
0010
0100
0010
0200
0000
0000
0300
0000
0000
0200
0000
0000
0300
0000
0000
,
0200
0000
0000
0310
0000
0000
1000
0000
0000
0001
0100
0001
0100
0000
0000
0010
0000
0000
1000
0000
0000
0100
0000
0000
,
0010
0001
0100
0010
2000
3000
2000
3000
,
2000
0000
0000
3010
0000
0000
0100
0000
0000
0001
1000
0001
1000
0000
0000
0010
0000
0000
0100
0000
0000
0010
0000
0000
,
1000
0000
0000
0001
0000
0000
0010
0000
0000
0100
1000
0100
2000
0000
0000
3000
0000
0000
2000
0000
0000
3000
0000
0000
,
2000
0000
0000
3100
0000
0000
0010
0000
0000
0001
0100
0001
0100
0000
0000
0010
0000
0000
1000
0000
0000
0100
0000
0000
,
0010
0000
0001
0000
1000
0010
0100
0000
0002
0000
0003
0000
0002
0000
0003
0000
,
0002
0000
0000
0103
0000
0000
0010
0000
0000
1000
0100
1000
0100
0000
0000
0010
0000
0000
0001
0000
0000
0100
0000
0000
,
0010
0000
0000
1000
0000
0000
0001
0000
0000
0010
0100
0010
0200
0000
0000
0300
0000
0000
0200
0000
0000
0300
0000
0000
,
0200
0000
0000
0310
0000
0000
1000
0000
0000
0001
0100
0001
0100
0000
0000
0010
0000
0000
1000
0000
0000
0100
0000
0000
,
0010
0001
0200
0000
0310
1000
0001
0100
,
0001
1000
0100
0010
0001
0100
0010
1000
,
0001
0010
0100
1000
0001
0010
0001
1000
,
0100
0010
0001
0100
0010
0100
0001
1000
,
0010
0000
0100
0000
0001
0000
1000
0000
0100
0010
0001
0100
0010
1000
0001
0100
,
0001
1000
0010
0100
0001
1000
0100
0010
0001
0100
0010
1000
0001
0010
0001
0100
,
0010
0000
0100
0000
0001
0000
1000
0000
0100
0000
0010
0000
0001
0000
1000
0000
0010
0100
0001
1000
0100
0010
0001
0100
0010
1000
0001
0100
0001
1000
0010
0100
,
0010
1000
0100
0010
0001
0100
0010
1000
0001
0010
0100
1000
0010
0100
0001
1000
0100
0010
0001
0100
0010
1000
0001
0010
0100
1000
0010
0100
0001
1000
0100
0010
,
0001
0000
0000
0000
0000
0000
0100
0000
0000
0000
0000
0000
0010
0000
0000
0000
0000
0000
1000
0000
0000
0000
0000
0000
0001
0000
0000
0000
0000
0000
0010
0000
0000
0000
0000
0000
0001
0000
0000
0000
0000
0000
0100
0000
0000
0000
0000
0000
0010
0000
0000
0000
0000
0000
1000
0000
0000
0000
0000
0000
0100
0000
0000
0000
0000
0000
0010
0000
0000
0000
0000
0000
0001
0000
0000
0000
0000
0000
0100
0000
0000
0000
0000
0000
0010
0000
0000
0000
0000
0000
1000
0000
0000
0000
0000
0000
0001
0000
0000
0000
0000
0000
0000
0000
0010
0000
0000
0000
0000
0000
0000
0000
0100
0000
0000
0000
0000
0000
0000
0000
1000
0000
0000
0000
0000
0000
0000
0000
0010
0000
0000
0000
0000
0000
0000
0000
0100
0000
0000
0000
0000
0000
0000
0000
0001
0000
0000
0000
0000
0000
0000
0000
1000
0000
0000
0000
0000
0000
0000
0000
0100
0000
0000
0000
0000
0000
0000
0000
1000
0000
0000
0000
0000
0000
0000
0000
0010
0000
0000
0000
0000
0000
0000
0000
0100
0000
0000
0000
0000
0000
0000
0000
,
0001
1000
0100
0010
0001
0100
0010
1000
0010
0100
0001
1000
0100
0010
0001
0100
0010
1000
0001
0010
0100
1000
0010
0100
,
0001
0100
0010
1000
0001
1000
0100
0010
0001
0100
0010
1000
0001
0010
0001
0100
0010
1000
0001
0100
0001
0010
0100
1000
,
0010
0100
0001
1000
0100
0010
0001
0100
0010
1000
0100
1000
0001
0010
0001
0100
0010
1000
0001
0100
0001
1000
0100
0010
,
0001
0100
0010
1000
0001
0010
0001
0100
0010
1000
0010
0100
0001
0010
0100
1000
0010
0100
0001
1000
0100
1000
0010
0100
,
0001
1000
0100
0010
0001
0100
0010
1000
0010
0100
0001
1000
0100
0010
0001
0100
0010
1000
0001
0010
0100
1000
0010
0100
,
0001
0100
0010
1000
0001
1000
0100
0010
0001
0100
0010
1000
0001
0010
0001
0100
0010
1000
0001
0100
0001
0010
0100
1000
,
0010
0100
0001
1000
0100
0010
0001
0100
0010
1000
0100
1000
0001
0010
0001
0100
0010
1000
0001
0100
0001
1000
0100
0010
,
0001
0100
0010
1000
0001
0010
0001
0100
0010
1000
0010
0100
0001
0010
0100
1000
0010
0100
0001
1000
0100
1000
0010
0100
,
0001
1000
0100
0010
0001
0100
0010
1000
0010
0100
0001
1000
0100
0010
0001
0100
0010
1000
0001
0010
0100
1000
0010
0100
,
0001
0100
0010
1000
0001
1000
0100
0010
0001
0100
0010
1000
0001
0010
0001
0100
0010
1000
0001
0100
0001
0010
0100
1000
,
0010
0100
0001
1000
0100
0010
0001
0100
0010
1000
0100
1000
0001
0010
0001
0100
0010
1000
0001
0100
0001
1000
0100
0010
,
0001
0100
0010
1000
0001
0010
0001
0100
0010
1000
0010
0100
0001
0010
0100
1000
0010
0100
0001
1000
0100
1000
0010
0100
,
0001
1000
0100
0010
0001
0100
0010
1000
0010
0100
0001
1000
0100
0010
0001
0100
0010
1000
0001
0010
0100
1000
0010
0100
,
0001
0100
0010
1000
0001
1000
0100
0010
0001
0100
0010
1000
0001
0010
0001
0100
0010
1000
0001
0100
0001
0010
0100
1000
,
0010
0100
0001
1000
0100
0010
0001
0100
0010
1000
0100
1000
0001
0010
0001
0100
0010
1000
0001
0100
0001
1000
0100
0010
,
0001
0100
0010
1000
0001
0010
0001
0100
0010
1000
0010
0100
0001
0010
0100
1000
0010
0100
0001
1000
0100
1000
0010
0100
,
0001
1000
0100
0010
0001
0100
0010
1000
0010
0100
0001
1000
0100
0010
0001
0100
0010
1000
0001
0010
0100
1000
0010
0100
,
0001
0100
0010
1000
0001
1000
0100
0010
0001
0100
0010
1000
0001
0010
0001
0100
0010
1000
0001
0100
0001
0010
0100
1000
,
0010
0100
0001
1000
0100
0010
0001
0100
0010
1000
0100
1000
0001
0010
0001
0100
0010
1000
0001
0100
0001
1000
0100
0010
,
0001
0100
0010
1000
0001
0010
0001
0100
0010
1000
0010
0100
0001
0010
0100
1000
0010
0100
0001
1000
0100
1000
0010
0100
,
0001
1000
0100
0010
0001
0100
0010
1000
0010
0100
0001
1000
0100
0010
0001
0100
0010
1000
0001
0010
0100
1000
0010
0100
,
0001
0100
0010
1000
0001
1000
0100
0010
0001
0100
0010
1000
0001
0010
0001
0100
0010
1000
0001
0100
0001
0010
0100
1000
,
0010
0100
0001
1000
0100
0010
0001
0100
0010
1000
0100
1000
0001
0010
0001
0100
0010
1000
0001
0100
0001
1000
0100
0010
,
0001
0100
0010
1000
0001
0010
0001
0100
0010
1000
0010
0100
0001
0010
0100
1000
0010
0100
0001
1000
0100
1000
0010
0100
,
0001
1000
0100
0010
0001
0100
0010
1000
0010
0100
0001
1000
0100
0010
0001
0100
0010
1000
0001
0010
0100
1000
0010
0100
,
0001
0100
0010
1000
0001
1000
0100
0010
0001
0100
0010
1000
0001
0010
0001
0100
0010
1000
0001
0100
0001
0010
0100
1000
,
0010
0100
0001
1000
0100
0010
0001
0100
0010
1000
0100
1000
0001
0010
0001
0100
0010
1000
0001
0100
0001
1000
0100
0010
,
0001
0100
0010
1000
0001
0010
0001
0100
0010
1000
0010
0100
0001
0010
0100
1000
0010
0100
0001
1000
0100
1000
0010
0100
,
0001
1000
0100
0010
0001
0100
0010
1000
0010
0100
0001
1000
0100
0010
0001
0100
0010
1000
0001
0010
0100
1000
0010
0100
,
0001
0100
0010
1000
0001
1000
0100
0010
0001
0100
0010
1000
0001
0010
0001
0100
0010
1000
0001
0100
0001
0010
0100
1000
,
0010
0100
0001
1000
0100
0010
0001
0100
0010
1000
0100
1000
0001
0010
0001
0100
0010
1000
0001
0100
0001
1000
0100
0010
,
0001
0000
0100
0000
0010
0000
1000
0000
0001
0000
0010
0000
0001
0000
0100
0000
0010
0000
1000
0000
0010
0000
0100
0000
0001
0000
0000
1000
0000
0000
0001
0000
0000
0010
0000
0000
0100
0000
0000
1000
0000
0000
0001
0000
0000
0100
0000
0000
,
0001
1000
0010
0100
0001
1000
0100
0010
0001
0100
0010
1000
0001
0010
0001
0100
,
0010
0100
0001
1000
0100
0010
0001
1000
0100
0010
0001
0100
0010
1000
0001
0100
,
0001
1000
0010
0100
0001
1000
0100
0010
0001
0100
0010
1000
0001
0010
0001
0100
,
0010
0100
0001
1000
0100
0010
0001
0100
0010
1000
0001
0100
0001
1000
0010
0100
,
0001
1000
0100
0010
0001
0100
0010
1000
0001
0010
0001
0100
0010
0100
0001
1000
,
0100
0010
0001
0100
0010
1000
0001
0100
0001
1000
0010
0100
0001
1000
0100
0010
,
0001
0100
0010
1000
0001
0010
0001
0100
0010
0100
0001
1000
0100
0010
0001
0100
,
0010
1000
0001
0100
0001
1000
0010
0100
0001
0000
0000
0101
0000
0000
0101
0000
,
0000
0000
0101
0000
0000
0000
0000
0000
1010
0000
0000
1010
0000
0000
1010
0000
,
0000
0000
1010
0000
0000
0000
0000
0000
1001
0000
0000
1001
0000
0000
1001
0000
,
0000
0000
1001
0000
0000
0000
0000
0000
0110
0000
0000
0110
0000
0000
0110
0000
,
0000
0000
0110
0000
0000
0000
0000
0000
1100
0000
0000
1100
0000
0000
1100
0000
,
0000
0000
1100
0000
0000
0000
0000
0000
0011
0000
0000
0011
0000
0000
0011
0000
,
0000
0000
0011
0000
0000
0000
0000
0000
0101
0000
0000
0101
0000
0000
0101
0000
,
0000
0000
0101
0000
0000
0000
0000
0000
1001
0000
0000
1001
0000
0000
1001
0000
,
0000
1001
0000
0000
2000
0000
0000
0000
,
3200
0000
0000
0000
0000
0000
0000
0300
0020
0000
0000
0000
0000
0000
0000
0000
,
0032
0000
0000
0003
2000
0000
0000
0000
,
3020
0000
0000
0000
0000
0000
0000
0030
0200
0000
0000
0000
0000
0000
0000
0000
,
0302
0000
0000
0000
0000
0000
0003
0000
2000
0000
0000
3020
0000
0000
0230
0000
,
0000
0000
0000
0000
0000
0000
0000
0000
0000
0000
0000
0000
0300
0000
0000
0000
0002
0000
0000
0000
2003
0000
0000
0000
0000
3200
0000
0000
0000
0000
0000
0000
,
0000
0000
0000
0000
0300
0000
0000
0000
2000
0000
0000
3002
0000
0000
0023
0000
,
0000
0000
0000
0000
0000
0000
0000
0000
0000
0000
0000
0000
0030
0000
0000
0000
0002
0000
0000
0000
2003
0000
0000
0000
0000
3200
0000
0000
0000
0000
0000
0000
,
0000
0000
0000
0000
0300
0000
0000
0000
0000
0000
0000
0000
2002
3003
0000
0000
;
