#TITLE:Unorthodox Red;
#SUBTITLE:Oh Henry!;
#ARTIST:DJ Nanasaki;
#TITLETRANSLIT:;
#SUBTITLETRANSLIT:;
#ARTISTTRANSLIT:;
#CREDIT:;
#BANNER:../Fallback-Ban.png;
#BACKGROUND:../Fallback-BG.png;
#LYRICSPATH:;
#CDTITLE:../~CDTitle-@@.png;
#MUSIC:DJ Nanasaki - Unorthodox Red.ogg;
#OFFSET:0.000;
#SAMPLESTART:138.902;
#SAMPLELENGTH:17.455;
#SELECTABLE:YES;
#DISPLAYBPM:220.000;
#BPMS:0.000=220.000,276.000=210.000,284.000=200.000,292.000=190.000,300.000=180.000,308.000=170.000,316.000=160.000,324.000=150.000,332.000=220.000;
#STOPS:;
#BGCHANGES:;
// cache tags:
#FIRSTBEAT:4.000;
#LASTBEAT:820.000;
#SONGFILENAME:Songs/Oh Henry! Mad Stamina/Unorthodox Red (19+)/Unorthodox Red.sm;
#HASMUSIC:1;
#HASBANNER:1;
#MUSICLENGTH:227.972;
// end cache tags

//---------------dance-single - @@----------------
#NOTES:
     dance-single:
     @@:
     Challenge:
     19:
     1.000,1.000,0.018,0.408,1.000,2846.000,4.000,93.000,1.000,0.000:
0000
0000
0000
0000
,
1001
0000
1000
0000
0010
0000
0100
0000
0001
1000
0100
0000
0010
0000
0001
0000
,
1001
0000
1000
0000
0100
0000
0010
0000
0001
1000
0010
0000
0100
0000
0001
0000
,
1000
0100
1000
0100
0010
0001
1000
0010
0100
0001
0100
0001
1000
0100
0010
0001
,
0010
0001
1000
0100
1000
0010
0100
0001
1000
0010
1000
0010
0100
0001
1000
0100
,
1000
0001
0010
0100
1000
0010
0100
0001
1000
0100
1000
0100
0010
0100
1000
0001
,
0100
0010
0100
0010
1000
0001
0100
0001
1000
0010
1000
0001
0010
0100
0010
0001
,
1000
0010
1000
0010
0100
0001
1000
0100
0010
0001
0010
0001
1000
0010
0100
0001
,
0100
0001
1000
0010
1000
0100
0010
0001
1000
0100
1000
0100
0010
0001
1000
0010
,
1000
0001
0100
0010
1000
0100
0010
0001
1000
0010
1000
0010
0100
0001
1000
0001
,
0010
0100
1000
0010
0100
0000
0000
0000
0101
0000
0000
0000
0001
1000
0100
1000
,
0001
0100
0001
0100
0010
1000
0001
0010
0100
1000
0100
1000
0001
0100
0010
1000
,
0010
1000
0001
0100
0001
0010
0100
1000
0001
0010
0001
0010
0100
1000
0001
0100
,
0001
1000
0010
0100
0001
0010
0100
1000
0001
0100
0001
0100
0010
0100
0001
1000
,
0100
0010
0100
0010
0001
1000
0100
1000
0001
0010
0001
1000
0010
0100
0010
1000
,
0001
0010
0001
0010
0100
1000
0001
0100
0010
1000
0010
1000
0001
0010
0100
1000
,
0100
1000
0001
0010
0001
0100
0010
1000
0001
0100
0001
0100
0010
1000
0001
0010
,
0001
1000
0100
0010
0001
0100
0010
1000
0001
0010
0001
0010
0100
1000
0001
1000
,
0010
0100
0001
0010
0100
0000
0000
0000
1100
0000
0000
0000
1000
0001
0100
0001
,
1000
0100
1000
0100
0010
0001
1000
0001
0100
0010
0100
0001
1000
0010
1000
0100
,
0010
0001
0010
0001
1000
0100
1000
0001
0100
0010
1000
0001
1000
0100
0010
0100
,
1000
0001
1000
0001
0100
0010
1000
0001
0010
0100
1000
0001
1000
0100
0010
0001
,
0100
0010
0100
0010
1000
0001
0100
0001
1000
0100
0010
0100
1000
0001
0010
0100
,
1000
0010
1000
0010
0100
0001
1000
0001
0010
0100
0010
0001
1000
0100
1000
0010
,
0100
0001
0100
0001
1000
0010
1000
0001
0010
0100
1000
0001
1000
0010
0100
0010
,
1000
0001
1000
0001
0010
0100
1000
0001
0100
0010
1000
0001
1000
0010
0100
0001
,
0010
0100
1000
0001
,
0010
0100
0010
0100
1000
0001
1000
0010
0100
0001
0100
0001
1000
0100
0010
0001
,
0010
0001
1000
0100
0010
0001
0100
0010
1000
0001
1000
0001
0100
0010
1000
0001
,
1000
0100
0010
0100
1000
0010
1000
0001
0010
0100
0010
0100
1000
0001
1000
0010
,
0100
0001
0100
0001
1000
0010
0100
0001
1000
0010
1000
0001
0010
0100
0010
0001
,
0100
0010
0100
0010
1000
0001
1000
0100
0010
0001
0010
0001
1000
0010
0100
0001
,
0100
0001
1000
0010
0100
0001
0010
0100
1000
0001
1000
0001
0010
0100
1000
0001
,
0100
0010
1000
0001
0100
0001
1000
0010
1000
0100
0010
0001
1000
0001
0010
0100
,
1000
0010
1000
0001
0010
0100
1000
0001
0010
0001
1000
0010
0100
0001
0010
0100
,
1000
0010
1000
0010
0100
0001
1000
0001
0010
0100
1000
0001
0100
0010
0100
0001
,
1000
0100
1000
0100
0010
0001
1000
0001
0100
0010
0100
0001
1000
0100
0010
0100
,
1000
0001
1000
0001
0100
0010
1000
0001
0010
0100
0010
0001
1000
0010
1000
0001
,
0010
0100
0010
0100
1000
0001
0010
0100
1000
0001
0100
0001
1000
0100
0010
0001
,
0100
0010
0100
0010
1000
0001
0100
0001
1000
0100
0010
0001
1000
0010
0100
0001
,
1000
0100
1000
0100
0010
0001
0010
0100
1000
0001
0100
0010
1000
0001
0010
0001
,
1000
0010
1000
0010
0100
0001
1000
0010
1000
0001
0010
0100
1000
0001
0100
0010
,
1000
0100
0010
0100
1000
0010
0100
0001
1000
0001
0010
0100
1000
0010
0100
0001
,
0010
0100
0010
0100
1000
0001
0010
0001
1000
0010
1000
0001
0010
0100
0010
0001
,
1000
0010
1000
0010
0100
0001
1000
0001
0010
0100
0010
0001
1000
0010
0100
0010
,
1000
0001
1000
0001
0010
0100
1000
0001
0100
0010
0100
0001
1000
0100
1000
0001
,
0100
0010
0100
0010
1000
0001
0100
0010
1000
0001
0010
0001
1000
0010
0100
0010
,
1000
0100
1000
0100
0010
0001
1000
0001
0100
0010
0100
0001
1000
0100
0010
0001
,
1000
0010
1000
0010
0100
0001
0100
0010
1000
0001
0010
0100
1000
0001
0100
0001
,
1000
0100
1000
0100
0010
0001
1000
0100
1000
0001
0100
0010
1000
0001
0010
0100
,
1000
0010
0100
0010
1000
0100
0010
0001
1000
0001
0100
0010
1000
0100
0010
0001
,
0100
0010
0100
0010
1000
0001
0100
0001
1000
0100
1000
0100
0010
0001
1000
0010
,
1000
0010
0100
0001
1000
0001
0100
0010
1000
0001
1000
0001
0100
0010
1000
0001
,
1000
0100
0010
0001
1000
0100
1000
0001
0100
0010
0100
0010
1000
0001
1000
0100
,
0010
0001
0010
0001
1000
0100
0010
0001
1000
0010
1000
0001
0010
0100
0010
0001
,
1000
0010
1000
0010
0100
0001
1000
0100
0010
0001
0010
0001
1000
0010
0100
0001
,
0100
0001
1000
0010
1000
0001
0100
0001
1000
0100
1000
0100
0010
0001
1000
0010
,
1000
0001
0010
0100
1000
0001
0010
0001
1000
0010
1000
0010
0100
0001
1000
0001
,
0010
0100
1000
0010
0100
0001
1000
0010
1000
0100
0010
0001
1000
0010
0100
0001
,
0010
0100
0010
0100
1000
0001
0010
0001
1000
0010
1000
0010
0100
0001
1000
0100
,
1000
0100
0010
0001
1000
0001
0010
0100
1000
0001
1000
0001
0010
0100
1000
0001
,
1000
0010
0100
0001
1000
0010
1000
0001
0010
0100
0010
0100
1000
0001
1000
0010
,
0100
0001
0100
0001
1000
0010
0100
0001
1000
0100
1000
0001
0100
0010
0100
0001
,
1000
0100
1000
0100
0010
0001
1000
0010
0100
0001
0100
0001
1000
0100
0010
0001
,
0010
0001
1000
0100
1000
0001
0010
0001
1000
0010
1000
0010
0100
0001
1000
0100
,
1000
0001
0100
0010
1000
0001
0100
0001
1000
0100
1000
0100
0010
0001
1000
0001
,
0100
0010
1000
0100
0010
0001
1000
0100
1000
0010
0100
0001
1000
0100
0010
0001
,
0100
0010
0100
0010
1000
0001
0100
0010
1000
0100
0010
0001
1000
0001
0100
0010
,
1000
0100
1000
0100
0010
0001
0010
0100
1000
0010
0100
0001
1000
0100
0010
0100
,
1000
0010
1000
0010
0100
0001
1000
0010
1000
0100
0010
0001
1000
0010
0100
0010
,
1000
0100
1000
0100
0010
0001
1000
0100
1000
0010
0100
0001
1000
0100
0010
0100
,
1000
0010
1000
0010
0100
0001
0100
0010
1000
0100
0010
0100
1000
0001
0100
0010
,
1000
0001
1000
0001
0010
0100
0010
0001
1000
0010
1000
0001
0010
0100
0010
0001
,
1000
0010
1000
0010
0100
0001
1000
0010
1000
0001
0010
0100
1000
0001
0100
0001
,
1000
0100
1000
0100
0010
0001
1000
0100
1000
0001
0100
0001
1000
0100
0010
0001
,
0100
0010
0100
0010
1000
0001
0100
0001
1000
0100
0010
0001
1000
0010
1000
0001
,
0010
0100
0010
0100
1000
0001
0010
0001
1000
0010
0100
0001
1000
0100
0010
0100
,
1000
0001
1000
0001
0100
0010
1000
0001
1000
0100
0010
0100
1000
0001
0100
0001
,
1000
0100
1000
0100
0010
0001
0010
0100
1000
0001
0100
0010
1000
0001
0010
0001
,
0100
0010
0100
0010
1000
0001
0100
0001
1000
0100
0010
0001
1000
0010
1000
0001
,
0010
0100
0010
0100
1000
0001
0010
0001
1000
0010
1000
0001
0010
0100
0010
0001
,
1000
0010
1000
0010
0100
0001
1000
0010
1000
0001
0010
0100
1000
0001
0100
0010
,
1000
0100
0010
0001
1000
0010
0100
0010
1000
0100
1000
0001
0100
0010
1000
0100
,
0010
0000
0000
0000
,
0000
0000
0000
0000
,
0000
0000
0000
0000
0000
0001
0100
0001
,
0000
1000
0100
1000
0000
0001
0100
0001
,
0000
1000
0100
1000
0000
0001
0010
0001
,
0000
1000
0010
1000
0000
0001
0010
0001
,
0100
0010
0100
0001
1000
0100
0010
0001
,
0100
0010
0100
0001
1000
0100
0010
0001
,
0100
0010
1000
0001
0010
0100
0010
0001
,
0100
0010
1000
0001
0010
0100
0010
0001
,
0100
0010
0100
0001
1000
0100
1000
0001
,
0100
0010
0100
0001
1000
0100
1000
0001
,
0100
0010
1000
0100
0010
0001
1000
0001
,
0100
0010
1000
0100
0010
0001
1000
0001
,
0100
0010
0100
0001
0010
0100
1000
0001
,
0100
0010
0100
0001
0010
0100
1000
0001
,
0200
0300
0010
0000
2000
3000
0100
0000
0010
0000
0002
0003
0200
0300
0001
0000
,
2000
3000
0100
0000
0020
0030
0100
0000
1000
0000
0020
0030
0200
0300
0001
0000
,
0020
0030
0100
0000
2000
3000
0010
0000
0100
0000
0002
0003
0020
0030
0001
0000
,
2000
3000
0010
0000
0200
0300
0010
0000
1000
0000
0200
0300
0020
0030
0001
0000
,
0200
0300
0010
0000
2000
3000
0100
0000
0010
0000
0002
0003
0200
0300
0001
0000
,
2000
3000
0100
0000
0020
0030
0100
0000
1000
0000
0020
0030
0200
0300
0001
0000
,
0010
0100
0010
0001
1000
0100
0010
0001
,
0100
0010
0100
0001
1000
0010
0100
0001
,
2000
3000
0100
0000
0020
0030
0100
0000
1000
0000
0020
0030
0200
0300
0001
0000
,
0020
0030
0100
0000
2000
3000
0001
0000
0200
0300
0001
0000
2000
3000
0010
0000
,
2000
3000
0001
0000
0020
0030
0001
0000
0200
0300
0010
0000
2000
3000
0001
0000
,
0020
0030
0100
0000
0020
0030
0001
0000
2000
3000
0010
0000
0200
0300
0001
0000
,
2000
3000
0100
0000
0020
0030
0001
0000
0200
0300
0001
0000
2000
3000
0010
0000
,
2000
3000
0001
0000
0020
0030
0001
0000
2000
3000
0010
0000
0200
0300
0001
0000
,
2000
3000
0100
0000
0020
0030
0001
0000
0200
0300
0010
0000
2000
3000
0001
0000
,
0020
0030
0001
0000
2000
3000
0100
0000
2000
3000
0001
0000
0200
0300
0010
0000
,
2000
3000
0001
0000
0020
0030
0001
0000
0200
0300
0010
0000
2000
3000
0001
0000
,
0020
0030
0100
0000
2000
3000
0001
0000
0200
0300
0010
0000
2000
3000
0001
0000
,
0020
0030
0100
0000
0020
0030
0001
0000
0200
0300
0010
0000
2000
3000
0001
0000
,
0020
0030
0100
0000
2000
3000
0001
0000
0200
0300
0010
0000
2000
3000
0001
0000
,
2000
3000
0100
0000
0020
0030
0001
0000
0200
0300
0010
0000
2000
3000
0001
0000
,
0020
0030
0100
0000
0020
0030
0001
0000
2000
3000
0001
0000
0200
0300
0010
0000
,
2000
3000
0001
0000
0020
0030
0001
0000
0200
0300
0010
0000
2000
3000
0001
0000
,
0020
0030
0100
0000
2000
3000
0001
0000
0200
0300
0010
0000
0200
0300
0001
0000
,
2000
3000
0100
0000
0020
0030
0001
0000
0200
0300
0001
0000
2000
3000
0010
0000
,
1000
0001
1000
0001
0010
0100
1000
0001
1000
0010
0100
0010
1000
0001
0010
0001
,
1000
0010
1000
0010
0100
0001
1000
0010
1000
0001
0010
0100
1000
0001
0100
0001
,
1000
0100
1000
0100
0010
0001
1000
0001
0100
0010
0100
0001
1000
0100
1000
0001
,
0100
0010
0100
0010
1000
0001
0100
0001
1000
0100
1000
0001
0100
0010
1000
0001
,
0010
0100
0010
0100
1000
0001
0010
0001
1000
0010
0100
0010
1000
0001
0010
0100
,
1000
0001
1000
0001
0100
0010
0100
0001
1000
0100
0010
0100
1000
0001
0100
0001
,
1000
0100
1000
0100
0010
0001
1000
0100
1000
0001
0100
0001
1000
0100
0010
0001
,
1000
0010
1000
0010
0100
0001
1000
0001
0010
0100
1000
0100
0010
0001
0100
0010
,
1000
0001
1000
0001
0100
0010
1000
0001
1000
0100
0010
0100
1000
0001
0100
0001
,
1000
0100
1000
0100
0010
0001
1000
0100
1000
0001
0100
0010
1000
0001
0010
0001
,
1000
0010
1000
0010
0100
0001
1000
0001
0010
0100
0010
0001
1000
0010
1000
0001
,
0010
0100
0010
0100
1000
0001
0010
0001
1000
0010
1000
0001
0010
0100
1000
0010
,
0100
0001
1000
0010
1000
0001
0100
0001
1000
0100
0010
0100
1000
0001
0010
0100
,
1000
0010
0100
0001
0100
0010
1000
0001
0010
0100
0010
0001
1000
0100
0010
0001
,
0100
0001
1000
0010
1000
0100
0010
0001
0010
0100
1000
0010
0100
0010
1000
0001
,
0010
0100
0010
0001
1000
0010
0100
0010
1000
0001
0010
0001
1000
0010
0100
0001
,
0010
0100
1000
0001
1000
0100
0010
0001
1000
0010
0100
0001
1000
0100
0010
0100
,
1000
0001
0100
0001
1000
0010
0100
0010
1000
0001
0010
0100
1000
0001
0100
0001
,
1000
0100
0010
0100
1000
0001
0010
0100
1000
0001
0100
0001
1000
0100
0010
0001
,
1000
0010
0100
0010
1000
0001
0100
0001
1000
0100
0010
0100
1000
0001
0100
0010
,
1000
0100
0010
0100
1000
0001
0010
0100
1000
0001
0100
0001
1000
0100
1000
0001
,
0100
0010
0100
0001
1000
0001
0100
0010
1000
0001
0010
0100
1000
0001
0100
0001
,
1000
0100
0010
0001
1000
0001
0010
0100
1000
0001
0100
0001
1000
0100
0010
0100
,
1000
0010
0100
0010
1000
0100
0010
0001
1000
0001
0100
0010
1000
0100
0010
0001
,
0100
0010
1000
0001
1000
0010
0100
0001
1000
0100
0010
0001
1000
0010
0100
0010
,
1000
0001
0010
0001
1000
0100
0010
0100
1000
0001
0100
0010
1000
0001
0010
0001
,
1000
0010
0100
0010
1000
0001
0100
0010
1000
0001
0010
0001
1000
0010
0100
0001
,
1000
0100
0010
0100
1000
0001
0010
0001
1000
0010
0100
0010
1000
0001
0010
0100
,
1000
0010
0100
0010
1000
0001
0100
0010
1000
0001
0010
0001
1000
0010
1000
0001
,
0010
0100
0010
0001
1000
0001
0010
0100
1000
0001
0100
0010
1000
0001
0010
0001
,
1000
0010
0100
0001
1000
0001
0100
0010
1000
0001
0010
0001
1000
0010
0100
0010
,
1000
0100
0010
0100
1000
0010
0100
0001
1000
0001
0010
0100
1000
0010
0100
0001
,
0010
0100
1000
0100
0010
0001
1000
0010
0100
0010
1000
0001
1000
0100
0010
0001
,
1000
0001
0010
0100
1000
0010
0100
0001
1000
0001
0100
0010
0100
0001
1000
0100
,
1000
0001
0010
0100
1000
0010
0100
0001
1000
0100
0010
0001
0010
0100
1000
0001
,
0100
0010
1000
0001
0100
0001
1000
0010
0100
0001
1000
0001
0010
0100
0010
0001
,
1000
0010
0100
0001
1000
0001
0010
0100
0010
0001
1000
0100
1000
0001
0100
0010
,
0100
0001
1000
0010
1000
0100
0010
0001
1000
0001
0010
0100
0010
0001
1000
0010
,
1000
0001
0100
0010
1000
0100
0010
0001
1000
0010
0100
0010
1000
0001
0100
0001
,
1000
0100
1000
0010
0100
0001
0010
0001
1000
0010
0100
0010
1000
0100
0010
0001
,
0100
0010
1000
0010
0100
0001
1000
0100
0010
0100
1000
0001
1000
0010
0100
0001
,
1000
0001
0100
0010
1000
0100
0010
0001
1000
0001
0010
0100
0010
0001
1000
0010
,
1000
0001
0100
0010
1000
0100
0010
0001
1000
0010
0100
0001
0100
0010
1000
0001
,
0010
0100
1000
0001
0010
0001
1000
0100
0010
0001
1000
0001
0100
0010
0100
0001
,
1000
0100
0010
0001
1000
0001
0100
0010
0100
0001
1000
0010
1000
0001
0010
0100
,
0010
0001
1000
0100
1000
0010
0100
0001
1000
0001
0100
0010
0100
0001
1000
0100
,
1000
0001
0010
0100
1000
0010
0100
0001
1000
0100
0010
0100
1000
0001
0010
0001
,
1000
0010
1000
0100
0010
0001
0100
0001
1000
0100
0010
0100
1000
0010
0100
0001
,
0010
0100
1000
0001
0010
0001
1000
0010
0100
0010
1000
0001
1000
0100
0010
0100
,
1000
0001
0010
0100
1000
0010
0100
0010
1000
0001
1000
0010
0100
0001
1000
0100
,
1000
0001
0010
0100
1000
0010
0100
0001
1000
0100
1000
0001
0010
0100
1000
0001
,
0100
0010
0100
0001
1000
0001
0100
0010
0100
0001
1000
0001
0010
0100
0010
0001
,
1000
0010
0100
0001
1000
0001
0010
0100
0010
0001
1000
0100
1000
0001
0100
0010
,
0100
0001
1000
0010
1000
0100
0010
0100
1000
0001
0010
0100
0010
0001
1000
0010
,
1000
0001
0100
0010
1000
0100
0010
0001
1000
0010
0100
0010
1000
0001
0100
0001
,
1000
0100
1000
0010
0100
0001
0010
0100
1000
0001
0100
0010
1000
0100
0010
0001
,
0100
0010
1000
0001
0100
0001
1000
0100
0010
0100
1000
0001
1000
0010
0100
0010
,
1000
0001
0100
0010
1000
0100
0010
0100
1000
0001
1000
0100
0010
0001
1000
0010
,
1000
0001
0100
0010
1000
0100
0010
0001
1000
0010
1000
0001
0100
0010
1000
0001
,
0010
0100
0010
0001
1000
0001
0010
0100
0010
0001
1000
0001
0100
0010
0100
0001
,
1000
0100
0010
0001
1000
0001
0100
0010
0100
0001
1000
0010
1000
0001
0010
0100
,
0010
0001
1000
0100
1000
0010
0100
0010
1000
0001
0100
0010
0100
0001
1000
0100
,
1000
0001
0010
0100
1000
0010
0100
0001
1000
0100
0010
0100
1000
0001
0010
0001
,
1000
0010
1000
0100
0010
0001
0100
0010
1000
0001
0010
0100
1000
0010
0100
0001
,
0010
0100
0010
0001
1000
0100
0010
0001
1000
0100
0010
0100
1000
0010
0100
0001
,
0010
0001
1000
0100
0010
0001
1000
0100
1000
0001
0100
0010
1000
0001
0010
0001
,
0100
0010
0100
0001
1000
0010
0100
0010
1000
0001
0100
0001
0010
0100
0010
0001
,
0100
0010
0100
0001
1000
0010
0100
0010
1000
0100
0010
0001
0100
0001
1000
0010
,
1000
0100
0010
0001
1000
0100
1000
0001
0010
0100
0010
0001
0100
0001
1000
0010
,
1000
0100
0010
0001
1000
0100
1000
0001
0100
0010
0100
0001
1000
0100
0010
0100
,
1000
0010
0100
0001
1000
0010
1000
0001
0100
0001
1000
0010
1000
0100
0010
0100
,
1000
0010
1000
0001
0010
0001
1000
0010
0100
0001
0010
0100
1000
0100
0010
0001
,
0100
0010
0100
0001
1000
0010
0100
0001
1000
0010
0100
0010
1000
0100
0010
0001
,
0100
0001
1000
0010
0100
0001
1000
0010
1000
0001
0010
0100
1000
0010
0100
0001
,
0010
0100
0010
0001
1000
0100
0010
0100
1000
0001
0010
0001
0100
0010
0100
0001
,
0010
0100
0010
0001
1000
0010
0100
0010
1000
0100
0010
0001
0100
0001
1000
0100
,
1000
0010
0100
0001
1000
0001
0100
0010
1000
0100
0010
0001
1000
0001
0010
0100
,
1000
0010
0100
0010
1000
0001
0100
0001
0010
0100
1000
0001
1000
0100
0010
0001
,
0100
0001
1000
0010
1000
0100
0010
0100
1000
0010
0100
0001
0010
0001
1000
0100
,
1000
0000
0001
0000
1000
0000
0010
0010
,
0200
0300
0000
0000
,
M000
0000
0000
0000
;

//---------------dance-single - @@ vs. Archi----------------
#NOTES:
     dance-single:
     @@ vs. Archi:
     Hard:
     18:
     1.000,1.000,0.022,0.728,1.000,2609.000,5.000,166.000,22.000,0.000:
0000
0000
0000
0000
,
1001
0000
1000
0000
0010
0000
0100
0000
0001
1000
0100
0000
0010
0000
0001
0000
,
1001
0000
1000
0000
0100
0000
0010
0000
0001
1000
0010
0000
0100
0000
0001
0000
,
0002
0003
0100
0000
0010
0000
2000
3000
0010
0000
0100
0000
0010
0000
2000
3000
,
0100
0000
2000
3000
0100
0000
0010
0000
0002
0003
0100
0000
0002
0003
0010
0000
,
0100
0000
0010
0000
0002
0003
0100
0000
0002
0003
0100
0000
0010
0000
2000
3000
,
0100
0000
0010
0000
0100
0000
0010
0000
0100
0000
2000
3000
001M
0000
001M
0000
,
2000
3000
0100
0000
0010
0000
0002
0003
0100
0000
0010
0000
0100
0000
0002
0003
,
0010
0000
0002
0003
0100
0000
0010
0000
2000
3000
0100
0000
2000
3000
0100
0000
,
2000
3000
0010
0000
0100
0000
0002
0003
0010
0000
0100
0000
0010
0000
0002
0003
,
0100
0000
0000
0000
0000
0000
001M
0000
0000
0000
0000
0000
001M
0000
0000
0000
0000
0000
0000
0000
0000
0000
0000
0000
001M
0000
0000
0000
0000
0000
0000
0000
0000
0000
0000
0000
1000
0000
0000
0010
0000
0000
0100
0000
0001
0000
1000
0000
,
0002
0003
0010
0000
0100
0000
2000
3000
0100
0000
0010
0000
0100
0000
2000
3000
,
0010
0000
2000
3000
0010
0000
0100
0000
0002
0003
0010
0000
0002
0003
0100
0000
,
0010
0000
0100
0000
0002
0003
0010
0000
0002
0003
0010
0000
0100
0000
2000
3000
,
0010
0000
0100
0000
0010
0000
0100
0000
0010
0000
2000
3000
010M
0000
010M
0000
,
2000
3000
0010
0000
0100
0000
0002
0003
0010
0000
0100
0000
0010
0000
0002
0003
,
0100
0000
0002
0003
0010
0000
0100
0000
2000
3000
0010
0000
2000
3000
0010
0000
,
2000
3000
0100
0000
0010
0000
0002
0003
0100
0000
0010
0000
0100
0000
0002
0003
,
0010
0000
0000
010M
0000
0000
010M
0000
0000
0000
0000
0000
010M
0000
0000
0000
0000
0000
1000
0001
1000
0001
1000
0001
,
2000
3000
0010
0000
0100
0000
0002
0003
0100
0000
0010
0000
0100
0000
0002
0003
,
0010
0000
0002
0003
0010
0000
0100
0000
2000
3000
0010
0000
2000
3000
0100
0000
,
0010
0000
0100
0000
2000
3000
0010
0000
2000
3000
0010
0000
0100
0000
0002
0003
,
0010
0000
0100
0000
0010
0000
0100
0000
0010
0000
0002
0003
M100
0000
M100
0000
,
0002
0003
0010
0000
0100
0000
2000
3000
0010
0000
0100
0000
0010
0000
2000
3000
,
0100
0000
2000
3000
0010
0000
0100
0000
0002
0003
0010
0000
0002
0003
0010
0000
,
0002
0003
0100
0000
0010
0000
2000
3000
0100
0000
0010
0000
0100
0000
2000
3000
,
001M
010M
001M
100M
,
0002
0003
0100
0000
0010
0000
2000
3000
0010
0000
0100
0000
0010
0000
2000
3000
,
0100
0000
2000
3000
0100
0000
0010
0000
0002
0003
0100
0000
0002
0003
0010
0000
,
0100
0000
0010
0000
0002
0003
0100
0000
0002
0003
0100
0000
0010
0000
2000
3000
,
0100
0000
0010
0000
0100
0000
0010
0000
0100
0000
2000
3000
001M
0000
001M
0000
,
2000
3000
0100
0000
0010
0000
0002
0003
0100
0000
0010
0000
0100
0000
0002
0003
,
0010
0000
0002
0003
0100
0000
0010
0000
2000
3000
0100
0000
2000
3000
0100
0000
,
1001
1000
0100
0010
1001
0001
0100
0010
,
1000
0000
010M
0000
010M
0000
0000
0000
010M
0000
0000
0000
0040
0004
0000
0030
,
1003
0010
1000
0010
0100
0001
1000
0001
0010
0100
1000
0001
0100
0010
0100
0001
,
1000
0100
1000
0100
0010
0001
1000
0001
0100
0010
0100
0001
1000
0100
0010
0100
,
1000
0001
1000
0001
0100
0010
1000
0001
0010
0100
0010
0001
1000
0010
1000
0001
,
0010
0100
0010
0100
1000
0001
0010
0100
1000
0001
0100
0001
1000
0100
0010
0001
,
0100
0010
0100
0010
1000
0001
0100
0001
1000
0100
0010
0001
1000
0010
0100
0001
,
1000
0100
1000
0100
0010
0001
0010
0100
1000
0001
0100
0010
1000
0001
0010
0001
,
1000
0010
1000
0010
0100
0001
1000
0010
1000
0001
0010
0100
1000
0001
0100
0010
,
1000
0100
0010
0100
1000
0010
0100
0001
1000
0001
0010
0100
1000
0010
0100
0001
,
0010
0100
0010
0100
1000
0001
0010
0001
1000
0010
1000
0001
0010
0100
0010
0001
,
1000
0010
1000
0010
0100
0001
1000
0001
0010
0100
0010
0001
1000
0010
0100
0010
,
1000
0001
1000
0001
0010
0100
1000
0001
0100
0010
0100
0001
1000
0100
1000
0001
,
0100
0010
0100
0010
1000
0001
0100
0010
1000
0001
0010
0001
1000
0010
0100
0010
,
1000
0100
1000
0100
0010
0001
1000
0001
0100
0010
0100
0001
1000
0100
0010
0001
,
1000
0010
1000
0010
0100
0001
0100
0010
1000
0001
0010
0100
1000
0001
0100
0001
,
1000
0100
1000
0100
0010
0001
1000
0100
1000
0001
0100
0010
1000
0001
0010
0100
,
1000
0010
0100
0010
1000
0100
0010
0001
1000
0001
0100
0010
1000
0100
0010
0001
,
0100
0010
0100
0010
1000
0001
0100
0001
1000
0100
1000
0100
0010
0001
1000
0010
,
1000
0010
0100
0001
1000
0001
0100
0010
1000
0001
1000
0001
0100
0010
1000
0001
,
1000
0100
0010
0001
1000
0100
1000
0001
0100
0010
0100
0010
1000
0001
1000
0100
,
0010
0001
0010
0001
1000
0100
0010
0001
1000
0010
1000
0001
0010
0100
0010
0001
,
1000
0010
1000
0010
0100
0001
1000
0100
0010
0001
0010
0001
1000
0010
0100
0001
,
0100
0001
1000
0010
1000
0001
0100
0001
1000
0100
1000
0100
0010
0001
1000
0010
,
1000
0001
0010
0100
1000
0001
0010
0001
1000
0010
1000
0010
0100
0001
1000
0001
,
0010
0100
1000
0010
0100
0001
1000
0010
1000
0100
0010
0001
1000
0010
0100
0001
,
0010
0100
0010
0100
1000
0001
0010
0001
1000
0010
1000
0010
0100
0001
1000
0100
,
1000
0100
0010
0001
1000
0001
0010
0100
1000
0001
1000
0001
0010
0100
1000
0001
,
1000
0010
0100
0001
1000
0010
1000
0001
0010
0100
0010
0100
1000
0001
1000
0010
,
0100
0001
0100
0001
1000
0010
0100
0001
1000
0100
1000
0001
0100
0010
0100
0001
,
1000
0100
1000
0100
0010
0001
1000
0010
0100
0001
0100
0001
1000
0100
0010
0001
,
0010
0001
1000
0100
1000
0001
0010
0001
1000
0010
1000
0010
0100
0001
1000
0100
,
1000
0001
0100
0010
1000
0001
0100
0001
1000
0100
1000
0100
0010
0001
1000
0001
,
0100
0010
1000
0100
0010
0001
1000
0100
1000
0010
0100
0001
1000
0100
0010
0001
,
0100
0010
0100
0010
1000
0001
0100
0010
1000
0100
0010
0001
1000
0001
0100
0010
,
1000
0100
1000
0100
0010
0001
0010
0100
1000
0010
0100
0001
1000
0100
0010
0100
,
1000
0010
1000
0010
0100
0001
1000
0010
1000
0100
0010
0001
1000
0010
0100
0010
,
1000
0100
1000
0100
0010
0001
1000
0100
1000
0010
0100
0001
1000
0100
0010
0100
,
1000
0010
1000
0010
0100
0001
0100
0010
1000
0100
0010
0100
1000
0001
0100
0010
,
1000
0001
1000
0001
0010
0100
0010
0001
1000
0010
1000
0001
0010
0100
0010
0001
,
1000
0010
1000
0010
0100
0001
1000
0010
1000
0001
0010
0100
1000
0001
0100
0001
,
1000
0100
1000
0100
0010
0001
1000
0100
1000
0001
0100
0001
1000
0100
0010
0001
,
0100
0010
0100
0010
1000
0001
0100
0001
1000
0100
0010
0001
1000
0010
1000
0001
,
0010
0100
0010
0100
1000
0001
0010
0001
1000
0010
0100
0001
1000
0100
0010
0100
,
1000
0001
1000
0001
0100
0010
1000
0001
1000
0100
0010
0100
1000
0001
0100
0001
,
1000
0100
1000
0100
0010
0001
0010
0100
1000
0001
0100
0010
1000
0001
0010
0001
,
0100
0010
0100
0010
1000
0001
0100
0001
1000
0100
0010
0001
1000
0010
1000
0001
,
0010
0100
0010
0100
1000
0001
0010
0001
1000
0010
1000
0001
0010
0100
0010
0001
,
1000
0010
1000
0010
0100
0001
1000
0010
1000
0001
0010
0100
1000
0001
0100
0010
,
1000
0100
0010
0001
1000
0010
0100
0010
1000
0100
1000
0001
0100
0010
1000
0100
,
0010
0000
0000
0000
,
0000
0000
0000
0000
,
0000
0000
0000
0000
0000
0001
0100
0001
,
0000
1000
0100
1000
0000
0001
0100
0001
,
0000
1000
0100
1000
0000
0001
0010
0001
,
0000
1000
0010
1000
0000
0001
0010
0001
,
0100
0010
0100
0001
1000
0100
0010
0001
,
0100
0010
0100
0001
1000
0100
0010
0001
,
0100
0010
1000
0001
0010
0100
0010
0001
,
0100
0010
1000
0001
0010
0100
0010
0001
,
0100
0010
0100
0001
1000
0100
1000
0001
,
0100
0010
0100
0001
1000
0100
1000
0001
,
0100
0010
1000
0100
0010
0001
1000
0001
,
0100
0010
1000
0100
0010
0001
1000
0001
,
0100
0010
0100
0001
0010
0100
1000
0001
,
0100
0010
0100
0001
0010
0100
1000
0001
,
0200
0300
0010
0000
2000
3000
0100
0000
0010
0000
0002
0003
0200
0300
0001
0000
,
2000
3000
0100
0000
0020
0030
0100
0000
1000
0000
0020
0030
0200
0300
0001
0000
,
0020
0030
0100
0000
2000
3000
0010
0000
0100
0000
0002
0003
0020
0030
0001
0000
,
2000
3000
0010
0000
0200
0300
0010
0000
1000
0000
0200
0300
0020
0030
0001
0000
,
0200
0300
0010
0000
2000
3000
0100
0000
0010
0000
0002
0003
0200
0300
0001
0000
,
2000
3000
0100
0000
0020
0030
0100
0000
1000
0000
0020
0030
0200
0300
0001
0000
,
0010
0100
0010
0001
1000
0100
0010
0001
,
0100
0010
0100
0001
1000
0010
0100
0001
,
2000
3000
0100
0000
0020
0030
0100
0000
1000
0000
0020
0030
0200
0300
0001
0000
,
0020
0030
0100
0000
2000
3000
0001
0000
0200
0300
0001
0000
2000
3000
0010
0000
,
2000
3000
0001
0000
0020
0030
0001
0000
0200
0300
0010
0000
2000
3000
0001
0000
,
0020
0030
0100
0000
0020
0030
0001
0000
2000
3000
0010
0000
0200
0300
0001
0000
,
2000
3000
0100
0000
0020
0030
0001
0000
0200
0300
0001
0000
2000
3000
0010
0000
,
2000
3000
0001
0000
0020
0030
0001
0000
2000
3000
0010
0000
0200
0300
0001
0000
,
2000
3000
0100
0000
0020
0030
0001
0000
0200
0300
0010
0000
2000
3000
0001
0000
,
0020
0030
0001
0000
2000
3000
0100
0000
2000
3000
0001
0000
0200
0300
0010
0000
,
2000
3000
0001
0000
0020
0030
0001
0000
0200
0300
0010
0000
2000
3000
0001
0000
,
0020
0030
0100
0000
2000
3000
0001
0000
0200
0300
0010
0000
2000
3000
0001
0000
,
0020
0030
0100
0000
0020
0030
0001
0000
0200
0300
0010
0000
2000
3000
0001
0000
,
0020
0030
0100
0000
2000
3000
0001
0000
0200
0300
0010
0000
2000
3000
0001
0000
,
2000
3000
0100
0000
0020
0030
0001
0000
0200
0300
0010
0000
2000
3000
0001
0000
,
0020
0030
0100
0000
0020
0030
0001
0000
2000
3000
0001
0000
0200
0300
0010
0000
,
2000
3000
0001
0000
0020
0030
0001
0000
0200
0300
0010
0000
2000
3000
0001
0000
,
0020
0030
0100
0000
2000
3000
0001
0000
0200
0300
0010
0000
0200
0300
0001
0000
,
2000
3000
0100
0000
0020
0030
0001
0000
0200
0300
0001
0000
2000
3000
0010
0000
,
1000
0001
1000
0001
0010
0100
1000
0001
1000
0010
0100
0010
1000
0001
0010
0001
,
1000
0010
1000
0010
0100
0001
1000
0010
1000
0001
0010
0100
1000
0001
0100
0001
,
1000
0100
1000
0100
0010
0001
1000
0001
0100
0010
0100
0001
1000
0100
1000
0001
,
0100
0010
0100
0010
1000
0001
0100
0001
1000
0100
1000
0001
0100
0010
1000
0001
,
0010
0100
0010
0100
1000
0001
0010
0001
1000
0010
0100
0010
1000
0001
0010
0100
,
1000
0001
1000
0001
0100
0010
0100
0001
1000
0100
0010
0100
1000
0001
0100
0001
,
1000
0100
1000
0100
0010
0001
1000
0100
1000
0001
0100
0001
1000
0100
0010
0001
,
1000
0010
1000
0010
0100
0001
1000
0001
0010
0100
1000
0100
0010
0001
0100
0010
,
1000
0001
1000
0001
0100
0010
1000
0001
1000
0100
0010
0100
1000
0001
0100
0001
,
1000
0100
1000
0100
0010
0001
1000
0100
1000
0001
0100
0010
1000
0001
0010
0001
,
1000
0010
1000
0010
0100
0001
1000
0001
0010
0100
0010
0001
1000
0010
1000
0001
,
0010
0100
0010
0100
1000
0001
0010
0001
1000
0010
1000
0001
0010
0100
1000
0010
,
0100
0001
1000
0010
1000
0001
0100
0001
1000
0100
0010
0100
1000
0001
0010
0100
,
1000
0010
0100
0001
0100
0010
1000
0001
0010
0100
0010
0001
1000
0100
0010
0001
,
0100
0001
1000
0010
1000
0100
0010
0001
0010
0100
1000
0010
0100
0010
1000
0001
,
0010
0100
0010
0001
1000
0010
0100
0010
1000
0001
0010
0001
1000
0010
0100
0001
,
0010
0100
1000
0001
1000
0100
0010
0001
1000
0010
0100
0001
1000
0100
0010
0100
,
1000
0001
0100
0001
1000
0010
0100
0010
1000
0001
0010
0100
1000
0001
0100
0001
,
1000
0100
0010
0100
1000
0001
0010
0100
1000
0001
0100
0001
1000
0100
0010
0001
,
1000
0010
0100
0010
1000
0001
0100
0001
1000
0100
0010
0100
1000
0001
0100
0010
,
1000
0100
0010
0100
1000
0001
0010
0100
1000
0001
0100
0001
1000
0100
1000
0001
,
0100
0010
0100
0001
1000
0001
0100
0010
1000
0001
0010
0100
1000
0001
0100
0001
,
1000
0100
0010
0001
1000
0001
0010
0100
1000
0001
0100
0001
1000
0100
0010
0100
,
1000
0010
0100
0010
1000
0100
0010
0001
1000
0001
0100
0010
1000
0100
0010
0001
,
0100
0010
1000
0001
1000
0010
0100
0001
1000
0100
0010
0001
1000
0010
0100
0010
,
1000
0001
0010
0001
1000
0100
0010
0100
1000
0001
0100
0010
1000
0001
0010
0001
,
1000
0010
0100
0010
1000
0001
0100
0010
1000
0001
0010
0001
1000
0010
0100
0001
,
1000
0100
0010
0100
1000
0001
0010
0001
1000
0010
0100
0010
1000
0001
0010
0100
,
1000
0010
0100
0010
1000
0001
0100
0010
1000
0001
0010
0001
1000
0010
1000
0001
,
0010
0100
0010
0001
1000
0001
0010
0100
1000
0001
0100
0010
1000
0001
0010
0001
,
1000
0010
0100
0001
1000
0001
0100
0010
1000
0001
0010
0001
1000
0010
0100
0010
,
1000
0100
0010
0100
1000
0010
0100
0001
1000
0001
0010
0100
1000
0010
0100
0001
,
0010
0100
1000
0100
0010
0001
1000
0010
0100
0010
1000
0001
1000
0100
0010
0001
,
1000
0001
0010
0100
1000
0010
0100
0001
1000
0001
0100
0010
0100
0001
1000
0100
,
1000
0001
0010
0100
1000
0010
0100
0001
1000
0100
0010
0001
0010
0100
1000
0001
,
0100
0010
1000
0001
0100
0001
1000
0010
0100
0001
1000
0001
0010
0100
0010
0001
,
1000
0010
0100
0001
1000
0001
0010
0100
0010
0001
1000
0100
1000
0001
0100
0010
,
0100
0001
1000
0010
1000
0100
0010
0001
1000
0001
0010
0100
0010
0001
1000
0010
,
1000
0001
0100
0010
1000
0100
0010
0001
1000
0010
0100
0010
1000
0001
0100
0001
,
1000
0100
1000
0010
0100
0001
0010
0001
1000
0010
0100
0010
1000
0100
0010
0001
,
0100
0010
1000
0010
0100
0001
1000
0100
0010
0100
1000
0001
1000
0010
0100
0001
,
1000
0001
0100
0010
1000
0100
0010
0001
1000
0001
0010
0100
0010
0001
1000
0010
,
1000
0001
0100
0010
1000
0100
0010
0001
1000
0010
0100
0001
0100
0010
1000
0001
,
0010
0100
1000
0001
0010
0001
1000
0100
0010
0001
1000
0001
0100
0010
0100
0001
,
1000
0100
0010
0001
1000
0001
0100
0010
0100
0001
1000
0010
1000
0001
0010
0100
,
0010
0001
1000
0100
1000
0010
0100
0001
1000
0001
0100
0010
0100
0001
1000
0100
,
1000
0001
0010
0100
1000
0010
0100
0001
1000
0100
0010
0100
1000
0001
0010
0001
,
1000
0010
1000
0100
0010
0001
0100
0001
1000
0100
0010
0100
1000
0010
0100
0001
,
0010
0100
1000
0001
0010
0001
1000
0010
0100
0010
1000
0001
1000
0100
0010
0100
,
1000
0001
0010
0100
1000
0010
0100
0010
1000
0001
1000
0010
0100
0001
1000
0100
,
1000
0001
0010
0100
1000
0010
0100
0001
1000
0100
1000
0001
0010
0100
1000
0001
,
0100
0010
0100
0001
1000
0001
0100
0010
0100
0001
1000
0001
0010
0100
0010
0001
,
1000
0010
0100
0001
1000
0001
0010
0100
0010
0001
1000
0100
1000
0001
0100
0010
,
0100
0001
1000
0010
1000
0100
0010
0100
1000
0001
0010
0100
0010
0001
1000
0010
,
1000
0001
0100
0010
1000
0100
0010
0001
1000
0010
0100
0010
1000
0001
0100
0001
,
1000
0100
1000
0010
0100
0001
0010
0100
1000
0001
0100
0010
1000
0100
0010
0001
,
0100
0010
1000
0001
0100
0001
1000
0100
0010
0100
1000
0001
1000
0010
0100
0010
,
1000
0001
0100
0010
1000
0100
0010
0100
1000
0001
1000
0100
0010
0001
1000
0010
,
1000
0001
0100
0010
1000
0100
0010
0001
1000
0010
1000
0001
0100
0010
1000
0001
,
0010
0100
0010
0001
1000
0001
0010
0100
0010
0001
1000
0001
0100
0010
0100
0001
,
1000
0100
0010
0001
1000
0001
0100
0010
0100
0001
1000
0010
1000
0001
0010
0100
,
0010
0001
1000
0100
1000
0010
0100
0010
1000
0001
0100
0010
0100
0001
1000
0100
,
1000
0001
0010
0100
1000
0010
0100
0001
1000
0100
0010
0100
1000
0001
0010
0001
,
1000
0010
1000
0100
0010
0001
0100
0010
1000
0001
0010
0100
1000
0010
0100
0001
,
0010
0100
0010
0001
1000
0100
0010
0001
1000
0100
0010
0100
1000
0010
0100
0001
,
0010
0001
1000
0100
0010
0001
1000
0100
1000
0001
0100
0010
1000
0001
0010
0001
,
0100
0010
0100
0001
1000
0010
0100
0010
1000
0001
0100
0001
0010
0100
0010
0001
,
0100
0010
0100
0001
1000
0010
0100
0010
1000
0100
0010
0001
0100
0001
1000
0010
,
1000
0100
0010
0001
1000
0100
1000
0001
0010
0100
0010
0001
0100
0001
1000
0010
,
1000
0100
0010
0001
1000
0100
1000
0001
0100
0010
0100
0001
1000
0100
0010
0100
,
1000
0010
0100
0001
1000
0010
1000
0001
0100
0001
1000
0010
1000
0100
0010
0100
,
1000
0010
1000
0001
0010
0001
1000
0010
0100
0001
0010
0100
1000
0100
0010
0001
,
0100
0010
0100
0001
1000
0010
0100
0001
1000
0010
0100
0010
1000
0100
0010
0001
,
0100
0001
1000
0010
0100
0001
1000
0010
1000
0001
0010
0100
1000
0010
0100
0001
,
0010
0100
0010
0001
1000
0100
0010
0100
1000
0001
0010
0001
0100
0010
0100
0001
,
0010
0100
0010
0001
1000
0010
0100
0010
1000
0100
0010
0001
0100
0001
1000
0100
,
1000
0010
0100
0001
1000
0001
0100
0010
1000
0100
0010
0001
1000
0001
0010
0100
,
1000
0010
0100
0010
1000
0001
0100
0001
0010
0100
1000
0001
1000
0100
0010
0001
,
0100
0001
1000
0010
1000
0100
0010
0100
1000
0010
0100
0001
0010
0001
1000
0100
,
1000
0000
0001
0000
1000
0000
0010
0010
,
0200
0300
0000
0000
,
M000
0000
0000
0000
;
