#TITLE:In An Instant;
#SUBTITLE:;
#ARTIST:The Flashbulb;
#TITLETRANSLIT:;
#SUBTITLETRANSLIT:;
#ARTISTTRANSLIT:;
#CREDIT:;
#BANNER:In An Instant-banner.png;
#BACKGROUND:In An Instant-bg.png;
#LYRICSPATH:;
#CDTITLE:cdtitle.png;
#MUSIC:01 in an instant.mp3;
#OFFSET:-0.042;
#SAMPLESTART:28.480;
#SAMPLELENGTH:12.000;
#SELECTABLE:YES;
#BPMS:0.000=83.990;
#STOPS:;
#BGCHANGES:;
// cache tags:
#FIRSTBEAT:0.000;
#LASTBEAT:154.125;
#SONGFILENAME:Songs/toune 2/In An Instant/inaninstant.sm;
#HASMUSIC:1;
#HASBANNER:1;
#MUSICLENGTH:122.906;
// end cache tags

//---------------dance-solo - ----------------
#NOTES:
     dance-solo:
     :
     Hard:
     9:
     0.436,0.470,0.521,0.008,0.220,310.000,64.000,1.000,0.000,1.000:
100000
000000
011000
000000
,
001100
000000
000110
000000
,
100010
000000
010000
000100
000010
000000
000100
000000
100001
000000
010000
000100
000001
000000
001000
000000
,
010001
000000
010000
000100
000010
000000
000100
000000
100001
000000
010000
000100
000010
000000
100100
000000
,
001010
000000
100000
001000
000100
000000
010000
000000
000001
000000
000000
100000
000000
000000
000100
000000
,
100010
000100
010000
100000
000000
000001
000000
000000
,
100010
000000
010000
000100
000010
000000
000100
000000
100001
000000
010000
000100
000001
000000
010000
000000
,
001001
000000
010000
000100
000010
000000
000100
000000
100001
000000
010000
000100
000010
000000
100100
000000
,
001010
000000
100000
001000
000100
000000
010000
000000
000001
000000
000000
100000
000000
000000
000100
000000
,
100010
000100
010000
100000
000000
000000
010010
000000
,
100010
000000
010000
000100
000010
000000
100100
000000
100010
010000
001000
000100
000020
000000
001000
000000
,
010031
000000
010000
000100
000010
000000
000100
000000
100001
000000
010000
000100
000001
000000
100100
000000
,
001001
000000
000010
000000
000100
000000
001000
000000
010001
000000
000000
100000
000000
000000
100100
000000
,
010010
000100
010000
100000
000000
000000
000000
000000
,
100100
001000
010000
000010
000100
000000
000000
000000
,
100100
001000
010000
000001
000010
001000
000010
000001
,
101000
000000
000000
000000
100000
001000
000100
000010
,
100001
000100
001000
010000
000001
000100
000000
000000
,
100001
000100
001000
010000
100010
000000
000000
000000
,
100001
000000
000000
000000
000000
000000
000000
000100
,
100010
010000
001000
010000
100001
001000
000100
001000
,
110000
001000
000100
001000
011000
000100
000010
001100
,
100010
010000
001000
010000
100001
001000
000100
001000
,
010001
000100
000010
000100
100001
000100
001010
000100
,
101000
000000
010000
000100
000010
000000
000100
000000
100000
000000
010000
000100
000001
000000
000010
000000
,
100001
000000
001000
000010
000001
000000
000010
000000
100001
000000
000100
000010
000001
000000
000010
000000
,
101000
000000
000100
000010
000001
000000
000010
000000
110000
000000
001000
000010
000001
000000
000010
000000
,
100100
000000
010000
000100
000001
000000
000100
000000
101000
000000
010000
000100
000010
000000
000100
000000
,
110000
000000
010000
000100
000001
000000
000100
000000
100000
000000
010000
000100
000010
000000
000100
000000
,
100000
000000
010000
001000
000100
000000
001000
000000
100100
000000
000010
000000
101000
000000
000001
000000
,
100010
000000
010000
000100
000010
000000
000100
001000
000010
000000
010000
000100
000001
000000
000100
001000
,
000001
000000
010000
000010
000001
000000
000010
001000
000001
000000
010000
000010
000001
000000
000010
000100
,
000001
000000
001000
000010
000001
000000
000010
001000
000100
000000
010000
000100
000010
000000
000100
001000
,
000001
000000
001000
000010
000001
000000
000010
010000
000100
000000
010000
000100
000001
000000
000100
000000
,
100010
000000
010000
000100
000010
000000
000100
000000
100001
000000
010000
000100
000001
000000
001000
000000
,
010001
000000
010000
000100
000010
000000
000100
000000
100001
000000
010000
000100
000010
000000
100100
000000
,
001010
000000
100000
001000
000100
000000
010000
000000
000001
000000
000000
100000
000000
000000
000100
000000
,
100010
000000
000100
000000
010000
000000
100000
000000
000000
000000
000000
000000
000001
000010
000100
001000
,
000000
010000
000000
000000
000000
100000
000000
000000
000000
000000
000000
000000
000000
000000
000000
000000
000000
000000
000000
000000
000000
000000
000000
000000
000000
000000
000000
000000
000000
000000
000000
000000
100001
000000
000000
000000
000000
000000
000000
000000
000000
000000
000000
000000
000000
000000
000000
000000
000000
000000
000000
000000
000000
000000
000000
000000
000000
000000
000000
000000
000000
000000
000000
000000
;

//---------------dance-solo - ----------------
#NOTES:
     dance-solo:
     :
     Challenge:
     10:
     0.502,0.580,0.700,0.008,0.252,320.000,86.000,1.000,0.000,25.000:
100000
000000
011000
000000
,
000100
001000
010000
000000
000000
000000
000000
000000
000000
000000
000000
000000
000000
000000
000000
000000
000000
000000
000000
000000
000000
000000
000000
000000
000000
000000
000000
000000
000000
000000
000000
000000
000110
000000
000000
000000
000000
000000
000000
000000
000000
000000
000000
000000
000000
000000
000000
000000
100000
000000
000000
000000
000000
000000
000000
000000
000000
000000
000000
000000
000000
000000
000000
000000
,
100010
000000
010000
000100
000010
000000
000100
000000
010010
000000
010000
000100
000001
000000
001000
000000
,
010101
000000
010000
000100
000010
000000
000100
000000
100001
000000
010000
000100
000010
000000
100100
000000
,
001010
000000
100000
001000
000100
000000
100000
000000
000001
000000
000000
100000
000000
000000
000100
000000
,
100010
000100
010000
100000
000000
000001
000000
000000
,
100010
000000
010000
000100
000010
000000
000100
000000
010010
000000
010000
000100
000001
000000
001000
000000
,
010101
000000
010000
000100
000010
000000
000100
000000
100001
000000
010000
000100
000010
000000
100100
000000
,
001010
000000
100000
001000
000100
000000
100000
000000
000001
000000
000000
100000
000000
000000
000100
000000
,
100010
000000
000000
000000
000000
000000
000100
000000
000000
000000
000000
000000
010000
000000
000000
000000
000000
000000
100000
000000
000000
000000
000000
000000
000000
000000
000000
000000
000000
000000
000000
000000
000000
000000
000000
000000
000010
010000
000000
000000
000000
000000
000000
000000
000000
000000
000000
000000
,
100010
000000
010000
000100
000010
000000
100100
000000
100001
010000
101000
010100
001020
000000
010000
000000
,
100131
000000
010000
000100
000010
000000
000100
000000
011001
000000
010000
000100
000001
000000
100100
000000
,
101001
000000
010010
001000
000110
000000
011000
000000
110001
000000
000000
100000
000000
000000
100100
000000
,
110010
000100
010000
100000
000000
000000
000000
000000
,
100000
000100
000000
000000
000000
000000
000000
000000
001000
000000
000000
000000
000000
000000
000000
000000
010000
000000
000000
000000
000000
000000
000000
000000
000010
000000
000000
000000
000000
000000
000000
000000
000100
000000
000000
000000
000000
000000
000000
000000
000000
000000
000000
000000
000000
000000
000000
000000
000000
000000
000000
000000
000000
000000
000000
000000
000000
000000
000000
000000
000000
000000
000000
000000
,
100000
000100
000000
000000
000000
000000
000000
000000
001000
000000
000000
000000
000000
000000
000000
000000
010000
000000
000000
000000
000000
000000
000000
000000
000001
000000
000000
000000
000000
000000
000000
000000
000010
000000
000000
000000
000000
000000
000000
000000
001000
000000
000000
000000
000000
000000
000000
000000
000010
000000
000000
000000
000000
000000
000000
000000
000001
000000
000000
000000
000000
000000
000000
000000
,
101000
000000
000000
000000
100000
001000
010100
100010
,
100001
000100
001000
010000
000001
000100
000000
000000
,
100001
000100
001000
010000
100010
000000
000000
000000
,
100001
000000
000000
000000
000000
000000
000000
000100
,
101010
010000
101000
010000
100101
001000
010100
001000
,
110100
001000
010100
001000
011100
000100
001010
001100
,
101010
010000
001100
010000
100101
001000
010100
001000
,
010101
000100
001010
000100
101001
000100
001010
000100
,
101000
000000
010000
000100
000010
000000
000100
000000
100000
000000
010000
000100
000001
000000
000101
000000
,
100010
000000
001000
000010
000001
000000
000010
000000
100001
000000
000100
000010
001001
000000
000010
000000
,
101000
000000
000100
000010
000001
000000
000010
000000
110000
000000
001000
000010
000001
000000
000010
000000
,
100100
000000
010000
000100
000001
000000
000100
000000
101000
000000
010000
000100
000010
000000
000100
000000
,
110000
000000
010000
000100
000001
000000
000100
000000
100000
000000
010000
000100
000010
000000
000100
000000
,
100000
000000
010000
001000
000100
000000
001000
000000
100100
000000
000010
000000
101000
000000
000101
000000
,
100010
000000
010000
000100
000010
000000
000100
001000
100110
000000
010000
000100
000001
000000
000100
001000
,
100101
000000
010000
000010
000001
000000
000010
001000
010011
000000
010000
000010
000001
000000
000010
000100
,
001011
000000
001000
000010
000001
000000
000010
001000
010110
000000
010000
001000
000101
000000
000100
001000
,
010011
000000
001000
000010
000001
000000
000010
010000
100101
000000
010000
000100
001011
000000
000100
000000
,
110010
000000
010000
000100
000010
000000
000100
000000
010010
000000
010000
000100
000001
000000
001000
000000
,
010101
000000
010000
000100
000010
000000
000100
000000
100001
000000
010000
000100
000010
000000
100100
000000
,
001010
000000
100000
001000
000100
000000
100000
000000
000001
000000
000000
100000
000000
000000
000100
000000
,
100010
000000
000100
000000
001000
000000
010000
000000
100000
000000
000000
000000
000001
000010
000100
001000
,
000000
010000
000000
000000
000000
100000
000000
000000
000000
000000
000000
000000
000000
000000
000000
000000
000000
000000
000000
000000
000000
000000
000000
000000
000000
000000
000000
000000
000000
000000
000000
000000
100000
000100
000001
000000
000000
000000
000000
000000
000000
000000
000000
000000
000000
000000
000000
000000
000000
000000
000000
000000
000000
000000
000000
000000
000000
000000
000000
000000
000000
000000
000000
000000
;

//---------------dance-single - ----------------
#NOTES:
     dance-single:
     :
     Hard:
     9:
     0.437,0.454,0.504,0.008,0.220,313.000,62.000,1.000,0.000,1.000:
1000
0000
1100
0000
,
0110
0000
0011
0000
,
1010
0000
1000
0100
0010
0000
0100
0000
1001
0000
1000
0010
0001
0000
1000
0000
,
0101
0000
1000
0100
0010
0000
0100
0000
1001
0000
1000
0010
0001
0000
1010
0000
,
0101
0000
1000
0100
0010
0000
1000
0000
0001
0000
0000
1000
0000
0000
0010
0000
,
1001
0010
0100
1000
0000
0001
0000
0000
,
1010
0000
1000
0100
0010
0000
0100
0000
1001
0000
1000
0010
0001
0000
1000
0000
,
0101
0000
1000
0100
0010
0000
0100
0000
1001
0000
1000
0010
0001
0000
1010
0000
,
0101
0000
1000
0100
0010
0000
1000
0000
0001
0000
0000
1000
0000
0000
0010
0000
,
1001
0010
0100
1000
0000
0000
0110
0000
,
1010
0000
1000
0100
0010
0000
1100
0000
1000
0100
0010
0001
0020
0000
0100
0000
,
0131
0000
1000
0100
0010
0000
0100
0000
1001
0000
1000
0100
0010
0000
1010
0000
,
0101
0000
0010
0000
0100
0000
1000
0000
0010
0000
0000
1000
0000
0000
1001
0000
,
0101
0010
0100
1000
0000
0000
0000
0000
,
1010
0100
1000
0010
0100
0000
0000
0000
,
1010
0100
1000
0001
0010
0100
0010
0001
,
1001
0000
0000
0000
1000
0010
0100
0010
,
1001
0010
0100
1000
0001
0100
0000
0000
,
1001
0010
0100
1000
1001
0100
0010
1000
,
1001
0000
0000
0000
0000
0000
0000
0010
,
1001
0100
0010
0100
1001
0010
0001
0010
,
1100
0010
0001
0010
0110
0100
0010
0110
,
1001
0100
0010
0100
1001
0010
0001
0010
,
0101
0010
0001
0010
0110
0001
1010
0001
,
1100
0000
1000
0100
0010
0000
0100
0000
1000
0000
1000
0010
0001
0000
0010
0000
,
1100
0000
0100
0010
0001
0000
0010
0000
0110
0000
0100
0010
0001
0000
0010
0000
,
1100
0000
0100
0010
0001
0000
0010
0000
1100
0000
1000
0010
0001
0000
0010
0000
,
1001
0000
1000
0010
0001
0000
0010
0000
0101
0000
1000
0100
0010
0000
0100
0000
,
0110
0000
0100
0010
0001
0000
0010
0000
1000
0000
1000
0010
0001
0000
0010
0000
,
1000
0000
1000
0100
0001
0000
0100
0000
1001
0000
0100
0000
1010
0000
0001
0000
,
1100
0000
1000
0100
0010
0000
0100
1000
0010
0000
1000
0010
0001
0000
0010
1000
,
0001
0000
1000
0100
0001
0000
0100
0010
0001
0000
0100
0010
0001
0000
0010
1000
,
0001
0000
0100
0010
0001
0000
0010
1000
0010
0000
1000
0100
0001
0000
0100
1000
,
0001
0000
0100
0010
0001
0000
0010
1000
0100
0000
1000
0010
0001
0000
0010
0000
,
1010
0000
1000
0100
0010
0000
0100
0000
1001
0000
1000
0010
0001
0000
1000
0000
,
0101
0000
1000
0100
0010
0000
0100
0000
1001
0000
1000
0010
0001
0000
1010
0000
,
0101
0000
1000
0100
0010
0000
1000
0000
0001
0000
0000
1000
0000
0000
0010
0000
,
1001
0000
0010
0000
0100
0000
1000
0000
0000
0000
0000
0000
0010
0100
0001
0010
,
0000
0100
0000
0000
0000
1000
0000
0000
0000
0000
0000
0000
0000
0000
0000
0000
0000
0000
0000
0000
0000
0000
0000
0000
0000
0000
0000
0000
0000
0000
0000
0000
1001
0000
0000
0000
0000
0000
0000
0000
0000
0000
0000
0000
0000
0000
0000
0000
0000
0000
0000
0000
0000
0000
0000
0000
0000
0000
0000
0000
0000
0000
0000
0000
;

//---------------dance-single - ----------------
#NOTES:
     dance-single:
     :
     Challenge:
     10:
     0.472,0.517,0.700,0.008,0.240,319.000,86.000,1.000,0.000,1.000:
1000
0000
0000
0000
0000
0000
0000
0000
0000
0000
0000
0000
0000
0000
0000
0000
0000
0000
0000
0000
0000
0000
0000
0000
0000
0000
0000
0000
0000
0000
0000
0000
0100
1000
0000
0000
0000
0000
0000
0000
0000
0000
0000
0000
0000
0000
0000
0000
0000
0000
0000
0000
0000
0000
0000
0000
0000
0000
0000
0000
0000
0000
0000
0000
,
0110
0000
0011
1000
,
1000
0010
0000
0000
0000
0000
0000
0000
1000
0000
0000
0000
0100
0000
0000
0000
0010
0000
0000
0000
0000
0000
0000
0000
0100
0000
0000
0000
0000
0000
0000
0000
1001
0000
0000
0000
0000
0000
0000
0000
1000
0000
0000
0000
0010
0000
0000
0000
0001
0000
0000
0000
0000
0000
0000
0000
1000
0000
0000
0000
0000
0000
0000
0000
,
0101
0000
1000
0100
0010
0000
0100
0000
1001
0000
1000
0010
0001
0000
1010
0000
,
0101
0000
1000
0100
0010
0000
1000
0000
0001
0000
0000
1000
0000
0000
0010
0000
,
1001
0010
0100
1000
0000
0001
0000
0000
,
1010
0000
1000
0100
0010
0000
0100
0000
1001
0000
1000
0010
0001
0000
1000
0000
,
0101
0000
1000
0100
0010
0000
0100
0000
1001
0000
1000
0010
0001
0000
1010
0000
,
0101
0000
1000
0100
0010
0000
1000
0000
0001
0000
0000
1000
0000
0000
0010
0000
,
1001
0000
0000
0000
0000
0000
0010
0000
0000
0000
0000
0000
0100
0000
0000
0000
0000
0000
1000
0000
0000
0000
0000
0000
0000
0000
0000
0000
0000
0000
0000
0000
0000
0000
0000
0000
0010
0100
0000
0000
0000
0000
0000
0000
0000
0000
0000
0000
,
1010
0000
1000
0100
0010
0000
1100
0000
1001
0100
1010
0101
1020
0000
0100
0000
,
0131
0000
1000
0100
0010
0000
0100
0000
1001
0000
1000
0100
0010
0000
1010
0000
,
0101
0000
1010
0100
0011
0000
0110
0000
1010
0000
0000
1000
0000
0000
1001
0000
,
0101
0010
0100
1000
0000
0000
0000
0000
,
1010
0100
1000
0010
0100
0000
0000
0000
,
1010
0100
1000
0001
0010
0100
0010
0001
,
1001
0000
0000
0000
1000
0010
0110
0101
,
1001
0010
0100
1000
0001
0100
0000
0000
,
1001
0010
0100
1000
1001
0100
0010
1000
,
1001
0000
0000
0000
0000
0000
0000
0010
,
1001
0100
1010
0100
1001
0010
0101
0010
,
1100
0010
0101
0010
0110
0100
1010
0110
,
1001
0100
1010
0100
1001
0010
0101
0010
,
0101
0010
1001
0010
0110
0001
1010
0001
,
1100
0000
1000
0100
0010
0000
0100
0000
1000
0000
1000
0010
0001
0000
0011
0000
,
1100
0000
0100
0010
0001
0000
0010
0000
0101
0000
0100
0010
1001
0000
0010
0000
,
1100
0000
0100
0010
0001
0000
0010
0000
1100
0000
1000
0010
0001
0000
0010
0000
,
1001
0000
1000
0010
0001
0000
0010
0000
0101
0000
1000
0100
0010
0000
0100
0000
,
0110
0000
0100
0010
0001
0000
0010
0000
1000
0000
1000
0010
0001
0000
0010
0000
,
1000
0000
1000
0100
0001
0000
0100
0000
1001
0000
0100
0000
1010
0000
0001
0000
,
1100
0000
1000
0100
0010
0000
0100
1000
0110
0000
1000
0010
0001
0000
0010
1000
,
0101
0000
1000
0100
0001
0000
0100
0010
0101
0000
0100
0010
0001
0000
0010
1000
,
0011
0000
0100
0010
0001
0000
0010
1000
0110
0000
1000
0100
0011
0000
0100
1000
,
0011
0000
0100
0010
0001
0000
0010
1000
0110
0000
1000
0010
0101
0000
0010
0000
,
1010
0000
1000
0100
0010
0000
0100
0000
1001
0000
1000
0010
0001
0000
1000
0000
,
0101
0000
1000
0100
0010
0000
0100
0000
1001
0000
1000
0010
0001
0000
1010
0000
,
0101
0000
1000
0100
0010
0000
1000
0000
0001
0000
0000
1000
0000
0000
0010
0000
,
1001
0000
0010
0000
0100
0000
1000
0000
0000
0000
0000
0000
0010
0100
0001
0010
,
0000
0100
0000
0000
0000
1000
0000
0000
0000
0000
0000
0000
0000
0000
0000
0000
0000
0000
0000
0000
0000
0000
0000
0000
0000
0000
0000
0000
0000
0000
0000
0000
1000
0001
0000
0000
0000
0000
0000
0000
0000
0000
0000
0000
0000
0000
0000
0000
0000
0000
0000
0000
0000
0000
0000
0000
0000
0000
0000
0000
0000
0000
0000
0000
;
