#TITLE:Innocent;
#SUBTITLE:;
#ARTIST:m1dy;
#TITLETRANSLIT:;
#SUBTITLETRANSLIT:;
#ARTISTTRANSLIT:;
#CREDIT:;
#BANNER:innocent-bn.JPG;
#BACKGROUND:innocent-bg.png;
#LYRICSPATH:innocent.lrc;
#CDTITLE:Crono288-cdtitle.gif;
#MUSIC:02. Innocent.ogg;
#OFFSET:-0.100;
#SAMPLESTART:0.020;
#SAMPLELENGTH:12.000;
#SELECTABLE:YES;
#BPMS:0.000=175.000,36.000=87.500,44.500=175.000,156.000=350.000,220.000=175.000,316.000=350.000,380.000=87.500,396.000=175.000,444.000=350.000,580.000=700.000,596.000=175.000;
#STOPS:;
#BGCHANGES:;
// cache tags:
#FIRSTBEAT:0.500;
#LASTBEAT:679.500;
#SONGFILENAME:Songs/toune 2/02. Innocent/02. Innocent.sm;
#HASMUSIC:1;
#HASBANNER:1;
#MUSICLENGTH:105.000;
// end cache tags

//---------------dance-single - Blank----------------
#NOTES:
     dance-single:
     Blank:
     Hard:
     12:
     1.000,1.000,0.790,0.133,0.367,998.000,83.000,14.000,48.000,0.000:

0000
0000
1001
0000
0000
0001
0010
0100
1000
0000
0000
1000
0100
0010
0001
0000
,
0000
0100
0010
0001
0010
0001
0100
1000
,
0100
1000
0010
0001
0100
0010
1000
0001
,
0100
0010
0001
0100
1000
0010
0100
0001
,
0010
1000
0100
0010
0001
0010
0100
1000
,
0001
0010
0100
0000
1000
0000
0001
0000
0100
0000
0010
0000
0001
0000
0100
0000
,
0010
1000
0001
0100
0001
1000
0100
0010
,
0001
0010
0100
1000
0001
0010
0100
1000
,
0001
0110
1001
0110
1001
0100
0001
0100
,
1001
0001
0100
0010
0000
0100
0010
0000
0010
1000
0100
0000
0001
0010
0001
0010
,
0100
0010
1000
0001
0000
0010
1000
0000
1000
0001
0010
0000
0001
1000
0010
0100
,
1001
0000
0010
0000
1000
0000
0010
0000
0010
0000
0001
0000
1000
0100
1000
0100
,
1000
0000
0010
0000
0010
0000
0010
0000
0001
0000
1000
0000
0010
0001
0010
0001
,
0010
0000
1000
0000
0001
0000
0100
0000
0010
0000
1000
0000
1000
0100
0010
0001
,
2002
3003
0000
2002
3003
0000
0220
0330
,
1000
0100
0010
0001
0010
0001
0010
0100
,
0001
0100
0010
1000
0100
0010
1000
0001
,
0100
0010
0001
1000
0100
0010
0100
0001
,
1000
0010
0100
0001
0010
0100
0001
1000
,
0100
0001
0010
0100
0001
1000
0010
0100
,
0001
0100
0010
0001
1000
0100
0010
0001
,
0100
1000
0010
0001
0100
0010
1000
0010
,
2002
0000
3003
0MM0
,
0100
0010
0001
0010
0001
0100
0010
1000
,
0100
0001
0010
0100
0001
0010
1000
0100
,
0010
0001
0010
0001
0100
1000
0100
0010
,
1000
0100
0010
0100
0001
0010
0100
1000
,
0010
0100
0001
0010
0100
0001
1000
0001
,
0010
0100
0001
0100
0010
0001
1000
0001
,
0010
1000
0001
0100
0010
0001
0100
0010
,
1001
0000
M000
0000
0M00
0000
00M0
0000
000M
0000
1000
0001
1000
0001
1000
0000
,
0100
0001
0010
1000
0001
0100
0010
0001
,
0100
1000
0010
0001
0100
0010
0001
1000
,
0010
0100
0001
1000
0010
0100
0001
0010
,
0001
0100
0010
0001
1000
0010
1000
0010
,
1000
0001
0100
0010
0001
1000
0100
0010
,
0001
0100
0010
0001
1000
0100
1000
0010
,
0100
0010
0001
0010
0100
1000
0001
0010
,
1001
000M
00M0
0M00
M000
0M00
00M0
000M
,
1000
0100
0001
0010
,
1000
0000
0001
0000
0010
0000
1000
0100
,
0010
0001
0100
0010
,
1000
0000
0001
0000
0100
0000
0001
0010
,
0100
1000
0001
0010
,
0100
0000
1000
0000
0001
0000
0010
0100
,
0001
1000
0001
0100
,
0010
0000
0001
0000
1000
0000
0010
0100
,
1000
0001
0100
0010
,
1000
0000
0010
0000
0001
0000
0100
0010
,
1000
0001
0100
0010
,
0001
0000
0100
0000
1000
0000
0001
0010
,
0001
1000
0010
0001
,
0100
0000
0010
0000
0001
0000
1000
0010
,
0100
0001
0100
0010
,
0001
0000
1000
0000
0100
0000
0001
1000
,
0001
0000
0000
0001
0000
0000
0001
0000
0000
0000
1000
0001
1000
0001
1000
0000
,
1000
0000
0000
1000
0000
0000
1000
0000
0000
0000
0001
1000
0001
1000
0001
0000
,
0010
0000
0000
0010
0000
0000
0010
0000
0000
0000
0100
0010
0100
0010
0100
0000
,
0100
0000
0000
0100
0000
0000
0100
0000
0000
0000
0010
0100
0010
0100
0010
0000
,
1100
0000
0000
0011
0000
0000
0011
0000
,
1010
0000
0000
0101
0000
0000
0101
0000
,
0011
0000
0000
1100
0000
0000
1100
0000
,
0220
0000
0000
0000
0330
0000
0220
0000
0000
0000
0000
0330
2002
0000
0000
3003
,
1000
0100
0010
0001
0100
0010
0001
1000
,
0100
0010
0001
0100
0010
0001
1000
0100
,
0010
0001
0100
0001
0010
1000
0100
0010
,
0001
M000
0M00
00M0
000M
00M0
0M00
M000
,
1000
0100
0010
0001
0010
0001
0100
1000
,
0010
0100
0001
0010
1000
0100
0010
0001
,
0100
0010
0001
1000
0100
1000
0010
0100
,
0001
000M
00M0
0M00
M000
0M00
00M0
000M
,
0010
0100
0001
1000
0010
0001
0100
1000
,
0010
0100
0001
0100
0010
1000
0001
0100
,
0001
0100
0010
0001
1000
0010
0100
0001
,
1000
0010
0001
0100
0010
0001
1000
0100
,
0010
0001
0100
0010
0001
1000
0100
0010
,
0001
1000
0010
0001
0100
0010
0001
0100
,
0001
0100
1000
0001
0100
0010
0001
0100
,
1001
M000
0M00
00M0
000M
00M0
0M00
M000
,
1000
0100
0010
0001
,
0010
0000
0100
0000
0001
0000
0100
0010
,
1000
0100
0001
0100
,
0010
0000
0001
0000
1000
0000
0010
0100
,
0001
0100
1000
0001
,
0100
0000
0010
0000
0001
0000
0100
0001
,
0100
0001
1000
0100
,
0010
0000
0001
0000
0100
0000
0001
0100
,
1000
0100
0010
0001
,
0100
0000
0010
0000
1000
0000
0001
0100
,
0001
0100
0010
0001
,
1000
0000
0100
0000
0010
0000
0100
1000
,
0010
1000
0100
0010
,
0001
0000
0010
0000
0001
0000
0100
0010
,
1000
0100
0001
0100
,
0010
0000
0001
0000
1000
0000
0010
0100
,
0001
1000
0010
0000
1000
0010
0000
0100
1000
0010
0000
0100
0001
0010
0001
0100
,
0010
0100
1000
0000
0100
1000
0000
0010
0001
0100
0000
0010
0001
0100
0010
0001
,
0100
0010
0001
0000
0010
0001
0000
0100
0010
1000
0000
0001
0010
0001
0100
1000
,
0010
0100
0010
0000
0100
0010
0000
0100
0001
0010
0000
0100
0001
0010
0100
1000
,
1001
0000
0000
0011
0000
0000
0011
0000
,
0110
0000
0000
1100
0000
0000
1100
0000
,
1001
0000
0000
0110
0000
0000
0110
0000
,
1000
0000
0000
1000
0000
0000
1000
0000
0000
0000
1000
0100
0010
0001
1000
0000
,
1000
0100
0010
0001
0100
0010
0001
0100
,
1000
0010
0001
0100
0010
0100
0001
1000
,
0100
0001
0010
0100
0001
0010
1000
0100
,
0010
0000
0010
0000
0010
0000
0010
0000
1000
0001
1000
0001
1000
0001
1000
0001
,
1000
0010
0001
0100
1000
0001
0010
0001
,
0100
1000
0010
0001
0010
0001
1000
0100
,
0010
0001
0100
0010
0001
1000
0100
0010
,
0001
000M
00M0
0M00
M000
0M00
00M0
000M
,
1000
0100
0010
0001
,
0100
0000
0010
0000
0001
0000
0100
0010
,
1000
0100
0001
0100
,
0010
0000
1000
0000
0001
0000
0100
0001
,
0100
1000
0100
0001
,
0010
0000
0100
0000
1000
0000
0001
0100
,
1000
0100
0001
0010
,
1000
0000
0100
0000
0001
0000
0100
0010
,
0001
0100
0001
1000
,
0100
0000
0010
0000
0001
0000
1000
0010
,
0100
0001
0010
0100
,
1000
0000
0001
0000
0100
0000
0010
0100
,
0001
1000
0100
0001
,
0010
0000
0100
0000
0001
0000
1000
0010
,
0100
1000
0001
0010
,
1000
0001
1000
0001
1000
0001
1000
0001
,
1000
0100
0001
0010
,
0100
0000
0001
0000
0100
0000
1000
0010
,
0100
0010
0100
1000
,
0001
0000
0100
0000
0010
0000
1000
0010
,
0100
0001
0100
0010
,
1000
0000
0001
0000
0100
0000
0010
0100
,
0001
1000
0100
0001
,
0010
0000
0100
0000
0001
0000
1000
0010
,
0100
0010
0001
0100
,
0010
0000
1000
0000
0001
0000
0100
1000
,
0010
0001
0100
0001
,
1000
0000
0100
0000
0010
0000
0001
0100
,
0010
0100
0001
1000
,
0010
0000
0100
0000
0001
0000
0001
1000
,
0010
0100
0001
1000
,
0010
0000
0100
0000
0001
0000
0100
0010
,
0001
1000
0100
0010
0001
1000
0100
0010
,
0001
1000
0100
0010
0001
1000
0100
0010
,
0001
1000
0100
0010
,
0001
1000
0100
0010
,
0001
1000
0100
0010
,
0001
1000
0100
0010
,
0001
M000
0M00
00M0
000M
M000
0M00
00M0
,
1001
0000
0000
1001
0000
0000
0110
0000
,
1001
0000
0000
1001
0000
0000
0110
0000
,
1001
0000
0000
1001
0000
0000
0110
0000
,
0110
0000
0000
0110
0000
0000
1001
0000
,
1100
0000
0000
1100
0000
0000
0011
0000
,
1100
0000
0000
1100
0000
0000
0011
0000
,
1100
0000
0000
1100
0000
0000
0011
0000
,
0011
0000
0000
0011
0000
0000
1100
0000
,
1010
0000
0000
1010
0000
0000
0101
0000
,
1010
0000
0000
1010
0000
0000
0101
0000
,
1010
0000
0000
1010
0000
0000
0101
0000
,
0101
0000
0000
0101
0000
0000
1010
0000
,
1100
0000
0000
0011
0000
0000
0110
0000
,
1001
0000
0000
0101
0000
0000
1010
0000
,
0101
0000
0000
1010
0000
0000
1001
0000
,
1010
0000
0000
0110
0000
0000
1001
0000
,
1000
0100
0010
0001
0010
0100
0001
1000
,
0010
0100
0001
1000
0001
0010
0100
1000
,
0100
0010
0001
1000
0100
1000
0100
0010
,
1000
0001
1000
0001
1000
0000
0001
1000
0001
1000
0001
0000
0010
0100
0010
0000
;
