#TITLE:Black Chocolates;
#SUBTITLE:;
#ARTIST:DJ Sharpnel;
#TITLETRANSLIT:;
#SUBTITLETRANSLIT:;
#ARTISTTRANSLIT:;
#CREDIT:;
#BANNER:black chocolates bn.png;
#BACKGROUND:black chocolates bg.png;
#LYRICSPATH:;
#CDTITLE:CDTitle.png;
#MUSIC:Black Chocolates.ogg;
#OFFSET:-1.153;
#SAMPLESTART:74.747;
#SAMPLELENGTH:18.112;
#SELECTABLE:YES;
#BPMS:0.000=212.000;
#STOPS:;
#BGCHANGES:;
// cache tags:
#FIRSTBEAT:32.000;
#LASTBEAT:844.000;
#SONGFILENAME:Songs/SHARPNELSTREAMZ v2/Black Chocolates/Black Chocolates.sm;
#HASMUSIC:1;
#HASBANNER:1;
#MUSICLENGTH:245.995;
// end cache tags

//---------------dance-single - 18- (Valkyrion)----------------
#NOTES:
     dance-single:
     18- (Valkyrion):
     Challenge:
     18:
     1.000,1.000,0.057,0.256,1.000,2767.000,14.000,63.000,52.000,0.000:
0000
0000
0000
0000
,
0000
0000
0000
0000
,
0000
0000
0000
0000
,
0000
0000
0000
0000
,
0000
0000
0000
0000
,
0000
0000
0000
0000
,
0000
0000
0000
0000
,
0000
0000
0000
0000
,
1001
0000
1000
0000
0001
0000
0100
0010
1000
0010
0100
0000
0001
0000
1000
0001
,
1000
0000
1000
0000
0001
0000
0010
0100
1000
0001
0010
0000
0001
0000
0100
0010
,
1000
0000
1000
0000
0001
0000
0100
0010
0100
0001
1000
0000
0001
0000
0010
0100
,
1000
0000
0000
0000
0000
0000
1000
0000
0000
0000
0000
0000
0001
0000
0000
0000
0000
0000
0010
0000
0000
0100
0000
0000
1000
0000
0000
0001
0000
0000
1000
0000
0000
0000
0000
0000
0001
0000
0000
0000
0000
0000
1000
0000
0001
0000
1000
0000
,
0001
0000
1000
0000
0001
0000
1000
0001
0100
0010
1000
0000
0001
0000
0010
0100
,
0010
0000
0000
0000
0000
0000
0010
0000
0000
0000
0000
0000
0001
0000
0000
0000
0000
0000
0100
0000
0000
0010
0000
0000
1000
0000
0000
0001
0000
0000
1000
0000
0000
0000
0000
0000
0010
0000
0000
0000
0000
0000
1000
0000
0001
0000
1000
0000
,
0001
0000
0100
0000
0001
0000
1000
0001
0010
0100
1000
0000
0001
0000
1000
0000
,
1100
0000
0000
0000
0110
0000
0000
0000
0011
0000
0001
0010
0400
0000
0300
0000
,
1000
0100
0010
0001
0100
0010
1000
0001
0010
0100
1000
0001
0010
0100
0010
0001
,
1000
0010
0100
0001
0010
0100
1000
0001
0100
0010
1000
0001
0100
0010
0100
0001
,
1000
0100
0010
0001
0100
0010
0100
0001
1000
0100
1000
0001
0010
0100
0010
0100
,
1000
0001
0100
0001
1000
0100
0010
0001
1000
0001
1000
0000
0001
0000
4000
0000
,
3010
0100
0001
1000
0100
0010
0001
1000
0010
0100
0010
1000
0001
0100
0010
1000
,
0001
0010
0100
1000
0010
0100
0001
1000
0100
1000
0001
0010
0001
1000
0100
1000
,
0001
0100
0010
1000
0100
0010
0001
1000
0010
0100
0010
1000
0001
0100
0001
1000
,
0010
0000
0000
0000
0000
0000
0000
0000
0010
0000
1000
0001
0040
0000
0030
0000
,
0001
0010
0100
1000
0010
0100
0001
1000
0100
0010
0001
1000
0100
0010
0100
1000
,
0001
0100
0010
1000
0100
0010
0001
1000
0010
0100
0001
1000
0010
0100
0010
1000
,
0001
0010
0100
1000
0010
0100
0010
1000
0001
0010
0001
1000
0100
0010
0100
0010
,
0001
1000
0010
1000
0001
0010
0100
1000
0001
0100
0010
0100
0001
1000
0001
1000
,
0001
0100
0010
1000
0100
0010
0100
1000
0001
0100
0001
1000
0010
0100
0010
1000
,
0001
0010
0100
1000
0010
0100
0001
1000
0100
0010
0100
0010
0001
1000
0100
0010
,
0001
1000
0001
1000
0001
0000
0000
0000
0100
0010
1000
0001
1000
0000
0000
0000
,
0100
0000
0010
0001
0400
0000
0300
0000
0001
0000
0000
0000
MMMM
0000
0000
0000
,
0001
0010
0100
1000
0001
0010
0100
1000
0001
0100
0001
0100
0010
1000
0010
1000
,
0001
0010
0001
1000
0100
0010
0100
1000
0001
0100
0001
1000
0010
1000
0010
0100
,
0001
1000
0001
1000
0010
0100
0001
1000
0001
0010
0001
1000
0100
0010
0100
1000
,
0001
0100
0010
0100
0001
0100
0010
0100
0001
1000
0100
1000
0001
0010
0100
1000
,
0001
1000
0001
1000
0010
0100
0001
1000
0001
0010
0100
1000
0001
1000
0100
0010
,
0001
1000
0010
1000
0001
0100
0010
1000
0001
0010
0001
1000
0100
0010
0100
0010
,
0001
1000
0001
1000
0001
0100
0010
0100
0001
1000
0100
1000
0001
0010
0100
1000
,
000M
M000
000M
M000
0004
0000
1003
0000
,
0001
1000
0001
1000
0100
0010
0001
1000
0010
0100
0010
1000
0001
0100
0010
1000
,
0001
0010
0001
1000
0100
0010
0100
1000
0001
0100
0010
0100
0001
0100
0010
0100
,
0001
1000
0001
1000
0100
0010
0001
1000
0010
0100
0001
1000
0010
0100
0010
1000
,
0001
0010
0001
1000
0100
1000
0001
0010
0001
1000
0010
1000
0001
0100
0010
0100
,
0001
1000
0001
1000
0010
0100
0001
1000
0100
0010
0001
1000
0001
0010
0100
1000
,
0001
1000
0010
1000
0001
0100
0010
1000
0001
0010
0001
1000
0100
0010
0100
0010
,
0001
1000
0001
1000
0010
0100
0001
1000
0001
1000
0001
1000
0100
0010
0001
1000
,
0001
1000
0001
1000
0010
0100
0001
1000
0100
0000
0010
0001
4000
0000
0000
0000
,
3001
0000
0010
0100
0010
0000
0001
1000
0100
1000
0001
1000
0010
1000
0001
0100
,
0001
0000
0010
0100
0010
0000
0001
1000
0010
1000
0001
1000
0100
1000
0001
0010
,
0001
0000
0100
0010
0100
0000
0001
1000
0100
1000
0001
1000
0010
1000
0001
0100
,
0001
0000
0010
0100
0010
0000
0001
1000
0100
1000
0010
0100
0001
1000
0100
0010
,
0001
0000
0100
0010
0100
0000
0001
1000
0100
1000
0001
1000
0010
1000
0001
0100
,
0001
0000
0010
0100
0010
0000
0001
1000
0010
1000
0001
1000
0100
1000
0001
0010
,
0001
0000
0100
0010
0100
0000
0001
1000
0100
1000
0001
1000
0010
1000
0001
0100
,
0001
0000
0010
0100
0010
0000
0001
1000
0100
1000
0010
0100
0001
1000
0100
0010
,
0001
0000
0010
0100
0010
0000
0001
1000
0100
1000
0001
1000
0010
1000
0001
0100
,
0001
0000
0010
0100
0010
0000
0001
1000
0010
1000
0001
1000
0100
1000
0001
0010
,
0001
0000
0100
0010
0100
0000
0001
1000
0100
1000
0001
1000
0010
1000
0001
0100
,
0001
0000
0010
0100
0010
0000
0001
1000
0100
1000
0010
0100
0001
1000
0100
0010
,
0001
0000
0100
0010
0100
0000
0001
1000
0100
1000
0001
1000
0010
1000
0001
0100
,
0001
0000
0010
0100
0010
0000
0001
1000
0010
1000
0001
1000
0100
1000
0001
0010
,
0001
0000
0100
0010
0100
0000
0001
1000
0100
1000
0001
1000
0010
1000
0001
0100
,
0001
0000
0000
0000
,
MMMM
0000
0000
0000
0000
0000
0000
0000
1000
0001
0100
0000
0010
0000
4000
0000
,
3001
0010
0001
1000
0001
0010
0100
1000
0010
1000
0001
0100
0001
0010
0001
1000
,
0010
0100
0010
1000
0001
0100
0001
1000
0100
1000
0001
0010
0001
0100
0001
1000
,
0100
0010
0100
1000
0001
0010
0001
1000
0010
1000
0001
0100
0001
0010
0001
1000
,
0100
0010
0100
1000
0001
0100
0001
1000
0100
0010
0001
0100
0010
1000
0100
0010
,
0001
1000
0001
0100
0001
0100
0010
1000
0100
1000
0001
0010
0001
0100
0001
1000
,
0100
0010
0100
1000
0001
0010
0100
1000
0010
1000
0001
0100
0001
0010
0001
1000
,
0010
0100
0010
1000
0001
0100
0001
1000
0100
1000
0001
0010
0001
0100
0001
1000
,
0010
0100
0010
1000
0001
0010
0001
1000
0010
0100
0001
0010
0100
1000
0010
0100
,
0001
1000
0100
1000
0001
0010
0100
1000
0010
1000
0001
0100
0001
0010
0001
1000
,
0010
0100
0010
1000
0001
0100
0010
1000
0100
1000
0001
0010
0001
0100
0001
1000
,
0100
0010
0100
1000
0001
0010
0001
1000
0010
1000
0001
0100
0001
0010
0001
1000
,
0100
0010
0100
1000
0001
0100
0001
1000
0100
0010
0001
0100
0010
1000
0100
0010
,
0001
1000
0010
1000
0001
0100
0001
1000
0100
1000
0001
0010
0001
0100
0001
1000
,
0100
0010
0001
1000
0001
0010
0100
1000
0010
1000
0001
0100
0001
0010
0001
1000
,
0001
0100
0010
1000
0001
1000
0010
0100
0001
1000
0100
1000
0010
0100
0001
1000
,
0001
0000
0010
0100
0000
1000
0001
0100
0010
1000
0001
0010
0100
0000
0000
0000
,
1000
0010
0100
0001
1000
0010
0100
0001
1000
0100
1000
0100
0010
0001
0010
0001
,
1000
0010
1000
0001
0100
0010
0100
0001
1000
0100
1000
0001
0010
0001
0010
0100
,
1000
0001
1000
0001
0010
0100
1000
0001
1000
0010
1000
0001
0100
0010
0100
0001
,
1000
0100
0010
0100
1000
0100
0010
0100
1000
0001
0100
0001
1000
0010
0100
0001
,
1000
0001
1000
0001
0010
0100
1000
0001
1000
0010
0100
0001
1000
0001
0100
0010
,
1000
0001
0010
0001
1000
0100
0010
0001
1000
0010
1000
0001
0100
0010
0100
0010
,
1000
0001
1000
0001
1000
0100
0010
0100
1000
0001
0100
0001
1000
0010
0100
0001
,
1000
0000
0001
0100
0001
0000
1000
0100
1000
0001
0100
0010
1000
0001
0010
0100
,
1000
0001
0010
0001
1000
0100
0010
0001
1000
0010
0100
0001
0010
0100
1000
0001
,
1000
0001
0010
0100
1000
0100
0010
0001
0100
0001
1000
0010
1000
0100
1000
0001
,
0100
0010
0100
0001
1000
0010
1000
0001
0010
0001
1000
0100
1000
0010
1000
0001
,
0100
0010
0100
0001
1000
0100
1000
0001
0100
0010
1000
0001
0010
0001
0100
0001
,
1000
0010
1000
0001
1000
0010
0100
0001
0010
0001
1000
0100
1000
0010
1000
0001
,
0010
0100
0010
0001
1000
0100
1000
0001
0100
0001
1000
0100
1000
0010
1000
0001
,
0100
0010
0100
0001
1000
0010
1000
0001
0010
0001
1000
0100
1000
0010
0100
0001
,
2000
3000
0000
0002
0003
0000
2000
3000
0000
0MM0
0000
0000
,
1000
0000
1000
0000
0001
0000
0100
0010
1000
0001
0100
0000
0010
0000
1000
0001
,
0010
0000
0010
0000
0100
0000
1000
0100
1000
0001
0010
0000
0001
0000
1000
0001
,
0100
0000
0100
0000
0010
0000
0100
0001
1000
0010
1000
0000
0001
0000
0010
0100
,
1000
0000
0000
0000
0000
0000
1000
0000
0000
0000
0000
0000
0001
0000
0000
0000
0000
0000
0010
0000
0000
0100
0000
0000
1000
0000
0000
0001
0000
0000
1000
0000
0000
0000
0000
0000
0010
0000
0000
0000
0000
0000
1000
0000
0001
0000
1000
0000
,
0001
0000
1000
0000
0001
0000
0100
0010
1000
0001
0100
0000
0001
0000
0010
0100
,
1000
0000
1000
0000
0001
0000
0010
0100
0010
0001
1000
0000
0001
0000
0100
0010
,
1000
0000
1000
0000
0001
0000
0100
0010
1000
0010
0100
0000
0001
0000
0010
0100
,
0010
000M
M000
000M
M000
000M
M000
000M
,
0001
1000
0100
1000
0001
0010
0100
1000
0001
0010
0001
1000
0100
0010
0100
1000
,
0001
0100
0001
1000
0010
0100
0010
1000
0001
0100
0001
1000
0010
0100
0001
1000
,
0001
0010
0100
1000
0001
1000
0100
1000
0001
0100
0001
1000
0001
0100
0010
1000
,
0100
0010
0001
1000
0100
1000
0001
0010
0001
1000
0100
0010
0001
0010
0100
1000
,
0001
0100
0001
1000
0010
0100
0001
1000
0001
0100
0010
1000
0001
0100
0010
0100
,
0001
1000
0100
1000
0001
0010
0100
0010
0100
1000
0001
1000
0100
0010
0001
1000
,
0100
1000
0010
0100
0001
0010
0001
0100
,
0010
0000
0000
1000
0000
0000
0400
0300
0000
0400
0300
0000
4000
0000
0000
3000
0000
0000
1001
0000
0000
0000
0000
0000
,
1000
0100
1000
0001
0010
0100
1000
0001
0100
0010
0100
0001
1000
0010
1000
0001
,
0010
0100
1000
0001
0010
0001
1000
0100
1000
0001
0010
0100
1000
0100
0010
0001
,
1000
0010
1000
0001
0100
0010
0100
0001
1000
0100
1000
0001
0010
0100
0010
0001
,
1000
0001
0100
0001
1000
0010
0100
0010
1000
0001
1000
0000
0001
0000
1000
0000
,
0100
1000
0100
1000
0100
1000
0100
1000
0001
0100
0001
1000
0010
0100
0010
1000
,
0001
1000
0001
1000
0001
1000
0001
1000
0100
0010
0001
1000
0010
0100
0010
1000
,
0001
0010
0001
1000
0100
1000
0001
0010
0001
1000
0100
1000
0001
0010
0100
1000
,
0001
M000
000M
M000
000M
M000
000M
M000
,
2000
3200
0300
0200
0300
0200
0300
0200
,
2300
3200
M30M
0200
0302
0023
0230
0320
,
0032
0203
0300
0200
0300
0200
0300
0200
,
0302
0000
0203
0000
M30M
0000
0200
0000
2300
0000
3002
0000
1003
0001
1000
0001
,
2000
3200
0300
0200
0300
0200
0300
0200
,
2300
3200
M30M
0200
0302
0023
0230
0320
,
0032
0203
0300
0200
0300
0200
0300
0200
,
0302
0203
M30M
0200
2300
3000
MMMM
0000
,
1000
0001
1000
0001
0010
0100
1000
0001
0100
0010
0100
0001
1000
0010
0100
0001
,
1000
0100
1000
0001
0010
0100
0010
0001
1000
0010
0100
0010
1000
0010
0100
0010
,
1000
0001
1000
0001
0010
0100
1000
0001
0100
0010
1000
0001
0100
0010
0100
0001
,
1000
0100
1000
0001
0010
0001
1000
0100
1000
0001
0100
0001
1000
0010
0100
0010
,
1000
0001
1000
0001
0100
0010
1000
0001
0010
0100
1000
0001
1000
0100
0010
0001
,
1000
0001
0100
0001
1000
0010
0100
0001
1000
0100
1000
0001
0010
0100
0010
0100
,
1000
0001
1000
0001
0100
0010
0100
0001
1000
0001
1000
0001
0010
0100
1000
0001
,
2000
3020
M03M
0020
0032
2003
3020
0230
,
0301
1000
0001
1000
0100
0010
0001
1000
0010
0100
0010
1000
0001
0100
0010
1000
,
0001
0010
0001
1000
0100
0010
0100
1000
0001
0100
0010
0100
0001
0100
0010
0100
,
0001
1000
0001
1000
0100
0010
0001
1000
0010
0100
0001
1000
0010
0100
0010
1000
,
0001
0010
0001
1000
0100
1000
0001
0010
0001
1000
0010
1000
0001
0100
0010
0100
,
0001
1000
0001
1000
0010
0100
0001
1000
0100
0010
0001
1000
0001
0010
0100
1000
,
0001
1000
0010
1000
0001
0100
0010
1000
0001
0010
0001
1000
0100
0010
0100
0010
,
0001
1000
0001
1000
0001
0100
0010
0100
0001
1000
0001
1000
0100
0010
0001
1000
,
000M
M000
000M
M000
0040
0000
1030
0000
,
0001
1000
0010
1000
0001
0100
0010
1000
0001
0010
0001
1000
0100
0010
0100
1000
,
0001
0100
0001
1000
0010
0100
0010
1000
0001
0010
0001
1000
0001
0010
0100
1000
,
0100
0010
0001
1000
0001
0010
0100
1000
0001
0100
0001
1000
0010
0100
0001
1000
,
0100
0010
0001
1000
0100
0010
0001
1000
0001
1000
0001
0100
0010
0100
0001
1000
,
0001
1000
0100
1000
0001
0010
0100
1000
0001
0100
0010
1000
0010
0100
0001
1000
,
0001
0010
0100
1000
0001
1000
0100
0010
0001
1000
0010
1000
0001
0100
0010
0100
,
0001
1000
0001
1000
0100
0010
0001
1000
0010
0100
0010
1000
0001
0100
0010
1000
,
0M00
00M0
0M00
00M0
0004
0000
1003
0000
,
0001
0010
0100
1000
0001
0010
0100
1000
0001
0100
0001
0100
0010
1000
0010
1000
,
0001
0010
0001
1000
0100
0010
0100
1000
0001
0100
0001
1000
0010
1000
0010
0100
,
0001
1000
0001
1000
0010
0100
0001
1000
0001
0010
0001
1000
0100
0010
0100
1000
,
0001
0100
0010
0100
0001
0100
0010
0100
0001
1000
0100
1000
0001
0010
0100
1000
,
0001
1000
0001
1000
0010
0100
0001
1000
0001
0010
0100
1000
0001
1000
0100
0010
,
0001
1000
0010
1000
0001
0100
0010
1000
0001
0010
0001
1000
0100
0010
0100
0010
,
0001
1000
0001
1000
0001
0100
0010
0100
0001
1000
0001
1000
0100
0010
0001
1000
,
0002
0203
M30M
0200
2300
3020
0230
0302
,
1003
0000
0100
0010
0100
0000
1000
0001
0010
0001
1000
0001
0100
0001
1000
0010
,
1000
0000
0100
0010
0100
0000
1000
0001
0100
0001
1000
0001
0010
0001
1000
0100
,
1000
0000
0010
0100
0010
0000
1000
0001
0010
0001
1000
0001
0100
0001
1000
0010
,
1000
0000
0100
0010
0100
0000
1000
0001
0010
0001
0100
0010
1000
0001
0010
0100
,
1000
0000
0010
0100
0010
0000
1000
0001
0010
0001
1000
0001
0100
0001
1000
0010
,
1000
0000
0100
0010
0100
0000
1000
0001
0100
0001
1000
0001
0010
0001
1000
0100
,
1000
0000
0010
0100
0010
0000
1000
0001
0010
0001
1000
0001
0100
0001
1000
0010
,
1000
0000
0100
0010
0100
0000
1000
0001
0010
0001
0100
0010
1000
0001
0010
0100
,
1000
0000
0100
0010
0100
0000
1000
0001
0010
0001
1000
0001
0100
0001
1000
0010
,
1000
0000
0100
0010
0100
0000
1000
0001
0100
0001
1000
0001
0010
0001
1000
0100
,
1000
0000
0010
0100
0010
0000
1000
0001
0010
0001
1000
0001
0100
0001
1000
0010
,
1000
0000
0100
0010
0100
0000
1000
0001
0010
0001
0100
0010
1000
0001
0010
0100
,
1000
0000
0010
0100
0010
0000
1000
0001
0010
0001
1000
0001
0100
0001
1000
0010
,
1000
0000
0100
0010
0100
0000
1000
0001
0100
0001
1000
0001
0010
0001
1000
0100
,
1000
0000
0010
0100
0010
0000
1000
0001
0010
0001
1000
0001
0100
0001
1000
0010
,
1000
0000
0000
0000
,
0000
0000
0000
0000
0000
0000
0000
0000
1000
0001
1000
0000
0100
0000
0010
0001
,
1000
0010
1000
0001
1000
0010
0100
0001
0010
0001
1000
0100
1000
0010
1000
0001
,
0010
0100
0010
0001
1000
0100
1000
0001
0100
0001
1000
0010
1000
0100
1000
0001
,
0100
0010
0100
0001
1000
0010
1000
0001
0010
0001
1000
0100
1000
0010
1000
0001
,
0100
0010
0100
0001
1000
0100
1000
0001
0100
0010
1000
0100
0010
0001
0100
0010
,
1000
0001
1000
0100
1000
0100
0010
0001
0100
0001
1000
0010
1000
0100
1000
0001
,
0100
0010
0100
0001
1000
0010
0100
0001
0010
0001
1000
0100
1000
0010
1000
0001
,
0010
0100
0010
0001
1000
0100
1000
0001
0100
0001
1000
0010
1000
0100
1000
0001
,
0010
0100
0010
0001
1000
0010
1000
0001
0010
0100
1000
0010
0100
0001
0010
0100
,
1000
0001
0100
0001
1000
0010
0100
0001
0010
0001
1000
0100
1000
0010
1000
0001
,
0010
0100
0010
0001
1000
0100
0010
0001
0100
0001
1000
0010
1000
0100
1000
0001
,
0100
0010
0100
0001
1000
0010
1000
0001
0010
0001
1000
0100
1000
0010
1000
0001
,
0100
0010
0100
0001
1000
0100
1000
0001
0100
0010
1000
0100
0010
0001
0100
0010
,
1000
0001
0010
0001
1000
0100
1000
0001
0100
0001
1000
0010
1000
0100
1000
0001
,
0100
0010
1000
0001
1000
0010
0100
0001
0010
0001
1000
0100
1000
0010
1000
0001
,
1000
0100
0010
0001
1000
0001
0010
0100
1000
0001
0100
0001
0010
0100
1000
0001
,
0010
0000
0100
1000
0000
0001
0100
0010
1000
0001
0010
0100
1000
0000
0000
0000
,
0001
0100
0010
1000
0001
0100
0001
1000
0100
1000
0001
0010
0001
0100
0001
1000
,
0100
0010
0100
1000
0001
0010
0100
1000
0010
1000
0001
0100
0001
0010
0001
1000
,
0010
0100
0010
1000
0001
0100
0001
1000
0100
1000
0001
0010
0001
0100
0001
1000
,
0010
0100
0010
1000
0001
0010
0001
1000
0010
0100
0001
0010
0100
1000
0010
0100
,
0001
0100
0010
1000
0001
0100
0001
1000
0100
1000
0001
0010
0001
0100
0001
1000
,
0100
0010
0100
1000
0001
0010
0100
1000
0010
1000
0001
0100
0001
0010
0001
1000
,
0010
0100
0010
1000
0001
0100
0001
1000
0100
1000
0001
0010
0001
0100
0001
1000
,
0010
0100
0010
1000
0001
0010
0001
1000
0010
0100
0001
1000
0100
0010
0100
1000
,
0001
0010
0001
1000
0100
0010
0001
1000
0100
1000
0010
1000
0001
0100
0001
0010
,
0100
1000
0001
0010
0001
1000
0001
1000
0010
0100
0001
1000
0100
0010
0001
1000
,
0100
1000
0001
0010
0100
1000
0001
1000
0100
1000
0010
1000
0001
0100
0001
0010
,
0001
1000
0100
0010
0001
1000
0100
1000
0010
0100
0001
0010
0100
1000
0010
0100
,
0001
1000
0010
1000
0001
0100
0010
1000
0001
0100
0010
0100
0001
1000
0010
0100
,
0001
1000
0100
1000
0001
0010
0100
1000
0001
0010
0001
1000
0100
0010
0001
1000
,
0001
1000
0001
1000
0001
1000
0001
1000
0001
1000
0001
1000
0001
1000
0001
1000
,
0001
0000
2002
3003
1001
0000
0004
0000
,
2003
0000
0000
0000
,
3000
0000
0000
0000
;

//---------------dance-single - 14 (CTalon)----------------
#NOTES:
     dance-single:
     14 (CTalon):
     Hard:
     14:
     1.000,1.000,0.203,0.911,0.878,1745.000,50.000,224.000,50.000,0.000:
0000
0000
0000
0000
,
0000
0000
0000
0000
,
0000
0000
0000
0000
,
0000
0000
0000
0000
,
0000
0000
0000
0000
,
0000
0000
0000
0000
,
0000
0000
0000
0000
,
0000
0000
0000
0000
,
1001
0000
1000
0000
0001
0000
0100
0010
1000
0010
0100
0000
0001
0000
1000
0001
,
1000
0000
1000
0000
0001
0000
0010
0100
1000
0001
0010
0000
0001
0000
0100
0010
,
1000
0000
1000
0000
0001
0000
0100
0010
0100
0001
1000
0000
0001
0000
0010
0100
,
1000
0000
1000
0000
0001
0000
0010
0100
1000
0001
1000
0000
0001
0000
4000
0000
,
3001
0000
1000
0000
0001
0000
1000
0001
0100
0010
1000
0000
0001
0000
0010
0100
,
0010
0000
0010
0000
0001
0000
0100
0010
1000
0001
1000
0000
0010
0000
4000
0000
,
3001
0000
0100
0000
0001
0000
1000
0001
0010
0100
1000
0000
0001
0000
1000
0000
,
1100
0000
0000
0000
0110
0000
0000
0000
0011
0000
0001
0010
0400
0000
0300
0000
,
1100
0000
0000
0000
0011
0000
0000
0000
0001
1000
0001
1000
0100
0000
0000
0000
,
0101
0000
0000
0000
1100
0000
0000
0000
1000
0010
0100
0001
1000
0000
0000
0000
,
1001
0000
0000
0000
0101
0000
0000
0000
0001
0100
0010
1000
0010
0000
0000
0000
,
0110
0000
0000
0000
1001
0000
0000
0000
1000
0001
0100
0000
0010
0000
4000
0000
,
3001
0000
0000
0000
0011
0000
0000
0000
0010
0100
1000
0001
1000
0000
0000
0000
,
1010
0000
0000
0000
0101
0000
0000
0000
0001
0100
0010
0100
0001
0000
0000
0000
,
1001
0000
0000
0000
1100
0000
0000
0000
1000
0100
0010
0001
1000
0000
0000
0000
,
1010
0000
0000
0000
0000
0000
0000
0000
0010
0000
1000
0001
0040
0000
0030
0000
,
0011
0000
0000
0000
1001
0000
0000
0000
1000
0010
0100
0001
1000
0000
0000
0000
,
1100
0000
0000
0000
0101
0000
0000
0000
0001
1000
0100
1000
0100
0000
0000
0000
,
0110
0000
0000
0000
1001
0000
0000
0000
1000
0010
0100
0010
1000
0000
0000
0000
,
1001
0000
0000
0000
0011
0000
0000
0000
0001
0010
0100
1000
0001
0000
1000
0000
,
1001
0000
0000
0000
1010
0000
0000
0000
0010
1000
0001
1000
0100
0000
0000
0000
,
0110
0000
0000
0000
0011
0000
0000
0000
0010
0100
0010
0001
1000
0000
0000
0000
,
0001
1000
0001
1000
0001
0000
0000
0000
0100
0010
1000
0001
1000
0000
0000
0000
,
0100
0000
0010
0001
0400
0000
0300
0000
0001
0000
0000
0000
MMMM
0000
0000
0000
,
0001
0001
1000
0010
0100
0001
1000
0100
,
0010
0010
0100
1000
0001
0100
0001
0010
,
0001
0001
1000
0010
0100
0001
0010
0100
,
1000
1000
0001
0100
0010
1000
0100
1000
,
0001
0001
0100
0010
1000
0100
0010
0001
,
1000
1000
0010
0100
0010
1000
0001
0010
,
0100
0100
0010
0100
1000
0001
0100
0001
,
1000
1000
0004
1003
,
0010
0010
1000
0001
0010
0100
1000
0001
,
0100
0100
0010
1000
0001
0010
0001
1000
,
0001
0001
0100
0010
1000
0100
0010
0001
,
1000
1000
0010
0100
0001
0010
0100
0010
,
0001
0001
0100
0010
1000
0100
1000
0001
,
0010
0010
0100
1000
0001
0100
0010
0100
,
0001
0001
0010
0100
1000
0001
1000
0010
,
0100
0000
0100
0000
0010
0000
1000
0000
0001
0000
0010
0100
4000
0000
0000
0000
,
3001
0000
0000
0100
0000
0000
0010
0000
1000
0000
0001
0000
1000
0010
1000
0000
,
0100
0000
0000
0010
0000
0000
0001
0000
1000
0000
0010
0000
0100
0001
1000
0000
,
0100
0000
0000
0010
0000
0000
0001
0000
1000
0000
0010
0000
1000
0001
0100
0000
,
0010
0000
0000
1000
0000
0000
0100
0000
1000
0000
0001
0000
0100
0010
0100
0000
,
0001
0000
0000
1000
0000
0000
0100
0000
0010
0000
0100
0000
1000
0001
0100
0000
,
0010
0000
0000
0100
0000
0000
0001
0000
1000
0000
0100
0000
0010
0001
1000
0000
,
0010
0000
0000
0100
0000
0000
0001
0000
0010
0000
0100
0000
1000
0001
1000
0000
,
0010
0000
0000
0100
0000
0000
0001
0000
0010
0000
0100
0000
0010
0100
1000
0000
,
0010
0000
0000
0100
0000
0000
0001
0000
1000
0000
0100
0000
0010
0001
1000
0000
,
0010
0000
0000
0100
0000
0000
0001
0000
0100
0000
0001
0000
1000
0100
0010
0000
,
0001
0000
0000
0100
0000
0000
0010
0000
1000
0000
0001
0000
0100
0010
1000
0000
,
0100
0000
0000
1000
0000
0000
0001
0000
0010
0000
0100
0000
0010
0001
1000
0000
,
0010
0000
0000
0100
0000
0000
0001
0000
1000
0000
0010
0000
0100
0010
1000
0000
,
0100
0000
0000
0010
0000
0000
0001
0000
1000
0000
0010
0000
0100
0010
1000
0000
,
0001
0000
0000
0010
0000
0000
0100
0000
0010
0000
0001
0000
1000
0010
1000
0000
,
0001
0000
0000
0000
,
MMMM
0000
0000
0000
0000
0000
0000
0000
1000
0001
0100
0000
0010
0000
4000
0000
,
3001
0000
0100
0010
0000
1000
0001
0000
0010
0100
1000
0001
1000
0010
0100
0000
,
0001
0000
1000
0010
0000
0100
0010
0000
1000
0001
0010
0100
1000
0001
0100
0000
,
0010
0000
1000
0001
0000
1000
0010
0000
1000
0001
0010
0100
1000
0100
1000
0000
,
0001
0000
0100
0010
0000
1000
0001
0000
0010
0001
1000
0010
0100
0010
1000
0000
,
0001
0000
0010
0001
0000
1000
0001
0000
0010
0100
1000
0100
0010
0001
1000
0000
,
0010
0000
0100
0001
0000
1000
0100
0000
1000
0100
0010
0001
1000
0001
1000
0000
,
0010
0000
0100
0001
0000
1000
0100
0000
0010
0100
1000
0001
0100
0001
0100
0000
,
0010
0000
1000
0100
0000
1000
0001
0000
0010
0100
0010
0001
0010
0001
1000
0000
,
0001
0000
0100
0010
0000
1000
0001
0000
0010
0100
1000
0100
1000
0001
0100
0000
,
0010
0000
1000
0001
0000
1000
0100
0000
0010
0001
1000
0001
0010
0100
1000
0000
,
0010
0000
0100
0001
0000
1000
0100
0000
1000
0001
0010
0100
1000
0001
0100
0000
,
0010
0000
1000
0001
0000
0100
0001
0000
1000
0100
0010
0001
1000
0001
0100
0000
,
0010
0000
1000
0001
0000
0010
0001
0000
0010
0100
1000
0001
1000
0001
1000
0000
,
0010
0000
0100
0001
0000
1000
0100
0000
1000
0100
0010
0001
1000
0001
0100
0000
,
0010
0000
1000
0100
0000
1000
0001
0000
0010
0100
1000
0100
1000
0001
1000
0000
,
0010
0000
0100
0001
0000
1000
0100
0000
0010
0001
1000
0001
1000
0000
0000
0000
,
0001
0001
1000
0010
0100
0001
1000
0100
,
0010
0010
0100
1000
0001
0100
0001
0010
,
0001
0001
1000
0010
0100
0001
0010
0100
,
1000
0000
1000
0000
0001
0000
0100
0000
0010
1000
0001
0000
0010
0000
0004
0000
,
1003
1000
0010
0100
0001
0010
0100
1000
,
0001
0001
0100
0010
0100
0001
1000
0100
,
0010
0010
0100
0010
0001
1000
0010
1000
,
0001
0000
0000
0100
0000
0000
0010
0000
1000
0000
0001
0000
0010
0100
1000
0000
,
0001
0000
0100
0010
0000
1000
0001
0000
0010
0100
1000
0001
1000
0010
0100
0000
,
0001
0000
1000
0010
0000
0100
0010
0000
1000
0001
0010
0100
1000
0001
0100
0000
,
0010
0000
1000
0001
0000
1000
0010
0000
1000
0001
0010
0100
1000
0100
1000
0000
,
0001
0000
0100
0010
0000
1000
0001
0000
0010
0001
1000
0010
0100
0010
1000
0000
,
0001
0000
0010
0001
0000
1000
0001
0000
0010
0100
1000
0100
0010
0001
1000
0000
,
0010
0000
0100
0001
0000
1000
0100
0000
1000
0100
0010
0001
1000
0001
1000
0000
,
0010
0000
0100
0001
0000
1000
0100
0000
0010
0100
1000
0001
0100
0001
0100
0000
,
0002
0003
0000
2000
3000
0000
0002
0003
0000
0MM0
0000
0000
,
1000
0000
1000
0000
0001
0000
0100
0010
1000
0001
0100
0000
0010
0000
1000
0001
,
0010
0000
0010
0000
0100
0000
1000
0100
1000
0001
0010
0000
0001
0000
1000
0001
,
0100
0000
0100
0000
0010
0000
0100
0001
1000
0010
1000
0000
0001
0000
0010
0100
,
1000
0000
1000
0000
0001
0000
0010
0100
1000
0001
1000
0000
0010
0000
4000
0000
,
3001
0000
1000
0000
0001
0000
0100
0010
1000
0001
0100
0000
0001
0000
0010
0100
,
1000
0000
1000
0000
0001
0000
0010
0100
0010
0001
1000
0000
0001
0000
0100
0010
,
1000
0000
1000
0000
0001
0000
0100
0010
1000
0010
0100
0000
0001
0000
0010
0100
,
0010
0000
0000
0000
,
0001
0000
0001
0000
1000
0000
0010
0100
0001
1000
0010
0000
0100
0000
0001
1000
,
0100
0000
0100
0000
0010
0000
0001
0010
0001
1000
0100
0000
1000
0000
0001
1000
,
0010
0000
0010
0000
0100
0000
0010
1000
0001
0100
0001
0000
1000
0000
0100
0010
,
0001
0000
0001
0000
1000
0000
0100
0010
0001
1000
0001
0000
0100
0000
0001
0010
,
0100
0000
0100
0000
1000
0000
0010
0100
0001
1000
0010
0000
1000
0000
0100
0010
,
0001
0000
0001
0000
1000
0000
0100
0010
0100
1000
0001
0000
1000
0000
0010
0100
,
0001
1001
0110
1001
,
0001
0000
0000
1000
0000
0000
0400
0300
0000
0400
0300
0000
4000
0000
0000
3000
0000
0000
1001
0000
0000
0000
0000
0000
,
0002
0000
0000
0103
0020
0000
2030
0000
,
3002
0000
0000
0003
1000
0100
0010
0001
,
1000
0010
0100
0010
2000
0000
3100
0010
,
0002
0000
0000
0000
0000
0000
0003
0000
1000
0001
1000
0000
0001
0000
1000
0000
,
0040
0000
0130
0001
,
4000
0000
0000
0000
3100
0000
0010
0001
,
2000
0100
0000
3100
0000
0100
0000
0010
,
0000
0000
0001
0000
0000
0000
1000
0000
0010
0000
0100
0001
1000
0000
0001
0000
,
2000
3200
0300
0200
0300
0200
0300
0200
,
2300
3200
M30M
0200
0302
0023
0230
0320
,
0032
0203
0300
0200
0300
0200
0300
0200
,
0302
0000
0203
0000
M30M
0000
0200
0000
2300
0000
3002
0000
1003
0001
1000
0001
,
2000
3200
0300
0200
0300
0200
0300
0200
,
2300
3200
M30M
0200
0302
0023
0230
0320
,
0032
0203
0300
0200
0300
0200
0300
0200
,
0302
0203
M30M
0200
2300
3000
MMMM
0000
,
2000
3200
0310
0002
1003
0020
1030
0200
,
2300
3200
M30M
0200
0302
0023
0230
0320
,
0032
2003
3010
0200
0301
0020
0130
2000
,
3002
0203
M30M
0200
2300
3002
1003
0004
,
2003
3200
0310
0002
1003
0020
1030
0002
,
2003
3200
M30M
0200
0302
0023
0230
2300
,
3002
0203
0310
0200
0301
0020
0130
2000
,
3002
0203
M30M
0200
2300
3200
0320
0230
,
2300
3002
0103
0020
1030
0200
0310
0200
,
2300
3200
M30M
0200
0302
0023
0230
0320
,
0032
0203
0310
2000
3100
0020
0031
0200
,
0302
0203
M30M
0200
2300
3002
1003
0004
,
2003
3200
0310
0002
0013
0200
1300
0020
,
2030
3200
M30M
0200
0302
0023
0230
0320
,
0032
0203
0310
2000
3100
0020
0031
0200
,
0301
0000
0001
0000
4000
0000
3001
0100
,
0002
0023
0130
2000
3001
0020
0031
2000
,
3002
0023
M03M
0020
2030
3200
0320
0230
,
2300
3020
0130
0002
1003
0200
1300
0020
,
2030
3020
M03M
0020
0032
0203
0310
4000
,
3200
0320
0130
2000
3001
0200
0310
2000
,
3002
0023
M03M
0020
2030
3200
0320
0032
,
2003
3020
0130
0020
1030
0200
0310
0002
,
1003
0000
1000
0000
0004
0000
1003
0100
,
2000
3200
0310
0002
1003
0020
1030
0200
,
2300
3200
M30M
0200
0302
0023
0230
0320
,
0032
2003
3010
0200
0301
0020
0130
2000
,
3002
0203
M30M
0200
2300
3002
1003
0004
,
2003
3200
0310
0002
1003
0020
1030
0002
,
2003
3200
M30M
0200
0302
0023
0230
2300
,
3002
0203
0310
0200
0301
0020
0130
2000
,
3002
0203
M30M
0200
2300
3200
0320
0230
,
1300
0000
0000
0010
0000
0000
0100
0000
0001
0000
1000
0000
0001
0100
0001
0000
,
0010
0000
0000
0100
0000
0000
1000
0000
0001
0000
0100
0000
0010
1000
0001
0000
,
0010
0000
0000
0100
0000
0000
1000
0000
0001
0000
0100
0000
0001
1000
0010
0000
,
0100
0000
0000
0001
0000
0000
0010
0000
0001
0000
1000
0000
0010
0100
0010
0000
,
1000
0000
0000
0001
0000
0000
0010
0000
0100
0000
0010
0000
0001
1000
0010
0000
,
0100
0000
0000
0010
0000
0000
1000
0000
0001
0000
0010
0000
0100
1000
0001
0000
,
0100
0000
0000
0010
0000
0000
1000
0000
0100
0000
0010
0000
0001
1000
0001
0000
,
0100
0000
0000
0010
0000
0000
1000
0000
0100
0000
0010
0000
0100
0010
0001
0000
,
0100
0000
0000
0010
0000
0000
1000
0000
0001
0000
0010
0000
0100
1000
0001
0000
,
0100
0000
0000
0010
0000
0000
1000
0000
0010
0000
1000
0000
0001
0010
0100
0000
,
1000
0000
0000
0010
0000
0000
0100
0000
0001
0000
1000
0000
0010
0100
0001
0000
,
0010
0000
0000
0001
0000
0000
1000
0000
0100
0000
0010
0000
0100
1000
0001
0000
,
0100
0000
0000
0010
0000
0000
1000
0000
0001
0000
0100
0000
0010
0100
0001
0000
,
0010
0000
0000
0100
0000
0000
1000
0000
0001
0000
0100
0000
0010
0100
0001
0000
,
1000
0000
0000
0100
0000
0000
0010
0000
0100
0000
1000
0000
0001
0100
0001
0100
,
0001
0000
0000
0000
,
0000
0000
0000
0000
0000
0000
0000
0000
1000
0001
1000
0000
0100
0000
0010
0001
,
1000
0000
0010
0100
0000
0001
1000
0000
0100
0010
0001
1000
0001
0100
0010
0000
,
1000
0000
0001
0100
0000
0010
0100
0000
0001
1000
0100
0010
0001
1000
0010
0000
,
0100
0000
0001
1000
0000
0001
0100
0000
0001
1000
0100
0010
0001
0010
0001
0000
,
1000
0000
0010
0100
0000
0001
1000
0000
0100
1000
0001
0100
0010
0100
0001
0000
,
1000
0000
0100
1000
0000
0001
1000
0000
0100
0010
0001
0010
0100
1000
0001
0000
,
0100
0000
0010
1000
0000
0001
0010
0000
0001
0010
0100
1000
0001
1000
0001
0000
,
0100
0000
0010
1000
0000
0001
0010
0000
0100
0010
0001
1000
0010
1000
0010
0000
,
0100
0000
0001
0010
0000
0001
1000
0000
0100
0010
0100
1000
0100
1000
0001
0000
,
1000
0000
0010
0100
0000
0001
1000
0000
0100
0010
0001
0010
0001
1000
0010
0000
,
0100
0000
0001
1000
0000
0001
0010
0000
0100
1000
0001
1000
0100
0010
0001
0000
,
0100
0000
0010
1000
0000
0001
0010
0000
0001
1000
0100
0010
0001
1000
0010
0000
,
0100
0000
0001
1000
0000
0010
1000
0000
0001
0010
0100
1000
0001
1000
0010
0000
,
0100
0000
0001
1000
0000
0100
1000
0000
0100
0010
0001
1000
0001
1000
0001
0000
,
0100
0000
0010
1000
0000
0001
0010
0000
0001
0010
0100
1000
0001
1000
0010
0000
,
0100
0000
0001
0010
0000
0001
1000
0000
0100
0010
0001
0010
0001
1000
0001
0000
,
0100
0000
0010
1000
0000
0001
0010
0000
0100
1000
0001
1000
0001
0000
0000
0000
,
1000
0000
0010
0100
0000
0001
1000
0000
0100
0010
0001
1000
0001
0100
0010
0000
,
1000
0000
0001
0100
0000
0010
0100
0000
0001
1000
0100
0010
0001
1000
0010
0000
,
0100
0000
0001
1000
0000
0001
0100
0000
0001
1000
0100
0010
0001
0010
0001
0000
,
1000
0000
0010
0100
0000
0001
1000
0000
0100
1000
0001
0100
0010
0100
0001
0000
,
1000
0000
0100
1000
0000
0001
1000
0000
0100
0010
0001
0010
0100
1000
0001
0000
,
0100
0000
0010
1000
0000
0001
0010
0000
0001
0010
0100
1000
0001
1000
0001
0000
,
0100
0000
0010
1000
0000
0001
0010
0000
0100
0010
0001
1000
0010
1000
0010
0000
,
0100
0000
0001
0010
0000
0001
1000
0000
0100
0010
0100
1000
0100
1000
0001
0000
,
1000
0000
0010
0100
0000
0001
1000
0000
0100
0010
0001
0010
0001
1000
0010
0000
,
0100
0000
0001
1000
0000
0001
0010
0000
0100
1000
0001
1000
0100
0010
0001
0000
,
0100
0000
0010
1000
0000
0001
0010
0000
0001
1000
0100
0010
0001
1000
0010
0000
,
0100
0000
0001
1000
0000
0010
1000
0000
0001
0010
0100
1000
0001
1000
0010
0000
,
0100
0000
0001
1000
0000
0100
1000
0000
0100
0010
0001
1000
0001
1000
0001
0000
,
0100
0000
0010
1000
0000
0001
0010
0000
0001
0010
0100
1000
0001
1000
0010
0000
,
0100
0000
0001
0010
0000
0001
1000
0000
0100
0010
0001
0010
0001
1000
0001
0000
,
0100
0000
0000
0000
0100
0000
0000
0000
0100
0000
0000
0000
0100
0001
0100
0001
,
2000
0000
0000
0000
,
3000
0000
0000
0000
;
