#TITLE:Owen The Speedster vs. Jerod The Drummer;
#SUBTITLE:(The Ultimate Battle);
#ARTIST:owenviau1;
#TITLETRANSLIT:;
#SUBTITLETRANSLIT:;
#ARTISTTRANSLIT:;
#CREDIT:owenviau1;
#BANNER:bn.png;
#BACKGROUND:bg.png;
#LYRICSPATH:;
#CDTITLE:../CDTitleOV1.png;
#MUSIC:Owen The Speedster vs. Jerod The Drummer (The Ultimate Battle).ogg;
#OFFSET:-0.069;
#SAMPLESTART:202.064;
#SAMPLELENGTH:29.999;
#SELECTABLE:YES;
#DISPLAYBPM:120.000:240.000;
#BPMS:0.000=240.000,416.000=60.000,442.000=120.000,746.000=60.000,777.000=80.000,778.000=240.000,779.000=60.000;
#STOPS:;
#BGCHANGES:;
// cache tags:
#FIRSTBEAT:0.000;
#LASTBEAT:779.250;
#SONGFILENAME:Songs/owenviau1 Simfiles 07_final/Owen The Speedster vs. Jerod The Drummer - [Braeden47 & owenviau1] v1.0.4/Owen The Speedster vs. Jerod The Drummer.sm;
#HASMUSIC:1;
#HASBANNER:1;
#MUSICLENGTH:315.115;
// end cache tags

//---------------dance-single - 19.97 (20-) (owenvia----------------
#NOTES:
     dance-single:
     19.97 (20-) (owenvia:
     Challenge:
     20:
     1.000,1.000,0.102,0.251,1.000,2597.000,32.000,79.000,0.000,6.000:
1000
0100
0010
0000
0001
0100
0010
0000
1000
0000
0001
0100
0010
0000
1000
0100
,
0010
0001
0100
0000
0010
1000
0001
0000
0010
0000
0100
1000
0010
0100
0001
1000
,
0100
0010
0001
0000
1000
0010
1000
0000
0100
0000
0010
0001
0100
0000
0010
1000
,
0001
0010
0100
0000
1000
0001
0100
0000
0010
0000
0100
0001
1000
0000
0100
0010
,
0001
1000
0010
0000
0100
0001
1000
0000
0100
0000
0010
0001
0100
0000
0010
1000
,
0001
0010
0100
0000
1000
0010
0100
0000
0010
0000
1000
0001
0010
0000
0100
1000
,
0010
0100
0001
0000
1000
0100
1000
0000
0010
0000
0100
0001
0010
0000
0100
1000
,
0001
0100
0010
0000
0100
0001
1000
0000
0100
0000
0010
0001
0100
0000
0010
1000
,
0001
0000
0100
0010
1000
0000
0100
0010
0001
0000
0100
0010
1000
0000
0001
0010
,
0001
0000
0100
0010
1000
0000
0001
0010
0100
0000
1000
0010
0100
0000
0001
1000
,
0100
0000
0010
0001
1000
0000
0010
0100
0010
0000
1000
0001
0100
0000
0010
1000
,
0001
0000
0010
0001
0100
0000
0010
1000
0001
0000
0100
0010
0100
0000
0001
1000
,
0010
0000
0100
0001
0010
0000
0100
1000
0010
0000
0100
0001
0100
0000
0010
1000
,
0001
0000
0010
0100
1000
0000
0001
0100
0001
0000
0010
0100
1000
0000
0001
0010
,
0100
0000
1000
0010
0100
0000
0001
1000
0100
0000
0010
0001
1000
0000
0010
0100
,
0010
0000
1000
0001
0100
0000
0010
1000
0001
0000
0010
0001
0100
0000
0010
1000
,
0001
0000
0100
0010
0100
0000
0001
1000
0010
0000
0100
0001
0010
0000
0100
1000
,
0010
0000
0100
0001
0100
0000
0010
1000
0001
0000
0010
0100
1000
0000
0001
0010
,
0001
0000
0100
0010
1000
0000
0001
0010
0100
0000
1000
0010
0100
0000
0001
1000
,
0100
0000
0010
0001
1000
0000
0010
0100
0010
0000
1000
0001
0100
0000
0010
1000
,
0001
0000
0010
0001
0100
0000
0010
1000
0001
0000
0100
0010
0100
0000
0001
1000
,
0010
0000
0100
0001
0010
0000
0100
1000
0010
0000
0100
0001
0100
0000
0010
1000
,
0001
0000
0010
0100
1000
0000
0001
0010
0100
0000
1000
0010
0100
0000
0001
1000
,
0100
0000
0010
0001
1000
0000
0010
0100
0010
0000
1000
0001
0100
0000
0010
1000
,
0001
0100
0010
0100
0001
1000
0100
0010
,
0001
0100
0010
1000
0001
0100
0001
1000
,
0010
0100
0001
1000
0100
0010
0001
0100
,
0010
1000
0001
0010
0001
0100
0010
1000
,
0001
0010
0100
1000
0010
0100
0001
1000
,
0100
1000
0001
0100
0010
1000
0001
0010
,
0001
1000
0100
0010
0001
0100
0010
1000
,
0001
0010
0100
1000
0010
0100
0001
1000
,
0100
0000
0010
0001
0100
0010
1000
0001
0100
0001
0010
0100
1000
0010
0100
0001
,
1000
0100
0010
0001
0100
0010
1000
0001
0010
0001
0100
0010
0100
0001
1000
0010
,
1000
0100
0010
0001
0100
0010
1000
0001
0010
0100
1000
0001
0010
0001
0100
0010
,
1000
0100
0010
0001
0100
0001
1000
0010
0100
0001
0010
0100
1000
0001
0010
0001
,
0100
0010
1000
0001
0010
0100
1000
0001
0100
0001
0010
0100
1000
0010
0100
0001
,
1000
0010
1000
0100
0010
0001
0100
0010
1000
0001
0010
0001
0100
0010
1000
0001
,
0010
0001
1000
0100
1000
0010
0100
0001
1000
0100
0010
0001
0100
0010
0100
0001
,
1000
0100
0010
0001
1000
0010
0100
0010
1000
0001
0010
0001
0100
0010
0100
0001
,
1000
0100
0010
0001
0100
0010
1000
0001
,
0100
0001
1000
0010
0100
0001
1000
0100
,
0010
0001
0100
0010
1000
0001
0010
0001
,
0100
0010
1000
0001
0010
0100
1000
0010
,
0100
0001
1000
0100
1000
0001
0100
0010
,
1000
0001
0010
0001
1000
0100
0010
0001
,
0100
0010
1000
0001
0010
0100
1000
0010
,
0100
0001
1000
0100
0010
0001
0100
0010
,
1000
0001
0100
0001
1000
0010
0100
0001
,
1000
0100
0010
0001
0100
0010
1000
0001
,
0010
0001
0100
0010
1000
0001
0010
0100
,
1000
0010
0100
0001
1000
0100
1000
0001
,
0100
0010
1000
0001
0010
0001
1000
0100
,
0010
0001
0100
0010
1000
0001
0010
0100
,
1000
0010
0100
0001
1000
0100
0010
0001
,
0100
0010
1000
0001
0100
0001
1000
0010
,
0100
0001
1000
0100
0010
0001
0100
0010
,
1000
0001
0010
0001
0100
0010
1000
0001
,
0010
0100
1000
0010
0100
0001
1000
0100
,
1000
0001
0100
0010
1000
0001
0010
0001
,
1000
0100
0010
0001
0100
0010
1000
0001
0100
0001
1000
0010
0100
0001
0010
0100
,
1000
0010
0100
0001
0100
0010
1000
0100
0010
0001
1000
0010
1000
0001
0100
0001
,
0010
0100
1000
0010
0100
0001
1000
0100
1000
0010
0100
0001
0010
0100
1000
0001
,
0020
0030
0002
0003
0200
0300
0020
0030
2000
3000
0002
0003
0200
0300
0002
0003
4000
3000
0400
0300
0040
0030
0004
0003
0400
0300
0040
0030
0400
0300
0004
0003
,
1000
0010
0100
0001
1000
0100
0010
0001
0100
0010
1000
0001
0010
0001
0100
0010
,
0100
0001
1000
0010
1000
0100
0010
0001
0100
0010
1000
0001
0010
0100
1000
0001
,
0010
0001
0100
0010
1000
0100
0010
0001
0100
0001
1000
0010
0100
0001
0010
0100
,
1000
0001
0010
0001
0100
0010
1000
0001
0010
0100
1000
0001
0100
0001
0010
0100
,
1000
0010
0100
0001
1000
0010
1000
0100
0010
0001
0100
0010
1000
0001
0010
0001
,
0100
0010
1000
0001
0010
0001
1000
0100
1000
0010
0100
0001
1000
0100
0010
0001
,
0100
0010
0100
0001
1000
0100
0010
0001
1000
0010
0100
0010
1000
0001
0010
0001
,
0100
0010
0100
0001
1000
0010
0100
0001
1000
0100
0010
0001
0100
0010
1000
0001
,
0010
0001
0100
0010
0100
0001
1000
0010
1000
0100
0010
0001
0100
0010
1000
0001
,
0010
0100
1000
0001
0010
0001
0100
0010
1000
0100
0010
0001
0100
0001
1000
0010
,
0100
0001
0010
0100
1000
0001
0010
0001
0100
0010
1000
0001
0010
0100
1000
0001
,
0100
0001
0010
0100
1000
0010
0100
0001
1000
0010
1000
0100
0010
0001
0100
0010
,
1000
0001
0010
0001
0100
0010
1000
0001
0010
0001
1000
0100
1000
0010
0100
0001
,
1000
0100
0010
0001
0100
0010
0100
0001
1000
0100
0010
0001
1000
0010
0100
0010
,
1000
0001
0010
0001
0100
0010
0100
0001
1000
0010
0100
0001
1000
0100
0010
0001
,
0100
0010
1000
0001
0010
0001
0100
0010
0100
0001
1000
0010
1000
0100
0010
0001
,
0100
0010
1000
0001
0010
0100
1000
0001
0010
0001
0100
0010
1000
0100
0010
0001
,
0100
0001
1000
0010
0100
0001
0010
0100
1000
0001
0010
0001
0100
0010
1000
0001
,
0010
0100
1000
0001
0100
0001
0010
0100
1000
0010
0100
0001
1000
0010
1000
0100
,
0010
0001
0100
0010
1000
0001
0010
0001
0100
0010
1000
0001
0010
0001
1000
0100
,
1000
0010
0100
0001
1000
0100
0010
0001
0100
0010
0100
0001
1000
0100
0010
0001
,
1000
0010
0100
0010
1000
0001
0010
0001
0100
0010
0100
0001
1000
0010
0100
0001
,
1000
0100
0010
0001
0100
0010
1000
0001
0010
0001
0100
0010
0100
0001
1000
0010
,
1000
0100
0010
0001
0100
0010
1000
0001
0010
0100
1000
0001
0010
0001
0100
0010
,
1000
0100
0010
0001
0100
0001
1000
0010
0100
0001
0010
0100
1000
0001
0010
0001
,
0100
0010
1000
0001
0010
0100
1000
0001
0100
0001
0010
0100
1000
0010
0100
0001
,
1000
0010
1000
0100
0010
0001
0100
0010
1000
0001
0010
0001
0100
0010
1000
0001
,
0010
0001
1000
0100
1000
0010
0100
0001
1000
0100
0010
0001
0100
0010
0100
0001
,
1000
0100
0010
0001
1000
0010
0100
0010
1000
0001
0010
0001
0100
0010
0100
0001
,
1000
0010
0100
0001
1000
0100
0010
0001
0100
0010
1000
0001
0010
0001
0100
0010
,
0100
0001
1000
0010
1000
0100
0010
0001
0100
0010
1000
0001
0010
0100
1000
0001
,
0010
0001
0100
0010
1000
0100
0010
0001
0100
0001
1000
0010
0100
0001
0010
0100
,
1000
0001
0010
0001
0100
0010
1000
0001
0010
0100
1000
0001
0100
0001
0010
0100
,
1000
0010
0100
0001
1000
0010
1000
0100
0010
0001
0100
0010
1000
0001
0010
0001
,
0100
0010
1000
0001
0010
0001
1000
0100
1000
0010
0100
0001
1000
0100
0010
0001
,
0100
0010
0100
0001
1000
0100
0010
0001
1000
0010
0100
0010
1000
0001
0010
0001
,
0100
0010
0100
0001
1000
0010
0100
0001
1000
0100
0010
0001
0100
0010
1000
0001
,
0010
0001
0100
0010
0100
0001
1000
0010
1000
0100
0010
0001
0100
0010
1000
0001
,
0010
0100
1000
0001
0010
0001
0100
0010
1000
0100
0010
0001
0100
0001
1000
0010
,
0100
0001
0010
0100
1000
0001
0010
0001
0100
0010
1000
0001
0010
0100
1000
0001
,
0200
0000
0320
0000
,
2030
0000
3002
0000
,
0203
0000
0000
0000
0000
0020
0000
0300
2000
0000
0000
0000
0000
0000
0000
0000
,
3032
0000
0000
0000
0000
0200
0000
0003
0020
0000
0000
0000
0000
0000
0000
0000
,
2300
0000
0000
0032
3200
0000
0000
0000
,
2303
0000
0000
0020
3200
0000
0000
0000
,
0300
0000
0030
0000
2000
3000
2000
3000
,
2000
0000
0000
3010
0000
0000
0100
0000
0000
0001
1000
0001
1000
0000
0000
0010
0000
0000
0100
0000
0000
0010
0000
0000
,
1000
0000
0000
0001
0000
0000
0010
0000
0000
0100
1000
0100
2000
0000
0000
3000
0000
0000
2000
0000
0000
3000
0000
0000
,
2000
0000
0000
3100
0000
0000
0010
0000
0000
0001
0100
0001
0100
0000
0000
0010
0000
0000
1000
0000
0000
0100
0000
0000
,
0010
0001
2000
0000
3002
0003
0002
0003
,
0002
0000
0000
0103
0000
0000
0010
0000
0000
1000
0100
1000
0100
0000
0000
0010
0000
0000
0001
0000
0000
0100
0000
0000
,
0010
0000
0000
1000
0000
0000
0001
0000
0000
0010
0100
0010
0200
0000
0000
0300
0000
0000
0200
0000
0000
0300
0000
0000
,
0200
0000
0000
0310
0000
0000
1000
0000
0000
0001
0100
0001
0100
0000
0000
0010
0000
0000
1000
0000
0000
0100
0000
0000
,
0010
0001
2000
0000
3002
0003
0002
0003
,
0002
0000
0000
0103
0000
0000
0010
0000
0000
1000
0100
1000
0100
0000
0000
0010
0000
0000
0001
0000
0000
0100
0000
0000
,
0010
0000
0000
1000
0000
0000
0001
0000
0000
0010
0100
0010
0200
0000
0000
0300
0000
0000
0200
0000
0000
0300
0000
0000
,
0200
0000
0000
0310
0000
0000
1000
0000
0000
0001
0100
0001
0100
0000
0000
0010
0000
0000
1000
0000
0000
0100
0000
0000
,
0010
0001
0100
0010
2000
3000
2000
3000
,
2000
0000
0000
3010
0000
0000
0100
0000
0000
0001
1000
0001
1000
0000
0000
0010
0000
0000
0100
0000
0000
0010
0000
0000
,
1000
0000
0000
0001
0000
0000
0010
0000
0000
0100
1000
0100
2000
0000
0000
3000
0000
0000
2000
0000
0000
3000
0000
0000
,
2000
0000
0000
3100
0000
0000
0010
0000
0000
0001
0100
0001
0100
0000
0000
0010
0000
0000
1000
0000
0000
0100
0000
0000
,
0010
0000
0001
0000
1000
0010
0100
0000
0002
0000
0003
0000
0002
0000
0003
0000
,
0002
0000
0000
0103
0000
0000
0010
0000
0000
1000
0100
1000
0100
0000
0000
0010
0000
0000
0001
0000
0000
0100
0000
0000
,
0010
0000
0000
1000
0000
0000
0001
0000
0000
0010
0100
0010
0200
0000
0000
0300
0000
0000
0200
0000
0000
0300
0000
0000
,
0200
0000
0000
0310
0000
0000
1000
0000
0000
0001
0100
0001
0100
0000
0000
0010
0000
0000
1000
0000
0000
0100
0000
0000
,
0010
0001
0200
0000
0310
1000
0001
0100
,
0001
1000
0100
0010
0001
0100
0010
1000
,
0001
0010
0100
1000
0001
0010
0001
1000
,
0100
0010
0001
0100
0010
0100
0001
1000
,
0010
0000
0100
0000
0001
0000
1000
0000
0100
0010
0001
0100
0010
1000
0001
0100
,
0001
1000
0010
0100
0001
1000
0100
0010
0001
0100
0010
1000
0001
0010
0001
0100
,
0010
0000
0100
0000
0001
0000
1000
0000
0100
0000
0010
0000
0001
0000
1000
0000
0010
0100
0001
1000
0100
0010
0001
0100
0010
1000
0001
0100
0001
1000
0010
0100
,
0010
1000
0100
0010
0001
0100
0010
1000
0001
0010
0100
1000
0010
0100
0001
1000
0100
0010
0001
0100
0010
1000
0001
0010
0100
1000
0010
0100
0001
1000
0100
0010
,
0001
0000
0000
0000
0000
0000
0100
0000
0000
0000
0000
0000
0010
0000
0000
0000
0000
0000
1000
0000
0000
0000
0000
0000
0001
0000
0000
0000
0000
0000
0010
0000
0000
0000
0000
0000
0001
0000
0000
0000
0000
0000
0100
0000
0000
0000
0000
0000
0010
0000
0000
0000
0000
0000
1000
0000
0000
0000
0000
0000
0100
0000
0000
0000
0000
0000
0010
0000
0000
0000
0000
0000
0001
0000
0000
0000
0000
0000
0100
0000
0000
0000
0000
0000
0010
0000
0000
0000
0000
0000
1000
0000
0000
0000
0000
0000
0001
0000
0000
0000
0000
0000
0000
0000
0010
0000
0000
0000
0000
0000
0000
0000
0100
0000
0000
0000
0000
0000
0000
0000
1000
0000
0000
0000
0000
0000
0000
0000
0010
0000
0000
0000
0000
0000
0000
0000
0100
0000
0000
0000
0000
0000
0000
0000
0001
0000
0000
0000
0000
0000
0000
0000
1000
0000
0000
0000
0000
0000
0000
0000
0100
0000
0000
0000
0000
0000
0000
0000
1000
0000
0000
0000
0000
0000
0000
0000
0010
0000
0000
0000
0000
0000
0000
0000
0100
0000
0000
0000
0000
0000
0000
0000
,
0001
1000
0100
0010
0001
0100
0010
1000
0010
0100
0001
1000
0100
0010
0001
0100
0010
1000
0001
0010
0100
1000
0010
0100
,
0001
0100
0010
1000
0001
1000
0100
0010
0001
0100
0010
1000
0001
0010
0001
0100
0010
1000
0001
0100
0001
0010
0100
1000
,
0010
0100
0001
1000
0100
0010
0001
0100
0010
1000
0100
1000
0001
0010
0001
0100
0010
1000
0001
0100
0001
1000
0100
0010
,
0001
0100
0010
1000
0001
0010
0001
0100
0010
1000
0010
0100
0001
0010
0100
1000
0010
0100
0001
1000
0100
1000
0010
0100
,
0001
1000
0100
0010
0001
0100
0010
1000
0010
0100
0001
1000
0100
0010
0001
0100
0010
1000
0001
0010
0100
1000
0010
0100
,
0001
0100
0010
1000
0001
1000
0100
0010
0001
0100
0010
1000
0001
0010
0001
0100
0010
1000
0001
0100
0001
0010
0100
1000
,
0010
0100
0001
1000
0100
0010
0001
0100
0010
1000
0100
1000
0001
0010
0001
0100
0010
1000
0001
0100
0001
1000
0100
0010
,
0001
0100
0010
1000
0001
0010
0001
0100
0010
1000
0010
0100
0001
0010
0100
1000
0010
0100
0001
1000
0100
1000
0010
0100
,
0001
1000
0100
0010
0001
0100
0010
1000
0010
0100
0001
1000
0100
0010
0001
0100
0010
1000
0001
0010
0100
1000
0010
0100
,
0001
0100
0010
1000
0001
1000
0100
0010
0001
0100
0010
1000
0001
0010
0001
0100
0010
1000
0001
0100
0001
0010
0100
1000
,
0010
0100
0001
1000
0100
0010
0001
0100
0010
1000
0100
1000
0001
0010
0001
0100
0010
1000
0001
0100
0001
1000
0100
0010
,
0001
0100
0010
1000
0001
0010
0001
0100
0010
1000
0010
0100
0001
0010
0100
1000
0010
0100
0001
1000
0100
1000
0010
0100
,
0001
1000
0100
0010
0001
0100
0010
1000
0010
0100
0001
1000
0100
0010
0001
0100
0010
1000
0001
0010
0100
1000
0010
0100
,
0001
0100
0010
1000
0001
1000
0100
0010
0001
0100
0010
1000
0001
0010
0001
0100
0010
1000
0001
0100
0001
0010
0100
1000
,
0010
0100
0001
1000
0100
0010
0001
0100
0010
1000
0100
1000
0001
0010
0001
0100
0010
1000
0001
0100
0001
1000
0100
0010
,
0001
0100
0010
1000
0001
0010
0001
0100
0010
1000
0010
0100
0001
0010
0100
1000
0010
0100
0001
1000
0100
1000
0010
0100
,
0001
1000
0100
0010
0001
0100
0010
1000
0010
0100
0001
1000
0100
0010
0001
0100
0010
1000
0001
0010
0100
1000
0010
0100
,
0001
0100
0010
1000
0001
1000
0100
0010
0001
0100
0010
1000
0001
0010
0001
0100
0010
1000
0001
0100
0001
0010
0100
1000
,
0010
0100
0001
1000
0100
0010
0001
0100
0010
1000
0100
1000
0001
0010
0001
0100
0010
1000
0001
0100
0001
1000
0100
0010
,
0001
0100
0010
1000
0001
0010
0001
0100
0010
1000
0010
0100
0001
0010
0100
1000
0010
0100
0001
1000
0100
1000
0010
0100
,
0001
1000
0100
0010
0001
0100
0010
1000
0010
0100
0001
1000
0100
0010
0001
0100
0010
1000
0001
0010
0100
1000
0010
0100
,
0001
0100
0010
1000
0001
1000
0100
0010
0001
0100
0010
1000
0001
0010
0001
0100
0010
1000
0001
0100
0001
0010
0100
1000
,
0010
0100
0001
1000
0100
0010
0001
0100
0010
1000
0100
1000
0001
0010
0001
0100
0010
1000
0001
0100
0001
1000
0100
0010
,
0001
0100
0010
1000
0001
0010
0001
0100
0010
1000
0010
0100
0001
0010
0100
1000
0010
0100
0001
1000
0100
1000
0010
0100
,
0001
1000
0100
0010
0001
0100
0010
1000
0010
0100
0001
1000
0100
0010
0001
0100
0010
1000
0001
0010
0100
1000
0010
0100
,
0001
0100
0010
1000
0001
1000
0100
0010
0001
0100
0010
1000
0001
0010
0001
0100
0010
1000
0001
0100
0001
0010
0100
1000
,
0010
0100
0001
1000
0100
0010
0001
0100
0010
1000
0100
1000
0001
0010
0001
0100
0010
1000
0001
0100
0001
1000
0100
0010
,
0001
0100
0010
1000
0001
0010
0001
0100
0010
1000
0010
0100
0001
0010
0100
1000
0010
0100
0001
1000
0100
1000
0010
0100
,
0001
1000
0100
0010
0001
0100
0010
1000
0010
0100
0001
1000
0100
0010
0001
0100
0010
1000
0001
0010
0100
1000
0010
0100
,
0001
0100
0010
1000
0001
1000
0100
0010
0001
0100
0010
1000
0001
0010
0001
0100
0010
1000
0001
0100
0001
0010
0100
1000
,
0010
0100
0001
1000
0100
0010
0001
0100
0010
1000
0100
1000
0001
0010
0001
0100
0010
1000
0001
0100
0001
1000
0100
0010
,
0001
0000
0100
0000
0010
0000
1000
0000
0001
0000
0010
0000
0001
0000
0100
0000
0010
0000
1000
0000
0010
0000
0100
0000
0001
0000
0000
1000
0000
0000
0001
0000
0000
0010
0000
0000
0100
0000
0000
1000
0000
0000
0001
0000
0000
0100
0000
0000
,
0001
1000
0010
0100
0001
1000
0100
0010
0001
0100
0010
1000
0001
0010
0001
0100
,
0010
0100
0001
1000
0100
0010
0001
1000
0100
0010
0001
0100
0010
1000
0001
0100
,
0001
1000
0010
0100
0001
1000
0100
0010
0001
0100
0010
1000
0001
0010
0001
0100
,
0010
0100
0001
1000
0100
0010
0001
0100
0010
1000
0001
0100
0001
1000
0010
0100
,
0001
1000
0100
0010
0001
0100
0010
1000
0001
0010
0001
0100
0010
0100
0001
1000
,
0100
0010
0001
0100
0010
1000
0001
0100
0001
1000
0010
0100
0001
1000
0100
0010
,
0001
0100
0010
1000
0001
0010
0001
0100
0010
0100
0001
1000
0100
0010
0001
0100
,
0010
1000
0001
0100
0001
1000
0010
0100
0001
0000
0000
0101
0000
0000
0101
0000
,
0000
0000
0101
0000
0000
0000
0000
0000
1010
0000
0000
1010
0000
0000
1010
0000
,
0000
0000
1010
0000
0000
0000
0000
0000
1001
0000
0000
1001
0000
0000
1001
0000
,
0000
0000
1001
0000
0000
0000
0000
0000
0110
0000
0000
0110
0000
0000
0110
0000
,
0000
0000
0110
0000
0000
0000
0000
0000
1100
0000
0000
1100
0000
0000
1100
0000
,
0000
0000
1100
0000
0000
0000
0000
0000
0011
0000
0000
0011
0000
0000
0011
0000
,
0000
0000
0011
0000
0000
0000
0000
0000
0101
0000
0000
0101
0000
0000
0101
0000
,
0000
0000
0101
0000
0000
0000
0000
0000
1001
0000
0000
1001
0000
0000
1001
0000
,
0000
1001
0000
0000
2000
0000
0000
0000
,
3200
0000
0000
0000
0000
0000
0000
0300
0020
0000
0000
0000
0000
0000
0000
0000
,
0032
0000
0000
0003
2000
0000
0000
0000
,
3020
0000
0000
0000
0000
0000
0000
0030
0200
0000
0000
0000
0000
0000
0000
0000
,
0302
0000
0000
0000
0000
0000
0003
0000
2000
0000
0000
3020
0000
0000
0230
0000
,
0000
0000
0000
0000
0000
0000
0000
0000
0000
0000
0000
0000
0300
0000
0000
0000
0002
0000
0000
0000
2003
0000
0000
0000
0000
3200
0000
0000
0000
0000
0000
0000
,
0000
0000
0000
0000
0300
0000
0000
0000
2000
0000
0000
3002
0000
0000
0023
0000
,
0000
0000
0000
0000
0000
0000
0000
0000
0000
0000
0000
0000
0030
0000
0000
0000
0002
0000
0000
0000
2003
0000
0000
0000
0000
3200
0000
0000
0000
0000
0000
0000
,
0000
0000
0000
0000
0300
0000
0000
0000
0000
0000
0000
0000
2002
3003
0000
0000
;

//---------------dance-single - ----------------
#NOTES:
     dance-single:
     :
     Edit:
     20:
     1.000,1.000,0.102,0.251,1.000,2597.000,32.000,79.000,0.000,6.000:
1000
0100
0010
0000
0001
0100
0010
0000
1000
0000
0001
0100
0010
0000
1000
0100
,
0010
0001
0100
0000
0010
1000
0001
0000
0010
0000
0100
1000
0010
0100
0001
1000
,
0100
0010
0001
0000
1000
0010
1000
0000
0100
0000
0010
0001
0100
0000
0010
1000
,
0001
0010
0100
0000
1000
0001
0100
0000
0010
0000
0100
0001
1000
0000
0100
0010
,
0001
1000
0010
0000
0100
0001
1000
0000
0100
0000
0010
0001
0100
0000
0010
1000
,
0001
0010
0100
0000
1000
0010
0100
0000
0010
0000
1000
0001
0010
0000
0100
1000
,
0010
0100
0001
0000
1000
0100
1000
0000
0010
0000
0100
0001
0010
0000
0100
1000
,
0001
0100
0010
0000
0100
0001
1000
0000
0100
0000
0010
0001
0100
0000
0010
1000
,
0001
0000
0100
0010
1000
0000
0100
0010
0001
0000
0100
0010
1000
0000
0001
0010
,
0001
0000
0100
0010
1000
0000
0001
0010
0100
0000
1000
0010
0100
0000
0001
1000
,
0100
0000
0010
0001
1000
0000
0010
0100
0010
0000
1000
0001
0100
0000
0010
1000
,
0001
0000
0010
0001
0100
0000
0010
1000
0001
0000
0100
0010
0100
0000
0001
1000
,
0010
0000
0100
0001
0010
0000
0100
1000
0010
0000
0100
0001
0100
0000
0010
1000
,
0001
0000
0010
0100
1000
0000
0001
0100
0001
0000
0010
0100
1000
0000
0001
0010
,
0100
0000
1000
0010
0100
0000
0001
1000
0100
0000
0010
0001
1000
0000
0010
0100
,
0010
0000
1000
0001
0100
0000
0010
1000
0001
0000
0010
0001
0100
0000
0010
1000
,
0001
0000
0100
0010
0100
0000
0001
1000
0010
0000
0100
0001
0010
0000
0100
1000
,
0010
0000
0100
0001
0100
0000
0010
1000
0001
0000
0010
0100
1000
0000
0001
0010
,
0001
0000
0100
0010
1000
0000
0001
0010
0100
0000
1000
0010
0100
0000
0001
1000
,
0100
0000
0010
0001
1000
0000
0010
0100
0010
0000
1000
0001
0100
0000
0010
1000
,
0001
0000
0010
0001
0100
0000
0010
1000
0001
0000
0100
0010
0100
0000
0001
1000
,
0010
0000
0100
0001
0010
0000
0100
1000
0010
0000
0100
0001
0100
0000
0010
1000
,
0001
0000
0010
0100
1000
0000
0001
0010
0100
0000
1000
0010
0100
0000
0001
1000
,
0100
0000
0010
0001
1000
0000
0010
0100
0010
0000
1000
0001
0100
0000
0010
1000
,
0001
0100
0010
0100
0001
1000
0100
0010
,
0001
0100
0010
1000
0001
0100
0001
1000
,
0010
0100
0001
1000
0100
0010
0001
0100
,
0010
1000
0001
0010
0001
0100
0010
1000
,
0001
0010
0100
1000
0010
0100
0001
1000
,
0100
1000
0001
0100
0010
1000
0001
0010
,
0001
1000
0100
0010
0001
0100
0010
1000
,
0001
0010
0100
1000
0010
0100
0001
1000
,
0100
0000
0010
0001
0100
0010
1000
0001
0100
0001
0010
0100
1000
0010
0100
0001
,
1000
0100
0010
0001
0100
0010
1000
0001
0010
0001
0100
0010
0100
0001
1000
0010
,
1000
0100
0010
0001
0100
0010
1000
0001
0010
0100
1000
0001
0010
0001
0100
0010
,
1000
0100
0010
0001
0100
0001
1000
0010
0100
0001
0010
0100
1000
0001
0010
0001
,
0100
0010
1000
0001
0010
0100
1000
0001
0100
0001
0010
0100
1000
0010
0100
0001
,
1000
0010
1000
0100
0010
0001
0100
0010
1000
0001
0010
0001
0100
0010
1000
0001
,
0010
0001
1000
0100
1000
0010
0100
0001
1000
0100
0010
0001
0100
0010
0100
0001
,
1000
0100
0010
0001
1000
0010
0100
0010
1000
0001
0010
0001
0100
0010
0100
0001
,
1000
0100
0010
0001
0100
0010
1000
0001
,
0100
0001
1000
0010
0100
0001
1000
0100
,
0010
0001
0100
0010
1000
0001
0010
0001
,
0100
0010
1000
0001
0010
0100
1000
0010
,
0100
0001
1000
0100
1000
0001
0100
0010
,
1000
0001
0010
0001
1000
0100
0010
0001
,
0100
0010
1000
0001
0010
0100
1000
0010
,
0100
0001
1000
0100
0010
0001
0100
0010
,
1000
0001
0100
0001
1000
0010
0100
0001
,
1000
0100
0010
0001
0100
0010
1000
0001
,
0010
0001
0100
0010
1000
0001
0010
0100
,
1000
0010
0100
0001
1000
0100
1000
0001
,
0100
0010
1000
0001
0010
0001
1000
0100
,
0010
0001
0100
0010
1000
0001
0010
0100
,
1000
0010
0100
0001
1000
0100
0010
0001
,
0100
0010
1000
0001
0100
0001
1000
0010
,
0100
0001
1000
0100
0010
0001
0100
0010
,
1000
0001
0010
0001
0100
0010
1000
0001
,
0010
0100
1000
0010
0100
0001
1000
0100
,
1000
0001
0100
0010
1000
0001
0010
0001
,
1000
0100
0010
0001
0100
0010
1000
0001
0100
0001
1000
0010
0100
0001
0010
0100
,
1000
0010
0100
0001
0100
0010
1000
0100
0010
0001
1000
0010
1000
0001
0100
0001
,
0010
0100
1000
0010
0100
0001
1000
0100
1000
0010
0100
0001
0010
0100
1000
0001
,
0020
0030
0002
0003
0200
0300
0020
0030
2000
3000
0002
0003
0200
0300
0002
0003
4000
3000
0400
0300
0040
0030
0004
0003
0400
0300
0040
0030
0400
0300
0004
0003
,
1000
0010
0100
0001
1000
0100
0010
0001
0100
0010
1000
0001
0010
0001
0100
0010
,
0100
0001
1000
0010
1000
0100
0010
0001
0100
0010
1000
0001
0010
0100
1000
0001
,
0010
0001
0100
0010
1000
0100
0010
0001
0100
0001
1000
0010
0100
0001
0010
0100
,
1000
0001
0010
0001
0100
0010
1000
0001
0010
0100
1000
0001
0100
0001
0010
0100
,
1000
0010
0100
0001
1000
0010
1000
0100
0010
0001
0100
0010
1000
0001
0010
0001
,
0100
0010
1000
0001
0010
0001
1000
0100
1000
0010
0100
0001
1000
0100
0010
0001
,
0100
0010
0100
0001
1000
0100
0010
0001
1000
0010
0100
0010
1000
0001
0010
0001
,
0100
0010
0100
0001
1000
0010
0100
0001
1000
0100
0010
0001
0100
0010
1000
0001
,
0010
0001
0100
0010
0100
0001
1000
0010
1000
0100
0010
0001
0100
0010
1000
0001
,
0010
0100
1000
0001
0010
0001
0100
0010
1000
0100
0010
0001
0100
0001
1000
0010
,
0100
0001
0010
0100
1000
0001
0010
0001
0100
0010
1000
0001
0010
0100
1000
0001
,
0100
0001
0010
0100
1000
0010
0100
0001
1000
0010
1000
0100
0010
0001
0100
0010
,
1000
0001
0010
0001
0100
0010
1000
0001
0010
0001
1000
0100
1000
0010
0100
0001
,
1000
0100
0010
0001
0100
0010
0100
0001
1000
0100
0010
0001
1000
0010
0100
0010
,
1000
0001
0010
0001
0100
0010
0100
0001
1000
0010
0100
0001
1000
0100
0010
0001
,
0100
0010
1000
0001
0010
0001
0100
0010
0100
0001
1000
0010
1000
0100
0010
0001
,
0100
0010
1000
0001
0010
0100
1000
0001
0010
0001
0100
0010
1000
0100
0010
0001
,
0100
0001
1000
0010
0100
0001
0010
0100
1000
0001
0010
0001
0100
0010
1000
0001
,
0010
0100
1000
0001
0100
0001
0010
0100
1000
0010
0100
0001
1000
0010
1000
0100
,
0010
0001
0100
0010
1000
0001
0010
0001
0100
0010
1000
0001
0010
0001
1000
0100
,
1000
0010
0100
0001
1000
0100
0010
0001
0100
0010
0100
0001
1000
0100
0010
0001
,
1000
0010
0100
0010
1000
0001
0010
0001
0100
0010
0100
0001
1000
0010
0100
0001
,
1000
0100
0010
0001
0100
0010
1000
0001
0010
0001
0100
0010
0100
0001
1000
0010
,
1000
0100
0010
0001
0100
0010
1000
0001
0010
0100
1000
0001
0010
0001
0100
0010
,
1000
0100
0010
0001
0100
0001
1000
0010
0100
0001
0010
0100
1000
0001
0010
0001
,
0100
0010
1000
0001
0010
0100
1000
0001
0100
0001
0010
0100
1000
0010
0100
0001
,
1000
0010
1000
0100
0010
0001
0100
0010
1000
0001
0010
0001
0100
0010
1000
0001
,
0010
0001
1000
0100
1000
0010
0100
0001
1000
0100
0010
0001
0100
0010
0100
0001
,
1000
0100
0010
0001
1000
0010
0100
0010
1000
0001
0010
0001
0100
0010
0100
0001
,
1000
0010
0100
0001
1000
0100
0010
0001
0100
0010
1000
0001
0010
0001
0100
0010
,
0100
0001
1000
0010
1000
0100
0010
0001
0100
0010
1000
0001
0010
0100
1000
0001
,
0010
0001
0100
0010
1000
0100
0010
0001
0100
0001
1000
0010
0100
0001
0010
0100
,
1000
0001
0010
0001
0100
0010
1000
0001
0010
0100
1000
0001
0100
0001
0010
0100
,
1000
0010
0100
0001
1000
0010
1000
0100
0010
0001
0100
0010
1000
0001
0010
0001
,
0100
0010
1000
0001
0010
0001
1000
0100
1000
0010
0100
0001
1000
0100
0010
0001
,
0100
0010
0100
0001
1000
0100
0010
0001
1000
0010
0100
0010
1000
0001
0010
0001
,
0100
0010
0100
0001
1000
0010
0100
0001
1000
0100
0010
0001
0100
0010
1000
0001
,
0010
0001
0100
0010
0100
0001
1000
0010
1000
0100
0010
0001
0100
0010
1000
0001
,
0010
0100
1000
0001
0010
0001
0100
0010
1000
0100
0010
0001
0100
0001
1000
0010
,
0100
0001
0010
0100
1000
0001
0010
0001
0100
0010
1000
0001
0010
0100
1000
0001
,
0200
0000
0320
0000
,
2030
0000
3002
0000
,
0203
0000
0000
0000
0000
0020
0000
0300
2000
0000
0000
0000
0000
0000
0000
0000
,
3032
0000
0000
0000
0000
0200
0000
0003
0020
0000
0000
0000
0000
0000
0000
0000
,
2300
0000
0000
0032
3200
0000
0000
0000
,
2303
0000
0000
0020
3200
0000
0000
0000
,
0300
0000
0030
0000
2000
3000
2000
3000
,
2000
0000
0000
3010
0000
0000
0100
0000
0000
0001
1000
0001
1000
0000
0000
0010
0000
0000
0100
0000
0000
0010
0000
0000
,
1000
0000
0000
0001
0000
0000
0010
0000
0000
0100
1000
0100
2000
0000
0000
3000
0000
0000
2000
0000
0000
3000
0000
0000
,
2000
0000
0000
3100
0000
0000
0010
0000
0000
0001
0100
0001
0100
0000
0000
0010
0000
0000
1000
0000
0000
0100
0000
0000
,
0010
0001
2000
0000
3002
0003
0002
0003
,
0002
0000
0000
0103
0000
0000
0010
0000
0000
1000
0100
1000
0100
0000
0000
0010
0000
0000
0001
0000
0000
0100
0000
0000
,
0010
0000
0000
1000
0000
0000
0001
0000
0000
0010
0100
0010
0200
0000
0000
0300
0000
0000
0200
0000
0000
0300
0000
0000
,
0200
0000
0000
0310
0000
0000
1000
0000
0000
0001
0100
0001
0100
0000
0000
0010
0000
0000
1000
0000
0000
0100
0000
0000
,
0010
0001
2000
0000
3002
0003
0002
0003
,
0002
0000
0000
0103
0000
0000
0010
0000
0000
1000
0100
1000
0100
0000
0000
0010
0000
0000
0001
0000
0000
0100
0000
0000
,
0010
0000
0000
1000
0000
0000
0001
0000
0000
0010
0100
0010
0200
0000
0000
0300
0000
0000
0200
0000
0000
0300
0000
0000
,
0200
0000
0000
0310
0000
0000
1000
0000
0000
0001
0100
0001
0100
0000
0000
0010
0000
0000
1000
0000
0000
0100
0000
0000
,
0010
0001
0100
0010
2000
3000
2000
3000
,
2000
0000
0000
3010
0000
0000
0100
0000
0000
0001
1000
0001
1000
0000
0000
0010
0000
0000
0100
0000
0000
0010
0000
0000
,
1000
0000
0000
0001
0000
0000
0010
0000
0000
0100
1000
0100
2000
0000
0000
3000
0000
0000
2000
0000
0000
3000
0000
0000
,
2000
0000
0000
3100
0000
0000
0010
0000
0000
0001
0100
0001
0100
0000
0000
0010
0000
0000
1000
0000
0000
0100
0000
0000
,
0010
0000
0001
0000
1000
0010
0100
0000
0002
0000
0003
0000
0002
0000
0003
0000
,
0002
0000
0000
0103
0000
0000
0010
0000
0000
1000
0100
1000
0100
0000
0000
0010
0000
0000
0001
0000
0000
0100
0000
0000
,
0010
0000
0000
1000
0000
0000
0001
0000
0000
0010
0100
0010
0200
0000
0000
0300
0000
0000
0200
0000
0000
0300
0000
0000
,
0200
0000
0000
0310
0000
0000
1000
0000
0000
0001
0100
0001
0100
0000
0000
0010
0000
0000
1000
0000
0000
0100
0000
0000
,
0010
0001
0200
0000
0310
1000
0001
0100
,
0001
1000
0100
0010
0001
0100
0010
1000
,
0001
0010
0100
1000
0001
0010
0001
1000
,
0100
0010
0001
0100
0010
0100
0001
1000
,
0010
0000
0100
0000
0001
0000
1000
0000
0100
0010
0001
0100
0010
1000
0001
0100
,
0001
1000
0010
0100
0001
1000
0100
0010
0001
0100
0010
1000
0001
0010
0001
0100
,
0010
0000
0100
0000
0001
0000
1000
0000
0100
0000
0010
0000
0001
0000
1000
0000
0010
0100
0001
1000
0100
0010
0001
0100
0010
1000
0001
0100
0001
1000
0010
0100
,
0010
1000
0100
0010
0001
0100
0010
1000
0001
0010
0100
1000
0010
0100
0001
1000
0100
0010
0001
0100
0010
1000
0001
0010
0100
1000
0010
0100
0001
1000
0100
0010
,
0001
0000
0000
0000
0000
0000
0100
0000
0000
0000
0000
0000
0010
0000
0000
0000
0000
0000
1000
0000
0000
0000
0000
0000
0001
0000
0000
0000
0000
0000
0010
0000
0000
0000
0000
0000
0001
0000
0000
0000
0000
0000
0100
0000
0000
0000
0000
0000
0010
0000
0000
0000
0000
0000
1000
0000
0000
0000
0000
0000
0100
0000
0000
0000
0000
0000
0010
0000
0000
0000
0000
0000
0001
0000
0000
0000
0000
0000
0100
0000
0000
0000
0000
0000
0010
0000
0000
0000
0000
0000
1000
0000
0000
0000
0000
0000
0001
0000
0000
0000
0000
0000
0000
0000
0010
0000
0000
0000
0000
0000
0000
0000
0100
0000
0000
0000
0000
0000
0000
0000
1000
0000
0000
0000
0000
0000
0000
0000
0010
0000
0000
0000
0000
0000
0000
0000
0100
0000
0000
0000
0000
0000
0000
0000
0001
0000
0000
0000
0000
0000
0000
0000
1000
0000
0000
0000
0000
0000
0000
0000
0100
0000
0000
0000
0000
0000
0000
0000
1000
0000
0000
0000
0000
0000
0000
0000
0010
0000
0000
0000
0000
0000
0000
0000
0100
0000
0000
0000
0000
0000
0000
0000
,
0001
1000
0100
0010
0001
0100
0010
1000
0010
0100
0001
1000
0100
0010
0001
0100
0010
1000
0001
0010
0100
1000
0010
0100
,
0001
0100
0010
1000
0001
1000
0100
0010
0001
0100
0010
1000
0001
0010
0001
0100
0010
1000
0001
0100
0001
0010
0100
1000
,
0010
0100
0001
1000
0100
0010
0001
0100
0010
1000
0100
1000
0001
0010
0001
0100
0010
1000
0001
0100
0001
1000
0100
0010
,
0001
0100
0010
1000
0001
0010
0001
0100
0010
1000
0010
0100
0001
0010
0100
1000
0010
0100
0001
1000
0100
1000
0010
0100
,
0001
1000
0100
0010
0001
0100
0010
1000
0010
0100
0001
1000
0100
0010
0001
0100
0010
1000
0001
0010
0100
1000
0010
0100
,
0001
0100
0010
1000
0001
1000
0100
0010
0001
0100
0010
1000
0001
0010
0001
0100
0010
1000
0001
0100
0001
0010
0100
1000
,
0010
0100
0001
1000
0100
0010
0001
0100
0010
1000
0100
1000
0001
0010
0001
0100
0010
1000
0001
0100
0001
1000
0100
0010
,
0001
0100
0010
1000
0001
0010
0001
0100
0010
1000
0010
0100
0001
0010
0100
1000
0010
0100
0001
1000
0100
1000
0010
0100
,
0001
1000
0100
0010
0001
0100
0010
1000
0010
0100
0001
1000
0100
0010
0001
0100
0010
1000
0001
0010
0100
1000
0010
0100
,
0001
0100
0010
1000
0001
1000
0100
0010
0001
0100
0010
1000
0001
0010
0001
0100
0010
1000
0001
0100
0001
0010
0100
1000
,
0010
0100
0001
1000
0100
0010
0001
0100
0010
1000
0100
1000
0001
0010
0001
0100
0010
1000
0001
0100
0001
1000
0100
0010
,
0001
0100
0010
1000
0001
0010
0001
0100
0010
1000
0010
0100
0001
0010
0100
1000
0010
0100
0001
1000
0100
1000
0010
0100
,
0001
1000
0100
0010
0001
0100
0010
1000
0010
0100
0001
1000
0100
0010
0001
0100
0010
1000
0001
0010
0100
1000
0010
0100
,
0001
0100
0010
1000
0001
1000
0100
0010
0001
0100
0010
1000
0001
0010
0001
0100
0010
1000
0001
0100
0001
0010
0100
1000
,
0010
0100
0001
1000
0100
0010
0001
0100
0010
1000
0100
1000
0001
0010
0001
0100
0010
1000
0001
0100
0001
1000
0100
0010
,
0001
0100
0010
1000
0001
0010
0001
0100
0010
1000
0010
0100
0001
0010
0100
1000
0010
0100
0001
1000
0100
1000
0010
0100
,
0001
1000
0100
0010
0001
0100
0010
1000
0010
0100
0001
1000
0100
0010
0001
0100
0010
1000
0001
0010
0100
1000
0010
0100
,
0001
0100
0010
1000
0001
1000
0100
0010
0001
0100
0010
1000
0001
0010
0001
0100
0010
1000
0001
0100
0001
0010
0100
1000
,
0010
0100
0001
1000
0100
0010
0001
0100
0010
1000
0100
1000
0001
0010
0001
0100
0010
1000
0001
0100
0001
1000
0100
0010
,
0001
0100
0010
1000
0001
0010
0001
0100
0010
1000
0010
0100
0001
0010
0100
1000
0010
0100
0001
1000
0100
1000
0010
0100
,
0001
1000
0100
0010
0001
0100
0010
1000
0010
0100
0001
1000
0100
0010
0001
0100
0010
1000
0001
0010
0100
1000
0010
0100
,
0001
0100
0010
1000
0001
1000
0100
0010
0001
0100
0010
1000
0001
0010
0001
0100
0010
1000
0001
0100
0001
0010
0100
1000
,
0010
0100
0001
1000
0100
0010
0001
0100
0010
1000
0100
1000
0001
0010
0001
0100
0010
1000
0001
0100
0001
1000
0100
0010
,
0001
0100
0010
1000
0001
0010
0001
0100
0010
1000
0010
0100
0001
0010
0100
1000
0010
0100
0001
1000
0100
1000
0010
0100
,
0001
1000
0100
0010
0001
0100
0010
1000
0010
0100
0001
1000
0100
0010
0001
0100
0010
1000
0001
0010
0100
1000
0010
0100
,
0001
0100
0010
1000
0001
1000
0100
0010
0001
0100
0010
1000
0001
0010
0001
0100
0010
1000
0001
0100
0001
0010
0100
1000
,
0010
0100
0001
1000
0100
0010
0001
0100
0010
1000
0100
1000
0001
0010
0001
0100
0010
1000
0001
0100
0001
1000
0100
0010
,
0001
0100
0010
1000
0001
0010
0001
0100
0010
1000
0010
0100
0001
0010
0100
1000
0010
0100
0001
1000
0100
1000
0010
0100
,
0001
1000
0100
0010
0001
0100
0010
1000
0010
0100
0001
1000
0100
0010
0001
0100
0010
1000
0001
0010
0100
1000
0010
0100
,
0001
0100
0010
1000
0001
1000
0100
0010
0001
0100
0010
1000
0001
0010
0001
0100
0010
1000
0001
0100
0001
0010
0100
1000
,
0010
0100
0001
1000
0100
0010
0001
0100
0010
1000
0100
1000
0001
0010
0001
0100
0010
1000
0001
0100
0001
1000
0100
0010
,
0001
0000
0100
0000
0010
0000
1000
0000
0001
0000
0010
0000
0001
0000
0100
0000
0010
0000
1000
0000
0010
0000
0100
0000
0001
0000
0000
1000
0000
0000
0001
0000
0000
0010
0000
0000
0100
0000
0000
1000
0000
0000
0001
0000
0000
0100
0000
0000
,
0001
1000
0010
0100
0001
1000
0100
0010
0001
0100
0010
1000
0001
0010
0001
0100
,
0010
0100
0001
1000
0100
0010
0001
1000
0100
0010
0001
0100
0010
1000
0001
0100
,
0001
1000
0010
0100
0001
1000
0100
0010
0001
0100
0010
1000
0001
0010
0001
0100
,
0010
0100
0001
1000
0100
0010
0001
0100
0010
1000
0001
0100
0001
1000
0010
0100
,
0001
1000
0100
0010
0001
0100
0010
1000
0001
0010
0001
0100
0010
0100
0001
1000
,
0100
0010
0001
0100
0010
1000
0001
0100
0001
1000
0010
0100
0001
1000
0100
0010
,
0001
0100
0010
1000
0001
0010
0001
0100
0010
0100
0001
1000
0100
0010
0001
0100
,
0010
1000
0001
0100
0001
1000
0010
0100
0001
0000
0000
0101
0000
0000
0101
0000
,
0000
0000
0101
0000
0000
0000
0000
0000
1010
0000
0000
1010
0000
0000
1010
0000
,
0000
0000
1010
0000
0000
0000
0000
0000
1001
0000
0000
1001
0000
0000
1001
0000
,
0000
0000
1001
0000
0000
0000
0000
0000
0110
0000
0000
0110
0000
0000
0110
0000
,
0000
0000
0110
0000
0000
0000
0000
0000
1100
0000
0000
1100
0000
0000
1100
0000
,
0000
0000
1100
0000
0000
0000
0000
0000
0011
0000
0000
0011
0000
0000
0011
0000
,
0000
0000
0011
0000
0000
0000
0000
0000
0101
0000
0000
0101
0000
0000
0101
0000
,
0000
0000
0101
0000
0000
0000
0000
0000
1001
0000
0000
1001
0000
0000
1001
0000
,
0000
1001
0000
0000
2000
0000
0000
0000
,
3200
0000
0000
0000
0000
0000
0000
0300
0020
0000
0000
0000
0000
0000
0000
0000
,
0032
0000
0000
0003
2000
0000
0000
0000
,
3020
0000
0000
0000
0000
0000
0000
0030
0200
0000
0000
0000
0000
0000
0000
0000
,
0302
0000
0000
0000
0000
0000
0003
0000
2000
0000
0000
3020
0000
0000
0230
0000
,
0000
0000
0000
0000
0000
0000
0000
0000
0000
0000
0000
0000
0300
0000
0000
0000
0002
0000
0000
0000
2003
0000
0000
0000
0000
3200
0000
0000
0000
0000
0000
0000
,
0000
0000
0000
0000
0300
0000
0000
0000
2000
0000
0000
3002
0000
0000
0023
0000
,
0000
0000
0000
0000
0000
0000
0000
0000
0000
0000
0000
0000
0030
0000
0000
0000
0002
0000
0000
0000
2003
0000
0000
0000
0000
3200
0000
0000
0000
0000
0000
0000
,
0000
0000
0000
0000
0300
0000
0000
0000
0000
0000
0000
0000
2002
3003
0000
0000
;

//---------------dance-single - ----------------
#NOTES:
     dance-single:
     :
     Hard:
     12:
     0.720,1.000,0.054,0.216,0.282,1496.000,17.000,68.000,0.000,0.000:
1000
0100
1000
0100
0010
0001
0010
0001
,
0100
0010
0100
0010
1000
0001
0100
0010
,
1000
0001
0010
0001
1000
0010
0100
0001
,
0010
0001
0100
0010
1000
0100
0010
0001
,
0010
0100
1000
0001
0100
0010
1000
0001
,
0010
0001
0100
0010
1000
0001
0010
0100
,
1000
0100
0010
0001
0100
0010
1000
0001
,
0010
0100
1000
0100
0010
0001
0100
0010
,
1000
0001
0010
0100
1000
0100
0010
0001
,
0100
0010
1000
0001
0010
0100
1000
0100
,
0010
0001
0100
0010
1000
0001
0100
0010
,
1000
0001
0010
0100
0010
0001
0100
0010
,
1000
0001
0010
0100
1000
0100
0010
0001
,
0100
0010
1000
0001
0010
0100
1000
0100
,
1000
0001
0100
0001
1000
0010
0100
0001
,
0100
0010
0100
0001
1000
0010
0100
0001
,
1000
0100
1000
0001
0100
0010
1000
0001
,
1000
0010
0100
0001
0010
0001
0100
0010
,
1000
0001
1000
0010
0100
0001
1000
0100
,
1000
0001
0010
0001
1000
0010
0100
0001
,
1000
0010
0100
0001
0010
0001
1000
0100
,
0010
0100
1000
0001
0010
0100
1000
0100
,
0010
0001
0010
0100
1000
0001
0100
0010
,
1000
0100
0010
0001
0100
0010
1000
0010
,
0001
0100
0010
0100
0001
1000
0100
0010
,
0001
0100
0010
1000
0001
0100
0001
1000
,
0010
0100
0001
1000
0100
0010
0001
0100
,
0010
1000
0001
0010
0001
0100
0010
1000
,
0001
0010
0100
1000
0010
0100
0001
1000
,
0100
1000
0001
0100
0010
1000
0001
0010
,
0001
1000
0100
0010
0001
0100
0010
1000
,
0001
0010
0100
1000
0010
0100
0001
1000
,
0100
0010
0001
0010
0100
1000
0001
0100
,
0010
1000
0001
0010
0100
1000
0100
0010
,
0001
0100
0010
1000
0001
0010
0100
1000
,
0100
0010
0001
0100
0010
1000
0001
0100
,
0010
0100
0001
1000
0010
0100
0010
1000
,
0001
0100
0010
1000
0001
0100
0010
1000
,
0001
0100
0010
0100
0001
0100
0010
1000
,
0100
0010
0001
0010
0100
1000
0001
0010
,
1000
0100
0010
0001
0100
0010
1000
0001
,
0100
0001
1000
0010
0100
0001
1000
0100
,
0010
0001
0100
0010
1000
0001
0010
0001
,
0100
0010
1000
0001
0010
0100
1000
0010
,
0100
0001
1000
0100
1000
0001
0100
0010
,
1000
0001
0010
0001
1000
0100
0010
0001
,
0100
0010
1000
0001
0010
0100
1000
0010
,
0100
0001
1000
0100
0010
0001
0100
0010
,
1000
0001
0100
0001
1000
0010
0100
0001
,
1000
0100
0010
0001
0100
0010
1000
0001
,
0010
0001
0100
0010
1000
0001
0010
0100
,
1000
0010
0100
0001
1000
0100
1000
0001
,
0100
0010
1000
0001
0010
0001
1000
0100
,
0010
0001
0100
0010
1000
0001
0010
0100
,
1000
0010
0100
0001
1000
0100
0010
0001
,
0100
0010
1000
0001
0100
0001
1000
0010
,
0100
0001
1000
0100
0010
0001
0100
0010
,
1000
0001
0010
0001
0100
0010
1000
0001
,
0010
0100
1000
0010
0100
0001
1000
0100
,
1000
0001
0100
0010
1000
0001
0010
0001
,
1000
0100
0010
0001
0100
0010
1000
0001
0100
0001
1000
0010
0100
0001
0010
0100
,
1000
0010
0100
0001
0100
0010
1000
0100
0010
0001
1000
0010
1000
0001
0100
0001
,
0010
0100
1000
0010
0100
0001
1000
0100
1000
0010
0100
0001
0010
0100
1000
0001
,
0020
0030
0002
0003
0200
0300
0020
0030
2000
3000
0002
0003
0200
0300
0002
0003
4000
3000
0400
0300
0040
0030
0004
0003
0400
0300
0040
0030
0400
0300
0004
0003
,
1000
0100
1000
0100
1000
0001
0100
0010
,
1000
0001
0010
0100
1000
0100
0010
0001
,
0100
0010
0100
0001
0010
0100
1000
0100
,
0010
0001
0100
0010
1000
0001
0100
0010
,
1000
0001
0010
0100
1000
0100
0010
0001
,
0100
0010
1000
0100
0010
0001
0010
0100
,
1000
0001
0100
0010
0100
0001
0010
0100
,
1000
0100
0010
0001
0010
0100
1000
0001
,
0100
0010
1000
0001
0010
0001
0100
0010
,
1000
0001
0010
0001
1000
0010
0100
0001
,
0100
0010
1000
0100
0010
0100
1000
0001
,
0100
0010
1000
0001
0010
0100
1000
0100
,
0010
0001
0100
0010
1000
0001
0010
0100
,
1000
0100
0010
0100
1000
0001
0100
0010
,
0100
0001
1000
0010
0100
0001
0100
0010
,
1000
0001
0010
0001
1000
0100
1000
0001
,
0100
0010
1000
0001
0010
0001
1000
0100
,
1000
0001
0100
0010
1000
0001
0010
0100
,
1000
0100
0010
0001
0100
0010
1000
0001
,
0010
0100
1000
0100
0010
0001
0100
0010
,
1000
0001
0010
0001
1000
0100
1000
0001
,
0100
0010
0100
0001
1000
0100
1000
0001
,
0100
0010
1000
0001
0010
0001
1000
0100
,
1000
0001
0100
0010
1000
0001
0100
0010
,
1000
0100
1000
0001
0100
0010
1000
0001
,
0010
0100
1000
0100
0010
0001
0100
0010
,
1000
0001
0100
0010
1000
0001
0010
0100
,
1000
0100
0010
0001
0100
0010
1000
0001
,
0100
0010
1000
0001
0010
0001
1000
0100
,
1000
0001
0100
0001
0100
0010
1000
0100
,
1000
0001
0100
0010
1000
0100
1000
0001
,
0100
0010
1000
0100
1000
0001
0100
0001
,
1000
0001
0100
0010
1000
0001
0100
0010
,
1000
0100
0010
0001
0100
0010
1000
0001
,
0100
0010
0100
0001
1000
0010
0100
0010
,
1000
0001
0100
0010
1000
0010
0100
0001
,
0100
0010
1000
0001
0010
0100
0010
0001
,
1000
0010
0100
0001
0100
0010
1000
0001
,
0100
0010
1000
0001
0100
0010
1000
0001
,
1000
0010
0100
0000
,
0200
0000
0320
0000
,
2030
0000
3002
0000
,
0203
0000
0000
0000
0000
0020
0000
0300
2000
0000
0000
0000
3030
0000
0000
0000
,
0002
0000
0000
0000
0003
0200
0000
0000
0320
0000
0000
0000
0000
0000
0000
0000
,
2030
0000
3000
0020
0200
0000
0030
0000
,
2300
0000
0000
3020
0200
0000
0000
0000
,
0300
0000
0030
0000
2000
3000
2000
3000
,
2000
0000
0000
3010
0000
0000
0100
0000
0000
0001
1000
0001
1000
0000
0000
0010
0000
0000
0100
0000
0000
0010
0000
0000
,
1000
0000
0000
0001
0000
0000
0010
0000
0000
0100
1000
0100
2000
0000
0000
3000
0000
0000
2000
0000
0000
3000
0000
0000
,
2000
0000
0000
3100
0000
0000
0010
0000
0000
0001
0100
0001
0100
0000
0000
0010
0000
0000
1000
0000
0000
0100
0000
0000
,
0010
0001
2000
0000
3002
0003
0002
0003
,
0002
0000
0000
0103
0000
0000
0010
0000
0000
1000
0100
1000
0100
0000
0000
0010
0000
0000
0001
0000
0000
0100
0000
0000
,
0010
0000
0000
1000
0000
0000
0001
0000
0000
0010
0100
0010
0200
0000
0000
0300
0000
0000
0200
0000
0000
0300
0000
0000
,
0200
0000
0000
0310
0000
0000
1000
0000
0000
0001
0100
0001
0100
0000
0000
0010
0000
0000
1000
0000
0000
0100
0000
0000
,
0010
0001
2000
0000
3002
0003
0002
0003
,
0002
0000
0000
0103
0000
0000
0010
0000
0000
1000
0100
1000
0100
0000
0000
0010
0000
0000
0001
0000
0000
0100
0000
0000
,
0010
0000
0000
1000
0000
0000
0001
0000
0000
0010
0100
0010
0200
0000
0000
0300
0000
0000
0200
0000
0000
0300
0000
0000
,
0200
0000
0000
0310
0000
0000
1000
0000
0000
0001
0100
0001
0100
0000
0000
0010
0000
0000
1000
0000
0000
0100
0000
0000
,
0010
0001
0100
0010
2000
3000
2000
3000
,
2000
0000
0000
3010
0000
0000
0100
0000
0000
0001
1000
0001
1000
0000
0000
0010
0000
0000
0100
0000
0000
0010
0000
0000
,
1000
0000
0000
0001
0000
0000
0010
0000
0000
0100
1000
0100
2000
0000
0000
3000
0000
0000
2000
0000
0000
3000
0000
0000
,
2000
0000
0000
3100
0000
0000
0010
0000
0000
0001
0100
0001
0100
0000
0000
0010
0000
0000
1000
0000
0000
0100
0000
0000
,
0010
0000
0001
0000
1000
0010
0100
0000
0002
0000
0003
0000
0002
0000
0003
0000
,
0002
0000
0000
0103
0000
0000
0010
0000
0000
1000
0100
1000
0100
0000
0000
0010
0000
0000
0001
0000
0000
0100
0000
0000
,
0010
0000
0000
1000
0000
0000
0001
0000
0000
0010
0100
0010
0200
0000
0000
0300
0000
0000
0200
0000
0000
0300
0000
0000
,
0200
0000
0000
0310
0000
0000
1000
0000
0000
0001
0100
0001
0100
0000
0000
0010
0000
0000
1000
0000
0000
0100
0000
0000
,
0010
0001
0200
0000
0310
1000
0001
0100
,
0001
1000
0100
0010
0001
0100
0010
1000
,
0001
0010
0100
1000
0001
0010
0001
1000
,
0100
0010
0001
0100
0010
0100
0001
1000
,
0010
0000
0100
0000
0001
0000
1000
0000
0100
0010
0001
0100
0010
1000
0001
0100
,
0001
1000
0010
0100
0001
1000
0100
0010
0001
0100
0010
1000
0001
0010
0001
0100
,
0010
0100
0001
1000
0100
0010
0001
1000
0001
0010
0001
0010
0100
1000
0100
1000
,
0010
0100
0010
0100
0001
0010
0001
0010
0100
1000
0100
1000
0001
0100
0001
0100
,
0010
1000
0010
0100
0001
0100
0010
1000
0001
0000
0100
0000
0001
0000
0100
0000
,
0010
1000
0010
1000
0001
0100
0001
0100
,
0001
0010
0001
0100
0010
1000
0010
0100
,
0001
0010
0100
1000
0100
0010
0100
0010
,
0001
0100
0010
1000
0010
0100
0001
0010
,
0100
1000
0010
0100
0010
1000
0001
0010
,
0100
1000
0010
0100
0010
0000
1010
0000
,
0001
0100
0001
0010
0001
0100
0000
0100
,
0000
0100
0010
1000
1010
0000
0101
0000
,
0001
0010
0001
0100
0010
0010
0000
0000
,
0010
1000
0010
0100
0001
0000
0001
0000
,
1000
0010
0100
0001
0010
0000
0010
0000
,
0100
1000
0100
0010
0011
0000
0101
0000
,
0010
1000
0010
0100
0100
0001
0000
0010
,
0100
1000
0100
0010
0110
0000
1001
0000
,
0010
0100
0010
1000
1010
0000
0101
0000
,
0001
0010
0001
1000
0001
0001
0010
0010
,
0100
0100
1000
0001
0001
0100
0100
0010
,
1000
0010
0100
0001
0010
0010
0100
0100
,
1000
1000
0001
0001
0100
0100
0010
0010
,
1000
1000
0001
0100
0010
0000
0110
0000
,
1000
0010
0100
0010
1010
0000
0001
0000
,
0010
0100
1000
0100
1100
0000
0100
0000
,
0010
0100
0010
0100
0110
0000
0001
1000
,
0010
0100
0010
0100
0000
0000
1001
0000
,
1000
0100
0010
0001
0010
0100
1000
0001
0100
0010
1000
0001
0100
0010
1000
0100
,
0010
0001
0010
0100
1000
0001
0100
0010
1000
0001
0010
0100
1000
0100
0010
0001
,
0100
0010
0100
0001
0010
0100
1000
0100
0010
0001
0100
0010
0100
0001
1000
0100
,
0010
0100
1000
0001
0100
0010
1000
0001
0010
0100
1000
0100
0010
0001
0100
0010
,
1000
0001
0100
0010
1000
0001
0010
0001
0100
0010
0100
0001
1000
0001
0100
0010
,
1000
0100
1000
0001
0010
0100
1000
0100
0010
0001
0100
0010
1000
0001
0100
0010
,
1000
0001
0010
0100
1000
0100
0010
0001
0100
0010
1000
0001
0100
0010
1000
0001
,
0010
0001
0100
0010
1000
0001
0010
0100
1000
0000
0000
1000
0000
0000
1000
0000
,
0000
0000
1000
0000
0000
0000
0000
0000
0010
0000
0000
0010
0000
0000
0010
0000
,
0000
0000
0010
0000
0000
0000
0000
0000
0100
0000
0000
0001
0000
0000
0100
0000
,
0000
0000
0010
0000
0000
0000
0000
0000
1000
0000
0000
0001
0000
0000
1000
0000
,
0000
0000
0010
0000
0000
0000
0000
0000
0100
0000
0000
0001
0000
0000
0100
0000
,
0000
0000
0010
0000
0000
0000
0000
0000
1000
0000
0000
0001
0000
0000
1000
0000
,
0000
0000
0010
0000
0000
0000
0000
0000
0100
0000
0000
0001
0000
0000
0100
0000
,
0000
0000
0010
0000
0000
0000
0000
0000
1000
0000
0000
0001
0000
0000
1000
0000
,
0000
0000
0010
0000
0000
0000
0000
0000
0100
0000
0000
0001
0000
0000
0100
0000
,
0000
0000
0100
0010
0000
0000
0000
0000
0010
0000
0000
1000
0000
0000
0010
0000
,
0000
0000
1010
0000
0000
0000
0000
0000
0100
0000
0000
0001
0000
0000
0010
0000
,
0000
0000
0011
0000
0000
0000
0000
0000
0100
0000
0000
0100
0000
0000
0100
0000
,
0000
0000
0100
0000
0000
0000
0000
0000
0010
0000
0000
0010
0000
0000
0010
0000
,
0000
0000
0010
0000
0000
0000
0000
0000
1000
0000
0000
1000
0000
0000
1000
0000
,
0000
0000
1000
0000
0000
0000
0000
0000
0010
0000
0000
0010
0000
0000
0010
0000
,
0000
0000
0010
0000
0000
0000
0000
0000
0100
0000
0000
0100
0000
0000
0100
0000
,
0000
0001
0000
0000
2000
0000
0000
0000
,
0020
3000
0000
0000
0000
0000
0000
0000
0230
0000
0000
0000
0000
0000
0000
0000
,
0302
0000
0023
0000
,
0230
0000
2300
0000
,
3020
0000
0130
0000
,
0000
0000
0020
0000
,
0030
0000
2000
0000
,
3000
0000
0020
0000
,
0030
0000
0000
0110
;

//---------------dance-single - ----------------
#NOTES:
     dance-single:
     :
     Edit:
     23:
     1.000,1.000,0.121,0.225,1.000,2616.000,38.000,71.000,0.000,6.000:
1000
0100
0010
0001
0010
0100
1000
0001
0100
0010
1000
0001
0010
0001
0100
0010
,
1000
0001
0010
0001
0100
0010
1000
0100
0010
0001
0010
0100
1000
0001
0100
0010
,
0100
0001
1000
0010
0100
0001
0010
0100
1000
0100
0010
0001
0100
0010
0100
0001
,
0010
0100
1000
0100
0010
0001
0100
0010
1000
0001
0100
0010
1000
0001
0010
0100
,
1000
0100
0010
0001
0100
0010
1000
0001
0100
0010
1000
0001
0010
0100
1000
0100
,
0010
0001
0010
0100
1000
0001
0100
0010
0100
0001
0100
0010
1000
0001
0010
0100
,
1000
0100
0010
0001
0100
0010
0100
0001
0010
0100
1000
0100
0010
0001
0100
0010
,
1000
0001
0010
0100
1000
0100
0010
0001
0010
0100
1000
0001
0100
0010
0100
0001
,
0100
0010
1000
0001
0100
0010
1000
0001
0010
0100
1000
0100
0010
0001
0100
0010
,
1000
0001
0010
0100
1000
0100
0010
0100
1000
0001
0100
0010
1000
0001
0100
0010
,
1000
0001
0100
0010
1000
0001
0010
0001
1000
0100
1000
0001
0100
0010
1000
0001
,
0010
0100
1000
0100
0010
0001
0100
0010
1000
0001
0010
0100
1000
0100
0010
0001
,
0100
0010
0100
0001
0100
0010
1000
0001
0010
0100
1000
0100
0010
0001
0010
0100
,
1000
0001
0100
0010
0100
0001
0010
0100
1000
0100
0010
0001
0100
0010
1000
0001
,
0100
0010
1000
0001
0010
0100
1000
0100
0010
0001
0100
0010
1000
0001
0100
0010
,
1000
0001
0010
0100
1000
0100
0010
0001
0100
0010
1000
0001
0100
0010
1000
0001
,
0010
0100
1000
0001
0010
1000
0010
0001
1000
0001
0100
0010
1000
0001
0100
0010
,
1000
0001
0010
0001
0100
0010
1000
0001
0100
0010
1000
0001
0010
0100
1000
0100
,
0010
0001
0010
0001
1000
0100
1000
0100
0010
0001
0010
0001
1000
0010
1000
0010
,
0100
0001
0100
0001
0100
0010
0100
0010
0100
0010
0100
0010
0100
0001
0100
0001
,
1000
0100
0010
0001
0010
0100
1000
0001
0100
0010
1000
0001
0010
0100
1000
0100
,
0010
0100
1000
0001
0100
0010
1000
0100
0010
0001
0010
0100
1000
0001
0100
0010
,
0100
0001
0010
0100
1000
0100
0010
0001
0010
0100
1000
0001
0100
0010
1000
0100
,
0010
0001
0100
0010
1000
0001
0010
0001
0100
0010
1000
0001
0100
0010
1000
0001
,
0100
0001
1000
0010
1000
0100
0010
0001
0100
0010
1000
0001
1000
0100
0010
0100
,
1000
0001
1000
0010
0100
0001
0100
0010
1000
0001
0010
0100
1000
0100
0010
0001
,
0100
0010
1000
0001
0100
0010
1000
0001
0010
0100
1000
0100
0010
0001
0100
0010
,
0100
0001
0010
0100
1000
0001
0100
0010
1000
0001
0010
0100
1000
0100
0010
0001
,
0100
0010
1000
0001
0010
0100
1000
0100
0010
0001
0100
0010
0100
0001
1000
0010
,
0100
0001
0100
0010
1000
0001
0010
0100
1000
0100
0010
0001
0100
0010
1000
0001
,
0100
0010
1000
0001
0100
0010
1000
0001
0100
0010
1000
0001
0100
0010
1000
0001
,
0100
0010
1000
0001
0100
0010
1000
0001
0100
0010
1000
0001
0100
0010
1000
0010
,
0100
0000
0010
0001
0100
0010
1000
0001
0100
0001
0010
0100
1000
0010
0100
0001
,
1000
0100
0010
0001
0100
0010
1000
0001
0010
0001
0100
0010
0100
0001
1000
0010
,
1000
0100
0010
0001
0100
0010
1000
0001
0010
0100
1000
0001
0010
0001
0100
0010
,
1000
0100
0010
0001
0100
0001
1000
0010
0100
0001
0010
0100
1000
0001
0010
0001
,
0100
0010
1000
0001
0010
0100
1000
0001
0100
0001
0010
0100
1000
0010
0100
0001
,
1000
0010
1000
0100
0010
0001
0100
0010
1000
0001
0010
0001
0100
0010
1000
0001
,
0010
0001
1000
0100
1000
0010
0100
0001
1000
0100
0010
0001
0100
0010
0100
0001
,
1000
0100
0010
0001
1000
0010
0100
0010
1000
0001
0010
0001
0100
0010
0100
0001
,
1000
0010
0100
0001
0010
0100
1000
0100
0010
0001
0010
0100
1000
0010
0100
0010
,
0100
0001
0100
0010
1000
0010
0100
0001
0100
0010
0100
0010
1000
0010
0100
0001
,
0010
0001
0100
0010
0100
0001
0010
0100
1000
0010
0100
0001
0010
0100
1000
0010
,
0100
0010
0100
0001
0100
0010
1000
0100
0010
0001
0100
0010
1000
0010
0100
0010
,
0100
0001
0100
0010
1000
0001
0100
0001
1000
0010
0100
0010
0100
0001
0010
0100
,
1000
0010
0100
0001
0010
0100
1000
0100
0010
0001
0100
0010
1000
0100
0010
0001
,
0100
0010
1000
0001
0100
0010
1000
0001
0010
0100
1000
0010
1000
0001
1000
0010
,
0100
0001
0100
0010
1000
0001
0100
0001
0010
0001
1000
0001
0100
0010
1000
0100
,
1000
0001
0100
0010
0100
0001
0100
0010
1000
0010
0100
0001
0100
0001
0100
0010
,
1000
0010
0100
0001
0010
0001
1000
0100
0010
0001
0010
0100
1000
0001
0010
0100
,
1000
0100
0010
0001
0100
0010
1000
0010
1000
0100
0010
0001
0010
0100
1000
0010
,
1000
0010
0100
0001
0100
0001
0100
0010
1000
0010
0100
0010
1000
0001
0100
0010
,
0100
0010
1000
0010
1000
0001
0010
0001
0010
0100
1000
0010
1000
0010
1000
0100
,
0010
0100
1000
0010
0100
0001
0010
0100
1000
0001
0010
0100
1000
0100
0010
0001
,
1000
0100
0010
0001
0100
0010
1000
0010
1000
0100
0010
0001
0010
0001
0100
0010
,
0100
0001
0010
0100
1000
0001
0100
0010
0100
0001
0100
0010
1000
0010
0100
0001
,
0100
0001
1000
0100
1000
0010
0100
0001
0010
0001
0100
0010
0100
0010
1000
0010
,
1000
0001
0010
0001
0010
0100
1000
0100
0010
0001
0010
0100
1000
0001
0010
0100
,
1000
0010
0100
0001
1000
0010
1000
0001
0100
0001
1000
0010
1000
0001
0100
0010
,
1000
0001
0100
0010
0100
0001
0010
0001
1000
0001
0100
0010
1000
0001
1000
0010
,
1000
0100
0010
0001
0100
0010
1000
0001
0100
0001
1000
0010
0100
0001
0010
0100
,
1000
0010
0100
0001
0100
0010
1000
0100
0010
0001
1000
0010
1000
0001
0100
0001
,
1000
0100
0010
0001
0010
0100
1000
0001
0010
0100
1000
0100
0010
0001
1000
0100
0010
0001
0010
0100
1000
0001
0010
0100
1000
0100
0010
0001
0010
0100
1000
0001
,
0100
0010
1000
0001
0100
0010
1000
0001
0010
0001
1000
0010
0100
0001
0100
0010
1000
0001
0100
0010
1000
0100
0010
0001
0010
0100
1000
0001
0100
0010
1000
0000
,
1000
0010
0100
0001
1000
0100
0010
0001
0100
0010
1000
0001
0010
0001
0100
0010
,
0100
0001
1000
0010
1000
0100
0010
0001
0100
0010
1000
0001
0010
0100
1000
0001
,
0010
0001
0100
0010
1000
0100
0010
0001
0100
0001
1000
0010
0100
0001
0010
0100
,
1000
0001
0010
0001
0100
0010
1000
0001
0010
0100
1000
0001
0100
0001
0010
0100
,
1000
0010
0100
0001
1000
0010
1000
0100
0010
0001
0100
0010
1000
0001
0010
0001
,
0100
0010
1000
0001
0010
0001
1000
0100
1000
0010
0100
0001
1000
0100
0010
0001
,
0100
0010
0100
0001
1000
0100
0010
0001
1000
0010
0100
0010
1000
0001
0010
0001
,
0100
0010
0100
0001
1000
0010
0100
0001
1000
0100
0010
0001
0100
0010
1000
0001
,
0010
0001
0100
0010
0100
0001
1000
0010
1000
0100
0010
0001
0100
0010
1000
0001
,
0010
0100
1000
0001
0010
0001
0100
0010
1000
0100
0010
0001
0100
0001
1000
0010
,
0100
0001
0010
0100
1000
0001
0010
0001
0100
0010
1000
0001
0010
0100
1000
0001
,
0100
0001
0010
0100
1000
0010
0100
0001
1000
0010
1000
0100
0010
0001
0100
0010
,
1000
0001
0010
0001
0100
0010
1000
0001
0010
0001
1000
0100
1000
0010
0100
0001
,
1000
0100
0010
0001
0100
0010
0100
0001
1000
0100
0010
0001
1000
0010
0100
0010
,
1000
0001
0010
0001
0100
0010
0100
0001
1000
0010
0100
0001
1000
0100
0010
0001
,
0100
0010
1000
0001
0010
0001
0100
0010
0100
0001
1000
0010
1000
0100
0010
0001
,
0100
0010
1000
0001
0010
0100
1000
0001
0010
0001
0100
0010
1000
0100
0010
0001
,
0100
0001
1000
0010
0100
0001
0010
0100
1000
0001
0010
0001
0100
0010
1000
0001
,
0010
0100
1000
0001
0100
0001
0010
0100
1000
0010
0100
0001
1000
0010
1000
0100
,
0010
0001
0100
0010
1000
0001
0010
0001
0100
0010
1000
0001
0010
0001
1000
0100
,
1000
0010
0100
0001
1000
0100
0010
0001
0100
0010
0100
0001
1000
0100
0010
0001
,
1000
0010
0100
0010
1000
0001
0010
0001
0100
0010
0100
0001
1000
0010
0100
0001
,
1000
0100
0010
0001
0100
0010
1000
0001
0010
0001
0100
0010
0100
0001
1000
0010
,
1000
0100
0010
0001
0100
0010
1000
0001
0010
0100
1000
0001
0010
0001
0100
0010
,
1000
0100
0010
0001
0100
0001
1000
0010
0100
0001
0010
0100
1000
0001
0010
0001
,
0100
0010
1000
0001
0010
0100
1000
0001
0100
0001
0010
0100
1000
0010
0100
0001
,
1000
0010
1000
0100
0010
0001
0100
0010
1000
0001
0010
0001
0100
0010
1000
0001
,
0010
0001
1000
0100
1000
0010
0100
0001
1000
0100
0010
0001
0100
0010
0100
0001
,
1000
0100
0010
0001
1000
0010
0100
0010
1000
0001
0010
0001
0100
0010
0100
0001
,
1000
0010
0100
0001
1000
0100
0010
0001
0100
0010
1000
0001
0010
0001
0100
0010
,
0100
0001
1000
0010
1000
0100
0010
0001
0100
0010
1000
0001
0010
0100
1000
0001
,
0010
0001
0100
0010
1000
0100
0010
0001
0100
0001
1000
0010
0100
0001
0010
0100
,
1000
0001
0010
0001
0100
0010
1000
0001
0010
0100
1000
0001
0100
0001
0010
0100
,
1000
0010
0100
0001
1000
0010
1000
0100
0010
0001
0100
0010
1000
0001
0010
0001
,
0100
0010
1000
0001
0010
0001
1000
0100
1000
0010
0100
0001
1000
0100
0010
0001
,
0100
0010
0100
0001
1000
0100
0010
0001
1000
0010
0100
0010
1000
0001
0010
0001
,
0100
0010
0100
0001
1000
0010
0100
0001
1000
0100
0010
0001
0100
0010
1000
0001
,
0010
0001
0100
0010
0100
0001
1000
0010
1000
0100
0010
0001
0100
0010
1000
0001
,
0010
0100
1000
0001
0010
0001
0100
0010
1000
0100
0010
0001
0100
0001
1000
0010
,
0100
0001
0010
0100
1000
0001
0010
0001
0100
0010
1000
0001
0010
0100
1000
0001
,
0200
0000
0320
0000
,
2030
0000
3002
0000
,
0203
0000
0000
0000
0000
0020
0000
0300
2000
0000
0000
0000
0000
0000
0000
0000
,
3032
0000
0000
0000
0000
0200
0000
0003
0020
0000
0000
0000
0000
0000
0000
0000
,
2300
0000
0000
0032
3200
0000
0000
0000
,
2303
0000
0000
0020
3200
0000
0000
0000
,
0300
0000
0030
0000
2000
3000
2000
3000
,
2000
0000
0000
3010
0000
0000
0100
0000
0000
0001
1000
0001
1000
0000
0000
0010
0000
0000
0100
0000
0000
0010
0000
0000
,
1000
0000
0000
0001
0000
0000
0010
0000
0000
0100
1000
0100
2000
0000
0000
3000
0000
0000
2000
0000
0000
3000
0000
0000
,
2000
0000
0000
3100
0000
0000
0010
0000
0000
0001
0100
0001
0100
0000
0000
0010
0000
0000
1000
0000
0000
0100
0000
0000
,
0010
0001
2000
0000
3002
0003
0002
0003
,
0002
0000
0000
0103
0000
0000
0010
0000
0000
1000
0100
1000
0100
0000
0000
0010
0000
0000
0001
0000
0000
0100
0000
0000
,
0010
0000
0000
1000
0000
0000
0001
0000
0000
0010
0100
0010
0200
0000
0000
0300
0000
0000
0200
0000
0000
0300
0000
0000
,
0200
0000
0000
0310
0000
0000
1000
0000
0000
0001
0100
0001
0100
0000
0000
0010
0000
0000
1000
0000
0000
0100
0000
0000
,
0010
0001
2000
0000
3002
0003
0002
0003
,
0002
0000
0000
0103
0000
0000
0010
0000
0000
1000
0100
1000
0100
0000
0000
0010
0000
0000
0001
0000
0000
0100
0000
0000
,
0010
0000
0000
1000
0000
0000
0001
0000
0000
0010
0100
0010
0200
0000
0000
0300
0000
0000
0200
0000
0000
0300
0000
0000
,
0200
0000
0000
0310
0000
0000
1000
0000
0000
0001
0100
0001
0100
0000
0000
0010
0000
0000
1000
0000
0000
0100
0000
0000
,
0010
0001
0100
0010
2000
3000
2000
3000
,
2000
0000
0000
3010
0000
0000
0100
0000
0000
0001
1000
0001
1000
0000
0000
0010
0000
0000
0100
0000
0000
0010
0000
0000
,
1000
0000
0000
0001
0000
0000
0010
0000
0000
0100
1000
0100
2000
0000
0000
3000
0000
0000
2000
0000
0000
3000
0000
0000
,
2000
0000
0000
3100
0000
0000
0010
0000
0000
0001
0100
0001
0100
0000
0000
0010
0000
0000
1000
0000
0000
0100
0000
0000
,
0010
0000
0001
0000
1000
0010
0100
0000
0002
0000
0003
0000
0002
0000
0003
0000
,
0002
0000
0000
0103
0000
0000
0010
0000
0000
1000
0100
1000
0100
0000
0000
0010
0000
0000
0001
0000
0000
0100
0000
0000
,
0010
0000
0000
1000
0000
0000
0001
0000
0000
0010
0100
0010
0200
0000
0000
0300
0000
0000
0200
0000
0000
0300
0000
0000
,
0200
0000
0000
0310
0000
0000
1000
0000
0000
0001
0100
0001
0100
0000
0000
0010
0000
0000
1000
0000
0000
0100
0000
0000
,
0010
0001
0200
0000
0310
1000
0001
0100
,
0001
0000
0000
1000
0000
0000
0100
0000
0000
0010
0001
0010
0001
0000
0000
0100
0000
0000
0010
0000
0000
1000
0000
0000
,
0001
0000
0000
0010
0000
0000
0100
0000
0000
1000
0001
1000
0001
0000
0000
0010
0000
0000
0001
0000
0000
1000
0000
0000
,
0100
0010
0001
0100
0010
0100
0001
1000
,
0010
0000
0100
0000
0001
0000
1000
0000
0100
0010
0001
0100
0010
1000
0001
0100
,
0001
1000
0010
0100
0001
1000
0100
0010
0001
0100
0010
1000
0001
0010
0001
0100
,
0010
0000
0100
0000
0001
0000
1000
0000
0100
0000
0010
0000
0001
0000
1000
0000
0010
0100
0001
1000
0100
0010
0001
0100
0010
1000
0001
0100
0001
1000
0010
0100
,
0010
1000
0100
0010
0001
0100
0010
1000
0001
0010
0100
1000
0010
0100
0001
1000
0100
0010
0001
0010
0100
1000
0001
0100
0010
1000
0001
0100
0010
1000
0001
0100
,
0010
1000
0100
0010
0001
0010
0100
1000
0001
0100
0010
1000
0001
0100
0010
1000
0001
0000
0010
0000
0100
0000
1000
0000
0100
0000
0010
0000
0001
0000
0100
0000
,
0010
0000
0000
1000
0000
0000
0001
0000
0000
0100
0000
0000
0010
0000
0000
1000
0000
0000
0010
0000
0100
0000
0010
0000
0001
0000
0000
0010
0000
0000
1000
0000
0000
0010
0000
0000
0100
0000
0000
0001
0000
0000
0100
0000
0000
0010
0000
0000
,
1000
0000
0000
0100
0000
0000
0010
0000
0000
0001
0000
0000
0010
0000
0000
0100
0000
0000
1000
0000
0100
0000
0010
0000
0001
0000
0000
0100
0000
0000
0010
0000
0000
1000
0000
0000
0100
0000
0000
0010
0000
0000
0001
0000
0000
0010
0000
0000
,
0100
0000
0000
1000
0000
0000
0100
0000
0000
0010
0000
0000
0001
0000
0000
0100
0000
0000
0010
0000
1000
0000
0010
0000
0100
0000
0000
0001
0000
0000
0010
0000
0000
0100
0000
0000
1000
0000
0000
0100
0000
0000
0010
0000
0000
0001
0000
0000
,
0100
0010
1000
0100
0010
0001
0101
0000
1000
0100
1000
0100
0010
0001
0010
0001
,
0100
0000
0000
0010
0000
0000
0100
0000
0000
0010
0000
0000
1000
0000
0000
0001
0000
0000
0100
0000
0010
0000
1000
0000
0010
0000
0000
0100
0000
0000
0001
0000
0000
0100
0000
0000
0010
0000
0000
1000
0000
0000
0100
0000
0000
0010
0000
0000
,
0001
0010
0100
1000
0001
0100
0010
1000
0010
0100
0001
0010
0001
0100
0010
1000
,
0100
0010
0001
0100
0010
1000
0010
0100
0001
0100
0010
1000
0100
0010
0001
0100
,
0010
1000
0100
0010
0001
0010
0100
1000
0001
0100
0010
0100
0001
0010
0100
1000
,
0100
0010
0001
0100
0010
0100
0001
1000
0010
0100
0001
0100
0010
1000
0001
0100
,
0010
1000
0100
0010
0100
1000
0001
0100
0010
1000
0001
0010
0100
1000
0100
0010
,
0001
0100
0010
0100
0001
0010
0100
1000
0100
0010
0001
0100
0010
1000
0001
0100
,
0010
1000
0100
0010
0001
0010
0100
1000
0001
0100
0010
1000
0001
0100
0010
0100
,
0001
0100
0010
1000
0100
0010
0100
1000
0001
0100
0010
1000
0001
0100
0010
1000
,
0100
0010
0001
0010
0100
1000
0001
0100
0010
1000
0100
0010
0001
0100
0010
1000
,
0001
0010
0001
0010
0100
1000
0100
1000
0001
0100
0001
0100
0010
1000
0010
1000
,
0001
0100
0010
1000
0100
0010
0100
1000
0001
0100
0010
1000
0001
0010
0100
1000
,
0100
0010
0100
1000
0001
0100
0010
1000
0001
0100
0010
1000
0001
0010
0100
1000
,
0100
0010
0001
0100
0010
0100
0001
1000
0010
0100
0001
0010
0001
1000
0100
1000
,
0001
0100
0010
0100
0001
0010
0100
1000
0100
0010
0001
0100
0010
0100
0001
1000
,
0100
1000
0001
0100
0010
1000
0001
0100
0010
0100
0001
0010
0001
1000
0100
1000
,
0001
0100
0010
1000
0001
0010
0100
1000
0100
0010
0001
0100
0010
1000
0001
0010
,
0100
0000
0000
0000
0000
0000
0000
0000
0000
0000
0000
0000
1000
0000
0000
0001
0000
0000
1000
0000
0010
0000
0100
0000
0001
0000
0000
0100
0000
0000
0010
0000
0000
1000
0000
0000
0100
0000
0000
0010
0000
0000
0001
0000
0000
0100
0000
0000
,
0010
1000
0001
0100
0010
1000
0001
0100
0010
1000
0100
0010
0100
1000
0001
0100
,
0010
1000
0100
0010
0001
0000
0000
0000
1000
0100
1000
0100
0010
0001
0010
0001
,
0100
0010
0100
0010
1000
0010
1000
0010
0100
0001
0100
0001
1000
0100
1000
0001
,
1000
0100
1000
0001
1000
0010
0100
0010
1000
0010
0100
0010
1000
0001
0010
0001
,
1000
0001
0010
0100
1000
0001
0100
0010
1000
0100
0010
0100
1000
0001
0010
0100
,
1000
0100
0010
0001
0100
0010
1000
0100
0010
0001
0010
0100
1000
0001
0100
0010
,
0100
0001
1000
0010
0100
0001
0100
0010
1000
0100
0010
0100
1000
0001
0100
0010
,
1000
0100
0010
0100
1000
0001
0100
0010
0100
0001
1000
0100
0010
0001
0010
0100
,
1000
0001
0100
0010
1000
0100
0010
0001
0100
0010
1000
0100
0010
0001
0010
0100
,
1000
0001
0100
0010
1000
0100
0010
0000
0001
0000
0000
0001
0000
0000
0001
0000
,
0000
0000
0001
0000
0100
0000
0000
0000
0100
0000
0000
0010
0000
0000
0010
0000
,
0000
0000
1000
0000
0010
0000
0000
0000
0100
0000
0000
0100
0000
0000
0100
0000
,
0000
0000
0001
0000
0010
0000
0000
0000
0001
0000
0000
0001
0000
0000
0001
0000
,
0000
0000
0100
0000
0110
0000
0000
0000
0001
0000
0000
0010
1000
0000
0010
0000
,
0000
0000
0010
0000
0110
0000
0000
0000
0001
0000
0000
0001
0100
0000
0010
0000
,
0000
0000
1000
0000
1010
0000
0000
0000
0100
0000
0000
0100
0001
0000
0001
0000
,
0000
0000
0001
0000
0011
0000
0000
0000
0001
0000
0000
0001
0100
0000
0010
0000
,
0000
0000
1000
0000
1001
0000
0000
0000
0001
0000
0000
0101
0000
0000
0101
0000
,
0000
0000
0101
0000
0000
0000
0000
0000
1010
0000
0000
1010
0000
0000
1010
0000
,
0000
0000
1010
0000
0000
0000
0000
0000
1001
0000
0000
1001
0000
0000
1001
0000
,
0000
0000
1001
0000
0000
0000
0000
0000
0110
0000
0000
0110
0000
0000
0110
0000
,
0000
0000
0110
0000
0000
0000
0000
0000
1100
0000
0000
1100
0000
0000
1100
0000
,
0000
0000
1100
0000
0000
0000
0000
0000
0011
0000
0000
0011
0000
0000
0011
0000
,
0000
0000
0011
0000
0000
0000
0000
0000
0101
0000
0000
0101
0000
0000
0101
0000
,
0000
0000
0101
0000
0000
0000
0000
0000
1001
0000
0000
1001
0000
0000
1001
0000
,
0000
1001
0000
0000
2000
0000
0000
0000
,
3200
0000
0000
0000
0000
0000
0000
0300
0020
0000
0000
0000
0000
0000
0000
0000
,
0032
0000
0000
0003
2000
0000
0000
0000
,
3020
0000
0000
0000
0000
0000
0000
0030
0200
0000
0000
0000
0000
0000
0000
0000
,
0302
0000
0000
0000
0000
0000
0003
0000
2000
0000
0000
3020
0000
0000
0230
0000
,
0000
0000
0000
0000
0000
0000
0000
0000
0000
0000
0000
0000
0300
0000
0000
0000
0002
0000
0000
0000
2003
0000
0000
0000
0000
3200
0000
0000
0000
0000
0000
0000
,
0000
0000
0000
0000
0300
0000
0000
0000
2000
0000
0000
3002
0000
0000
0023
0000
,
0000
0000
0000
0000
0000
0000
0000
0000
0000
0000
0000
0000
0030
0000
0000
0000
0002
0000
0000
0000
2003
0000
0000
0000
0000
3200
0000
0000
0000
0000
0000
0000
,
0000
0000
0000
0000
0300
0000
0000
0000
0000
0000
0000
0000
2002
3003
0000
0000
;

//---------------dance-single - ----------------
#NOTES:
     dance-single:
     :
     Medium:
     9:
     0.476,1.000,0.054,0.190,0.083,973.000,17.000,60.000,0.000,0.000:
0000
0000
0000
0000
,
0000
0000
0000
0000
,
0000
0000
0000
0000
,
0000
0000
0000
0000
,
1000
0000
0000
0000
,
0001
0000
0000
0000
,
0100
0000
0000
0000
,
0010
0000
0000
0000
,
1000
0100
1000
0100
,
1000
0100
0010
0100
,
1000
0001
0100
0010
,
1000
0010
0100
0010
,
1000
0001
0010
0100
,
1000
0010
0100
0001
,
0010
0100
1000
0001
,
0100
0010
1000
0010
,
0100
0100
0001
0001
,
0010
0010
0100
0100
,
1000
1000
0001
0001
,
0100
0100
0010
0010
,
1000
0001
1000
0001
,
0100
0010
0100
0010
,
1000
0100
1000
0100
,
0010
0001
0010
0001
,
0100
0100
0010
0010
,
1000
1000
0001
0001
,
0100
0100
0010
0010
,
1000
0001
0100
0010
,
1000
0010
1000
0010
,
0100
0001
0100
0001
,
0010
0001
0100
0001
,
1000
0010
0100
0010
,
1000
1000
0001
0001
,
0100
0100
0010
0010
,
1000
0001
0010
0100
,
1000
0001
0100
0010
,
1000
0001
1000
0001
,
1000
0100
1000
0100
,
0010
0001
0010
0001
,
0010
0001
0100
0001
,
1000
0010
0100
0010
,
1000
0010
0100
0001
,
0010
0100
1000
0100
,
0010
0000
0001
0000
0100
0010
0100
0000
,
0001
0010
0100
0010
,
1000
0010
0100
0001
,
0010
0001
0100
0010
,
1000
0000
0010
0000
0100
0000
0001
0010
,
0100
0100
1000
0100
,
0010
0100
1000
0100
,
0010
0001
0100
0010
,
1000
0000
0010
0000
0100
0010
0100
0010
,
0100
0001
0100
0010
,
1000
0010
0100
0001
,
0010
0100
1000
0100
,
0010
0000
0100
0000
1000
0000
0001
1000
,
0001
1000
0100
0010
0001
0010
0100
1000
,
0001
0100
0001
0100
0010
1000
0010
1000
,
0001
0100
0010
1000
0001
0010
0001
0100
,
0010
1000
0100
0010
0100
1000
0001
0100
,
0010
1000
0001
0010
0100
0010
0001
1000
,
0010
0100
0001
0010
0001
0100
0010
1000
,
0001
0010
0100
1000
0100
0010
0001
0100
,
0010
1000
0100
0010
0001
0100
0010
0100
,
0001
0100
0001
0100
,
0010
1000
0010
0100
,
0001
0010
0100
1000
,
0100
0010
0001
0100
,
0010
1000
0100
0010
,
0100
1000
0001
0100
,
0010
1000
0100
0001
,
0100
1000
0010
0001
,
0010
1000
0100
0001
,
0100
1000
0001
0100
,
0010
1000
0100
0010
,
0001
0100
1000
0001
,
1000
0010
0100
0001
,
0100
0010
1000
0100
,
0010
0100
1000
0100
,
0010
0000
0001
0000
0100
0000
0010
0100
,
1000
0001
0100
0010
,
1000
0100
0010
0001
,
0100
0010
1000
0100
,
0010
0001
0100
0010
,
1000
0001
0100
0001
,
0100
0010
1000
0100
,
0010
0100
1000
0001
,
0100
0000
0010
0000
1000
0000
0100
0001
,
0100
1000
0001
0100
,
0010
1000
0100
0010
,
0001
0010
0100
1000
,
0001
0100
0010
0100
,
0001
0100
0010
1000
,
0100
0010
0100
1000
,
0001
0100
0010
1000
,
0100
0000
0010
0000
0001
0100
0001
0100
,
0010
1000
0100
0010
,
0001
0010
0100
1000
,
0001
0010
0001
0100
,
0010
0100
0001
1000
,
0010
0100
0001
0010
,
0001
0100
0010
1000
,
0100
0010
0001
0100
,
0010
0000
1000
0000
0001
0000
0001
0100
,
0200
0000
0320
0000
,
2030
0000
3002
0000
,
0203
0000
0000
0000
0300
0020
0000
0000
2000
0000
0000
0000
3030
0000
0000
0000
,
0002
0000
0000
0000
0003
0200
0000
0000
0320
0000
0000
0000
0000
0000
0000
0000
,
2030
0000
3000
0020
0200
0000
0030
0000
,
2300
0000
0000
3020
0200
0000
0000
0000
,
0300
0000
0030
0000
2000
3000
2000
3000
,
2000
3010
0100
0001
1000
0010
0100
0010
,
1000
0001
0010
0100
2000
3000
2000
3000
,
2000
3100
0010
0001
0100
0010
1000
0100
,
0010
0001
2000
0000
3002
0003
0002
0003
,
0002
0103
0010
1000
0100
0010
0001
0100
,
0010
1000
0001
0010
0200
0300
0200
0300
,
0200
0310
1000
0001
0100
0010
1000
0100
,
0010
0001
2000
0000
3002
0003
0002
0003
,
0002
0103
0010
0100
0001
0010
0001
0100
,
0010
1000
0001
0010
0200
0300
0200
0300
,
0200
0310
1000
0001
0100
0010
1000
0100
,
0010
0001
0100
0010
2000
3000
2000
3000
,
2000
3010
0100
0001
1000
0010
0100
0010
,
1000
0001
0010
0100
2000
3000
2000
3000
,
2000
3100
0010
0001
0100
0010
1000
0100
,
0010
0000
0001
0000
1000
0010
0100
0000
0002
0000
0003
0000
0002
0000
0003
0000
,
0002
0103
0010
1000
0100
0010
0001
0100
,
0010
1000
0001
0010
0200
0300
0200
0300
,
0200
0310
1000
0001
0000
0010
1000
0100
,
0010
0001
0200
0000
0310
1000
0001
0100
,
0001
1000
0100
0010
0001
0100
0010
1000
,
0001
0010
0100
1000
0001
0010
0001
1000
,
0100
0010
0001
0100
0010
0100
0001
1000
,
0010
0000
0100
0000
0001
0000
1000
0000
0100
0010
0001
0100
0010
1000
0001
0100
,
0001
1000
0010
0100
0001
1000
0100
0010
0001
0100
0010
1000
0001
0010
0001
0100
,
0010
0100
0001
1000
0100
0010
0001
1000
0001
0010
0001
0010
0100
1000
0100
1000
,
0010
0100
0010
0100
0001
0010
0001
0010
0100
1000
0100
1000
0001
0100
0001
0100
,
0010
1000
0010
0100
0001
0100
0010
1000
0001
0000
0100
0000
0001
0000
0100
0000
,
0010
1000
0010
1000
0001
0100
0001
0100
,
0001
0010
0001
0100
0010
1000
0010
0100
,
0001
0010
0100
1000
0100
0010
0100
0010
,
0001
0100
0010
1000
0010
0100
0001
0010
,
0100
1000
0010
0100
0010
1000
0001
0010
,
0100
1000
0010
0100
0010
0000
1010
0000
,
0001
0100
0001
0010
0001
0100
0000
0100
,
0000
0100
0010
1000
1010
0000
0101
0000
,
0001
0010
0001
0100
0010
0010
0000
0000
,
0010
1000
0010
0100
0001
0000
0001
0000
,
1000
0010
0100
0001
0010
0000
0010
0000
,
0100
1000
0100
0010
0011
0000
0101
0000
,
0010
1000
0010
0100
0100
0001
0000
0010
,
0100
1000
0100
0010
0110
0000
1001
0000
,
0010
0100
0010
1000
1010
0000
0101
0000
,
0001
0010
0001
1000
0001
0001
0010
0010
,
0100
0100
1000
0001
0001
0100
0100
0010
,
1000
0010
0100
0001
0010
0010
0100
0100
,
1000
1000
0001
0001
0100
0100
0010
0010
,
1000
1000
0001
0100
0010
0000
0110
0000
,
1000
0010
0100
0010
1010
0000
0001
0000
,
0010
0100
1000
0100
1100
0000
0100
0000
,
0010
0100
0010
0100
0110
0000
0001
1000
,
0010
0100
0010
0100
0000
0000
1001
0000
,
1000
0100
1000
0100
1000
0001
0100
0010
,
0100
0100
0100
0000
0010
1000
0010
0100
,
0001
0010
0100
1000
0000
1000
0000
1000
,
0001
0100
0010
1000
0010
0000
0010
0000
,
0100
0001
0010
0010
0010
0001
0000
0100
,
0010
1000
0010
0100
0001
0001
0010
0010
,
0100
1000
0001
0100
0000
0100
0000
0010
,
1000
0000
0000
0000
0000
0000
0000
0000
1000
0000
0000
1000
0000
0000
1000
0000
,
0000
0000
1000
0000
0000
0000
0000
0000
0010
0000
0000
0010
0000
0000
0010
0000
,
0000
0000
0010
0000
0000
0000
0000
0000
0100
0000
0000
0001
0000
0000
0100
0000
,
0000
0000
0010
0000
0000
0000
0000
0000
1000
0000
0000
0001
0000
0000
1000
0000
,
0000
0000
0010
0000
0000
0000
0000
0000
0100
0000
0000
0001
0000
0000
0100
0000
,
0000
0000
0010
0000
0000
0000
0000
0000
1000
0000
0000
0001
0000
0000
1000
0000
,
0000
0000
0010
0000
0000
0000
0000
0000
0100
0000
0000
0001
0000
0000
0100
0000
,
0000
0000
0010
0000
0000
0000
0000
0000
1000
0000
0000
0001
0000
0000
1000
0000
,
0000
0000
0010
0000
0000
0000
0000
0000
0100
0000
0000
0001
0000
0000
0100
0000
,
0000
0000
0100
0010
0000
0000
0000
0000
0010
0000
0000
1000
0000
0000
0010
0000
,
0000
0000
1010
0000
0000
0000
0000
0000
0100
0000
0000
0001
0000
0000
0010
0000
,
0000
0000
0011
0000
0000
0000
0000
0000
0100
0000
0000
0100
0000
0000
0100
0000
,
0000
0000
0100
0000
0000
0000
0000
0000
0010
0000
0000
0010
0000
0000
0010
0000
,
0000
0000
0010
0000
0000
0000
0000
0000
1000
0000
0000
1000
0000
0000
1000
0000
,
0000
0000
1000
0000
0000
0000
0000
0000
0010
0000
0000
0010
0000
0000
0010
0000
,
0000
0000
0010
0000
0000
0000
0000
0000
0100
0000
0000
0100
0000
0000
0100
0000
,
0000
0001
0000
0000
2000
0000
0000
0000
,
0020
3000
0000
0000
0000
0000
0000
0000
0230
0000
0000
0000
0000
0000
0000
0000
,
0302
0000
0023
0000
,
0230
0000
2300
0000
,
3020
0000
0130
0000
,
0000
0000
0020
0000
,
0030
0000
2000
0000
,
3000
0000
0020
0000
,
0030
0000
0000
0110
;

//---------------dance-single - ----------------
#NOTES:
     dance-single:
     :
     Easy:
     5:
     0.211,0.464,0.041,0.086,0.000,422.000,13.000,27.000,0.000,0.000:
0000
0000
0000
0000
,
0000
0000
0000
0000
,
0000
0000
0000
0000
,
0000
0000
0000
0000
,
1000
0000
0000
0000
,
0001
0000
0000
0000
,
0100
0000
0000
0000
,
0010
0000
0000
0000
,
1000
0000
0010
0000
,
0100
0000
0001
0000
,
0100
0000
0010
0000
,
1000
0000
0100
0000
,
0010
0000
0001
0000
,
0100
0000
0010
0000
,
1000
0000
0100
0000
,
0010
0000
0001
0000
,
0100
0000
0010
0000
,
1000
0000
0100
0000
,
0010
0000
0001
0000
,
0100
0000
0010
0000
,
1000
0000
0001
0000
,
0100
0000
0010
0000
,
1000
0000
0001
0000
,
0100
0000
0010
0000
,
1000
0000
0100
0000
,
0010
0000
0001
0000
,
0100
0000
1000
0000
,
0100
0000
0001
0000
,
0010
0000
1000
0000
,
0010
0000
0001
0000
,
0100
0000
0010
0000
,
1000
0000
0100
0000
,
0010
0000
0001
0000
,
0100
0000
0000
0000
,
0010
0000
0000
0000
,
1000
0000
0000
0000
,
0001
0000
0000
0000
,
0100
0000
0000
0000
,
0010
0000
0000
0000
,
1000
0000
0000
0000
,
0100
0000
0000
0000
,
0010
0000
0000
0000
,
0001
0000
0000
0000
,
0100
0000
0000
0000
,
1000
0000
0000
0000
,
0001
0000
0000
0000
,
0100
0000
0000
0000
,
1000
0000
0000
0000
,
0100
0000
0000
0000
,
0010
0000
0000
0000
,
0001
0000
0000
0000
,
0100
0000
0000
0000
,
1000
0000
0000
0000
,
0100
0000
0000
0000
,
0001
0000
0000
0000
,
0100
0000
0000
0000
,
1000
0000
0000
0000
,
0010
0000
0000
0000
,
0100
0000
0000
0000
,
0001
0000
0000
0000
,
0100
0000
0000
0000
,
0010
0000
0000
0000
,
1000
0000
0000
0000
,
0100
0000
0000
0000
,
0010
0000
0000
0000
,
0001
0000
0000
0000
,
0100
0000
0000
0000
,
1000
0000
0000
0000
,
0001
0000
0000
0000
,
0100
0000
0000
0000
,
1000
0000
0000
0000
,
0100
0000
0000
0000
,
0001
0000
0000
0000
,
0100
0000
0000
0000
,
1000
0000
0000
0000
,
0010
0000
0000
0000
,
0001
0000
0000
0000
,
1000
0000
0000
0000
,
0010
0000
0000
0000
,
1000
0000
0000
0000
,
0001
0000
0000
0000
,
1000
0000
0000
0000
,
0001
0000
0000
0000
,
0100
0000
0000
0000
,
0010
0000
0000
0000
,
0100
0000
0000
0000
,
0010
0000
0000
0000
,
1000
0000
0000
0000
,
0100
0000
0000
0000
,
0010
0000
0000
0000
,
1000
0000
0000
0000
,
0100
0000
0000
0000
,
0010
0000
0000
0000
,
0001
0000
0000
0000
,
0100
0000
0000
0000
,
0010
0000
0000
0000
,
1000
0000
0000
0000
,
0001
0000
0000
0000
,
0100
0000
0000
0000
,
0010
0100
0001
1000
,
0010
0100
0001
0010
,
0001
0100
0010
1000
,
0100
0010
0001
0100
,
0010
1000
0001
0001
,
0200
0000
0320
0000
,
2030
0000
3002
0000
,
0203
0300
2000
3000
,
0002
0003
0020
0000
,
2030
3000
0200
0000
,
2300
0000
3200
0000
,
0300
0000
1000
1000
,
0010
0100
0001
0010
,
0100
1000
0001
0100
,
0010
1000
0100
0010
,
0001
0100
0010
0010
,
0010
1000
0001
0100
,
0010
0000
1000
0001
1000
0000
0010
0000
,
0100
0001
0010
0000
,
0100
1000
1001
1001
,
1001
0010
1100
0101
,
1100
0010
1000
0001
,
0100
0010
1000
0001
,
0100
0010
1100
0101
,
1100
0010
0100
0001
,
0010
0100
1000
1000
,
0001
0000
0100
0100
,
0010
0000
1000
1000
,
1000
0000
0010
0010
,
0010
0000
0100
0100
,
0100
0000
0001
0001
,
0001
0000
0100
0100
,
0100
0000
0010
0010
,
0010
0000
0000
0000
1000
0001
1000
0000
,
0100
0100
0010
1000
,
0001
0000
1000
0000
0001
1000
0001
1000
,
0001
1000
0001
1000
0001
1000
0001
1000
,
0001
1000
0001
1000
0002
0000
0203
0000
,
0320
2030
3040
0430
,
0304
0403
0301
0100
,
0010
1000
0010
0100
,
0001
0010
0100
1000
,
0001
0100
0010
1000
,
0100
0100
0100
0000
0010
0000
0001
0000
,
0100
0010
1000
0100
,
0001
0100
1000
0010
,
0001
0100
0010
1000
,
0001
0100
0010
0010
,
0010
1000
0001
0100
,
0010
1000
1000
0100
,
0010
0001
0100
0010
,
1000
0001
0100
0100
,
0010
0010
1000
1000
,
0001
0001
0100
0100
,
0010
0010
1000
1000
,
0010
0010
0100
0100
,
0100
0000
0010
0010
,
1000
0000
0001
1000
,
0001
0000
0100
0100
,
0100
0000
0010
0010
,
0010
0000
1000
0001
,
0100
0000
0010
0010
,
0010
0000
1000
0001
,
0100
0000
0010
1000
,
0010
0010
0100
0100
,
0001
0010
0010
0100
,
1000
0001
0100
0010
,
1000
0001
0010
0010
,
0010
0000
0100
0100
,
0100
0000
1000
0001
,
0100
0000
0010
0000
,
1000
0000
1000
0000
,
0000
1000
0000
0000
0010
0000
0000
0000
,
0000
0010
0000
0000
0100
0000
0000
0000
,
0000
0010
0000
0000
1000
0000
0000
0000
,
0000
0010
0000
0000
0100
0000
0000
0000
,
0000
0010
0000
0000
1000
0000
0000
0000
,
0000
0010
0000
0000
0100
0000
0000
0000
,
0000
0010
0000
0000
1000
0000
0000
0000
,
0000
0010
0000
0000
0100
0000
0000
0000
,
0000
0100
0000
0000
0010
0000
0000
0000
,
0000
1010
0000
0000
0100
0000
0000
0000
,
0000
0011
0000
0000
0100
0000
0000
0000
,
0000
0100
0000
0000
0010
0000
0000
0000
,
0000
0010
0000
0000
1000
0000
0000
0000
,
0000
1000
0000
0000
0010
0000
0000
0000
,
0000
0010
0000
0000
0100
0000
0000
0000
,
0000
0001
0000
0000
2000
0000
0000
0000
,
0020
3000
0000
0000
0000
0000
0000
0000
0230
0000
0000
0000
0000
0000
0000
0000
,
0302
0000
0023
0000
,
0230
0000
2300
0000
,
3020
0000
0130
0000
,
0000
0000
0020
0000
,
0030
0000
2000
0000
,
3000
0000
0020
0000
,
0030
0000
0000
0110
;

//---------------dance-single - ----------------
#NOTES:
     dance-single:
     :
     Beginner:
     4:
     0.151,0.216,0.025,0.000,0.000,325.000,8.000,0.000,0.000,0.000:

0000
0000
0000
0000
,
0000
0000
0000
0000
,
0000
0000
0000
0000
,
0000
0000
0000
0000
,
0000
0000
0000
0000
,
0000
0000
0000
0000
,
0000
0000
0000
0000
,
0000
0000
0000
0000
,
0000
0000
0000
0000
,
0000
0000
0000
0000
,
0001
0000
0000
0000
,
0100
0000
0000
0000
,
0010
0000
0000
0000
,
1000
0000
0000
0000
,
0100
0000
0000
0000
,
0010
0000
0000
0000
,
0001
0000
0000
0000
,
0100
0000
0000
0000
,
0010
0000
0000
0000
,
1000
0000
0000
0000
,
0001
0000
0000
0000
,
0100
0000
0000
0000
,
0010
0000
0000
0000
,
1000
0000
0000
0000
,
0001
0000
0000
0000
,
1000
0000
0000
0000
,
1000
0000
1000
0000
,
1000
0000
0010
0000
,
0010
0000
0100
0000
,
0100
0000
0001
0000
,
0001
0000
0100
0000
,
0100
0000
0010
0000
,
0010
0000
1000
0000
,
0001
0000
0100
0000
,
0010
0000
1000
0000
,
0001
0000
0010
0000
,
0100
0100
0100
0000
,
0010
0010
0010
0000
,
0100
0100
0100
0000
,
0001
0001
0001
0000
,
1000
0000
1000
0000
,
1000
0000
0100
0000
,
0010
0000
0100
0000
,
0001
0000
0010
0000
,
0100
0000
0100
0000
,
1000
0000
0010
0000
,
0100
0000
0001
0000
,
0010
0000
0100
0000
,
1000
0000
1000
0000
,
0010
0000
0100
0000
,
0001
0000
0010
0000
,
0100
0000
0010
0000
,
0110
0000
0001
0000
,
1000
0000
0001
0000
,
0100
0000
0010
0000
,
0100
0000
0001
0000
,
1001
0000
0001
0000
,
0001
0000
0001
0000
,
1001
0000
1000
0000
,
1000
0000
1000
0000
,
1001
0000
0000
0000
,
0110
0000
0000
0000
,
1001
0000
0000
0000
,
1001
0000
0000
0000
,
1000
0000
1000
0000
,
1000
0000
0010
0000
,
0010
0000
0100
0000
,
0100
0000
0001
0000
,
0100
0000
0010
0000
,
1000
0000
0001
0000
,
0100
0000
0010
0000
,
1000
0000
0001
0000
,
0100
0000
0100
0000
,
0010
0000
0010
0000
,
0100
0000
0100
0000
,
0010
0000
0010
0000
,
0100
0000
0100
0000
,
1000
0000
0100
0000
,
0010
0000
0001
0000
,
0100
0000
0010
0000
,
1000
0000
1000
0000
,
0001
0000
0001
0000
,
0100
0000
0100
0000
,
0010
0000
0010
0000
,
1000
0000
1000
0000
,
0001
0000
0001
0000
,
0100
0000
0100
0000
,
0010
0000
0010
0000
,
0100
0000
0100
0000
,
0010
0000
0010
0000
,
1000
0000
1000
0000
,
0100
0000
0100
0000
,
0010
0000
0010
0000
,
0100
0000
0100
0000
,
0001
0000
0001
0000
,
1000
0000
1000
0000
,
1000
0000
0000
0000
,
1000
0000
0000
0000
,
0010
0000
0000
0000
,
0100
0000
0000
0000
,
0001
0000
0000
0000
,
0010
0000
0000
0000
,
0100
0000
0000
0000
,
0010
0000
0000
0000
,
1000
0000
0010
0000
,
0100
0000
0001
0000
,
0100
0000
0010
0000
,
1000
0000
0001
0000
,
1000
0000
0010
0000
,
0100
0000
0010
0000
,
1000
0000
0001
0001
,
0001
0000
0100
0000
,
0000
0000
0010
0010
,
0010
0000
0100
0000
,
0000
0000
1000
1000
,
1000
0000
0010
0000
,
0000
0000
0100
0100
,
0000
0000
0010
0000
,
0000
0000
1000
1000
,
1000
0000
0010
0000
,
0000
0000
0100
0100
,
0100
0000
0001
0000
,
0000
0000
0100
0100
,
0100
0000
0010
0000
,
0000
0000
0100
0100
,
0100
0000
0010
0000
,
0000
0000
1000
1000
,
1000
0000
0010
0000
,
0100
0000
0010
0010
,
0010
0000
0100
0000
,
0000
0000
1000
1000
,
1000
0000
0010
0000
,
0100
0000
0001
0001
,
0001
0000
0010
0000
,
0100
0000
1000
1000
,
1000
0000
0010
0000
,
0100
0000
0001
0000
,
1000
0000
0010
0000
,
0100
0000
0001
0001
,
0001
0000
0100
0000
,
0010
0000
1000
0000
,
1000
0000
0010
0000
,
0100
0000
0001
0000
,
0001
0000
0010
0000
,
0100
0000
0010
0000
,
0100
0000
1000
0000
,
0010
0000
0100
0000
,
0100
0000
0010
0000
,
0100
0000
0010
0000
,
1000
0000
0001
0000
,
0100
0000
0010
0000
,
0010
0000
1000
0000
,
0001
0000
0100
0000
,
0010
0000
0100
0000
,
0010
0000
0010
0000
,
0010
0000
0100
0000
,
0100
0000
0010
0000
,
0100
0000
0010
0000
,
1000
0000
0001
0000
,
1000
0000
0010
0000
,
0100
0000
0001
0000
,
0010
0000
0100
0000
,
1000
0000
0010
0000
,
0100
0000
0001
0000
,
0100
0000
0010
0000
,
0100
0000
0010
0000
,
0100
0000
1000
0000
,
0100
0000
0010
0000
,
0100
0000
0001
0000
,
1000
0000
0100
0000
,
0010
0000
0100
0000
,
0000
0000
0010
0000
,
0000
0000
0100
0000
,
0000
0000
0001
0000
,
0000
0000
0100
0000
,
0000
0000
0010
0000
,
0000
0000
0000
0000
,
0000
0000
0100
0000
,
0000
0000
0010
0000
,
0000
0000
1000
0000
,
0000
0000
0001
0000
,
0000
0000
0100
0000
,
0000
0000
0010
0000
,
0000
0000
1000
0000
,
0000
0000
0100
0000
,
0000
0000
0010
0000
,
0000
0000
0001
0000
,
0100
0000
0010
0000
,
1000
0000
0100
0000
,
0010
0000
0001
0000
,
0100
0000
0000
0000
,
0000
0000
0000
0000
,
0000
0000
0000
0000
,
0000
0000
0000
0000
,
0000
0000
0000
1001
;
