#TITLE:Engage;
#SUBTITLE:;
#ARTIST:Kozato Yuzuki;
#TITLETRANSLIT:;
#SUBTITLETRANSLIT:;
#ARTISTTRANSLIT:;
#CREDIT:;
#BANNER:../Zeppelin_bn.png;
#BACKGROUND:../bg_Zeppelin.png;
#LYRICSPATH:;
#CDTITLE:../cdtitle_ZAiA.png;
#MUSIC:Kozato Yuzuki - Engage.ogg;
#OFFSET:-0.054;
#SAMPLESTART:72.760;
#SAMPLELENGTH:23.380;
#SELECTABLE:YES;
#BPMS:0.000=165.000;
#STOPS:;
#BGCHANGES:;
// cache tags:
#FIRSTBEAT:4.000;
#LASTBEAT:524.000;
#SONGFILENAME:Songs/Cirque du Zeppelin/Engage - [Zaia]/Engage.sm;
#HASMUSIC:1;
#HASBANNER:1;
#MUSICLENGTH:196.310;
// end cache tags

//---------------dance-single - 8-16/24/56----------------
#NOTES:
     dance-single:
     8-16/24/56:
     Challenge:
     15:
     1.000,1.000,0.005,0.362,1.000,1820.000,1.000,71.000,0.000,0.000:
0000
0000
0000
0000
,
2000
3020
0230
0302
0023
0032
2003
3020
,
0130
0001
1000
0001
0010
0100
1000
0001
0100
0010
0100
0001
1000
0100
1000
0001
,
0100
0010
1000
0001
0010
0100
0010
0001
1000
0001
0100
0010
1000
0001
0010
0001
,
1000
0100
1000
0001
0100
0010
1000
0001
1000
0100
0010
0100
1000
0001
0100
0001
,
1000
0001
0010
0100
0010
0001
1000
0010
0100
0001
0100
0010
1000
0001
1000
0010
,
1000
0100
1000
0001
0100
0010
1000
0001
0010
0100
0010
0001
1000
0010
1000
0001
,
0010
0100
1000
0001
0100
0010
0100
0001
1000
0001
0010
0100
1000
0001
0100
0001
,
1000
0010
1000
0001
0010
0100
1000
0001
1000
0010
0100
0010
1000
0001
0010
0001
,
1000
0001
0100
0001
0010
0100
1000
0010
1000
0001
0010
0000
0000
0000
0000
0000
,
0100
1000
0001
0100
0010
1000
0100
1000
0001
0010
0001
0010
0100
1000
0001
0100
,
0001
0010
0100
1000
0001
0100
0010
1000
0100
1000
0100
0010
0001
1000
0010
0100
,
0001
0010
0001
1000
0100
1000
0010
0100
0001
1000
0001
0100
0001
1000
0100
0010
,
0001
1000
0010
1000
0001
0100
0001
1000
0100
0010
0100
1000
0001
1000
0010
1000
,
0100
0010
0100
1000
0001
0100
0001
0010
0001
1000
0010
0100
0001
1000
0100
1000
,
0010
0100
0001
1000
0010
1000
0100
0010
0001
1000
0001
0100
0010
1000
0001
0010
,
0001
0100
0001
1000
0100
1000
0010
0100
0001
1000
0001
0010
0100
1000
0001
0100
,
0010
1000
0100
0010
0100
1000
0001
0010
0100
1000
0001
1000
0001
0100
0010
0100
,
0001
0010
0001
1000
0100
0010
0001
0100
0001
1000
0010
1000
0010
0100
0001
1000
,
0100
1000
0010
0100
0001
1000
0100
0010
0001
0100
0001
0100
0010
1000
0001
0010
,
0100
1000
0010
1000
0001
0100
0001
0010
0100
1000
0001
1000
0100
1000
0001
0100
,
0010
1000
0001
0010
0001
1000
0100
1000
0001
0100
0010
0100
0001
1000
0001
0010
,
0001
0100
0010
0100
0001
1000
0100
1000
0010
1000
0001
0010
0100
1000
0001
0100
,
0001
0010
0100
1000
0001
0010
0001
0100
0010
1000
0001
1000
0100
0010
0001
1000
,
0010
1000
0100
1000
0001
0100
0001
0010
0100
1000
0001
1000
0010
0100
0001
1000
,
0100
0010
0001
0100
0010
0100
0001
1000
0010
0100
0001
1000
0001
1000
0100
0010
,
0001
1000
0001
0010
0200
2300
3020
0230
,
0302
1003
0001
1000
0020
0130
0002
0013
,
0200
1300
0001
0200
0310
1000
0200
1300
,
0002
0013
0001
1000
0200
1300
0010
0100
,
0200
0301
1000
0100
0020
0130
1000
0001
,
0200
0310
2000
3100
2000
3010
0200
0301
,
0020
0130
1000
0002
0103
0010
0200
0301
,
2000
3100
0010
0001
2000
3010
0100
0001
,
1001
1000
0001
0010
0200
2300
3020
0230
,
0302
1003
0001
1000
0200
0310
0002
0103
,
0020
1030
0001
0020
0130
1000
0020
1030
,
0002
0103
0001
1000
0020
1030
0001
0010
,
0020
0031
1000
0010
0200
0310
1000
0001
,
0020
0130
2000
3010
2000
3100
0020
0031
,
0200
0310
1000
0002
0013
0100
0020
0031
,
2000
3010
0100
0001
2000
3100
0010
0001
,
1000
0001
0010
0100
1000
0001
1000
0001
0100
0010
1000
0100
1000
0001
0010
0001
,
1000
0001
0100
0010
1000
0010
0100
0001
1000
0100
1000
0001
1000
0010
0100
0010
,
1000
0100
1000
0001
0010
0100
1000
0010
0100
0001
1000
0001
0010
0100
0010
0001
,
1000
0010
1000
0010
0100
0001
1000
0001
0010
0100
1000
0010
1000
0001
0100
0001
,
0010
0100
0010
0100
1000
0001
1000
0100
0010
0001
0100
0010
0100
0001
1000
0010
,
1000
0100
1000
0001
0100
0001
1000
0100
0010
0001
1000
0001
0100
0010
0100
0001
,
0010
0001
1000
0010
0100
0001
1000
0001
0010
0100
1000
0001
1000
0010
0100
0001
,
0100
0010
1000
0001
1000
0100
0010
0100
1000
0001
1000
0001
0100
0010
1000
0001
,
0010
0001
1000
0010
1000
0100
0010
0100
1000
0010
0100
0001
0010
0001
1000
0001
,
0100
0010
1000
0001
1000
0100
0010
0001
0100
0001
1000
0010
1000
0100
1000
0010
,
0100
0001
1000
0001
1000
0100
0010
0100
1000
0001
0100
0010
1000
0001
0010
0100
,
1000
0001
1000
0001
0100
0001
1000
0100
0010
0001
1000
0010
0100
0001
1000
0100
,
1000
0010
0100
0001
0010
0100
1000
0001
1000
0010
0100
0001
1000
0100
0010
0100
,
1000
0001
0010
0001
1000
0001
0100
0010
1000
0100
1000
0001
0100
0010
1000
0001
,
0100
0001
0010
0100
1000
0001
1000
0010
0100
0001
1000
0100
1000
0001
0100
0001
,
1000
0100
0010
0001
0010
0100
1000
0010
0100
0001
1000
0001
1000
0100
0010
0100
,
1000
0001
1000
0100
1000
0010
0100
0010
1000
0100
0010
0001
0100
0001
1000
0001
,
0010
0100
1000
0001
1000
0010
0100
0001
0010
0001
1000
0100
1000
0010
1000
0100
,
0010
0001
1000
0001
1000
0010
0100
0010
1000
0001
0010
0100
1000
0001
0100
0010
,
1000
0001
1000
0001
0010
0001
1000
0010
0100
0001
1000
0100
0010
0001
1000
0010
,
1000
0100
0010
0001
0100
0010
1000
0001
1000
0100
0010
0001
1000
0010
0100
0010
,
1000
0001
0100
0001
1000
0001
0010
0100
1000
0010
1000
0001
0010
0100
1000
0001
,
0010
0001
0100
0010
1000
0001
1000
0100
0010
0001
1000
0010
1000
0001
0010
0001
,
1000
0010
0100
0001
0100
0010
1000
0100
0010
0001
1000
0001
1000
0010
0100
0010
,
2000
0000
0000
3002
0003
0000
0000
0000
,
0020
0000
0000
0230
0300
0000
0000
0000
,
2000
0000
0000
3020
0030
0000
0200
0000
,
0302
0003
0020
0030
,
0020
0000
0000
0032
0003
0000
0000
0000
,
2000
0000
0000
3200
0300
0000
0000
0000
,
0020
0000
0000
0032
0003
0000
2000
0000
,
3010
0100
0001
0100
0010
1000
0001
1000
,
0001
0100
0010
1000
0001
0100
0001
0100
0010
1000
0001
0010
0100
1000
0001
1000
,
0100
1000
0010
0100
0001
1000
0001
0010
0100
0010
0001
1000
0001
0100
0010
1000
,
0001
0100
0001
1000
0100
0010
0100
1000
0001
0100
0001
0100
0010
0100
0001
1000
,
0100
1000
0001
0010
0100
1000
0001
1000
0010
0100
0001
1000
0001
1000
0100
1000
,
0001
0100
0010
0100
0001
1000
0010
1000
0010
0100
0001
1000
0100
0010
0001
1000
,
0001
0010
0001
0100
0010
1000
0001
1000
0100
0010
0100
1000
0001
1000
0010
0100
,
0001
1000
0010
1000
0001
0010
0100
0010
0001
1000
0010
1000
0010
0100
0010
1000
,
0001
0010
0001
1000
0100
0010
0001
1000
0001
0100
0010
1000
0001
1000
0001
0010
,
0001
0100
0010
1000
0010
1000
0100
0010
0100
0010
0001
1000
0001
0100
0010
0100
,
0001
1000
0001
0010
0100
1000
0001
1000
0010
0100
0010
1000
0001
0010
0100
1000
,
0010
1000
0010
0100
0001
1000
0010
1000
0100
0010
0100
1000
0001
0100
0010
1000
,
0100
1000
0001
0010
0100
1000
0001
0010
0001
0100
0001
0100
0010
1000
0100
0010
,
0100
1000
0001
1000
0010
1000
0001
0100
0001
0010
0100
1000
0001
1000
0010
0100
,
0001
0010
0100
1000
0001
1000
0100
0010
0001
0100
0010
1000
0001
1000
0010
0100
,
0001
0010
0100
1000
0001
0100
0010
0100
0001
1000
0100
1000
0100
0010
0001
1000
,
0001
0100
0010
1000
0001
0100
0001
0010
0100
1000
0010
0100
0010
1000
0001
1000
,
0100
1000
0001
0100
0010
1000
0001
1000
0001
0010
0100
1000
0010
1000
0001
0100
,
0001
1000
0001
0010
0100
1000
0100
0010
0001
1000
0010
1000
0001
1000
0100
0010
,
0100
1000
0010
1000
0001
0100
0010
1000
0100
0010
0001
1000
0001
0100
0010
0100
,
0001
1000
0100
1000
0100
0010
0001
1000
0001
0100
0010
1000
0100
1000
0001
0010
,
0001
0100
0010
0100
0010
1000
0001
1000
0010
0100
0001
0010
0100
0010
0001
1000
,
0100
1000
0010
1000
0001
0010
0001
1000
0010
0100
0001
1000
0001
0010
0100
0010
,
0001
0100
0001
1000
0100
0010
0001
1000
0001
0100
0010
1000
0001
1000
0100
0010
,
0001
0010
0100
1000
0001
1000
0010
0100
0010
1000
0001
1000
0001
0010
0100
1000
,
0010
1000
0001
0100
0001
0010
0100
0010
0001
0100
0010
1000
0100
1000
0001
1000
,
0010
0100
0001
1000
0001
0010
0100
1000
0010
1000
0001
0100
0001
0010
0001
0100
,
0010
1000
0001
1000
0001
0010
0100
0010
0001
1000
0010
0100
0001
1000
0100
0010
,
0001
1000
0001
1000
0010
1000
0001
0010
0100
1000
0001
0100
0010
1000
0001
0010
,
0001
0100
0010
1000
0100
0010
0001
1000
0001
0100
0010
1000
0001
0010
0100
0010
,
0001
1000
0100
1000
0001
1000
0010
0100
0001
0010
0001
1000
0010
0100
0001
1000
,
0010
1000
0100
0010
0001
1000
0001
0100
0010
1000
0001
0010
0001
1000
0010
1000
,
0001
0010
0100
1000
0100
0010
0001
0100
0010
1000
0001
1000
0001
0010
0100
0010
,
0001
1000
0001
0010
0001
0100
0010
0100
0001
0010
0100
1000
0010
1000
0001
1000
,
0100
0010
0001
1000
0001
0100
0010
1000
0100
1000
0001
0010
0001
0100
0001
0010
,
0100
1000
0001
1000
0001
0100
0010
0100
0001
1000
0100
0010
0001
1000
0010
0100
,
0001
1000
0001
1000
0100
1000
0001
0100
0010
1000
0001
0010
0100
1000
0001
0100
,
0001
0010
0100
1000
0010
0100
0001
1000
0001
0010
0100
1000
0001
0100
0010
0100
,
0001
1000
0010
1000
0001
1000
0100
0010
0001
0100
0001
1000
0100
0010
0001
1000
,
0100
1000
0010
0100
0001
1000
0001
0010
0100
1000
0001
0100
0001
1000
0100
1000
,
0001
0100
0010
1000
0010
0100
0001
0010
0100
1000
0001
1000
0001
0100
0010
0100
,
0001
1000
0001
0010
0100
1000
0010
1000
0001
0100
0001
0100
0010
1000
0001
0010
,
0001
0100
0010
1000
0001
0010
0100
1000
0010
1000
0010
0100
0001
1000
0100
0010
,
0001
0100
0001
1000
0010
1000
0100
0010
0001
1000
0001
0010
0001
1000
0010
0100
,
0001
1000
0100
1000
0001
0010
0001
1000
0010
0100
0010
1000
0001
1000
0100
1000
,
0010
0100
0010
1000
0001
0010
0001
0100
0001
1000
0100
0010
0001
1000
0010
1000
,
0100
0010
0001
1000
0100
1000
0010
0100
0001
1000
0001
0010
0100
1000
0001
0100
,
0001
0010
0001
1000
0010
1000
0100
0010
0001
1000
0001
0100
0010
1000
0001
0010
,
0100
1000
0010
0100
0010
1000
0001
0100
0010
1000
0001
0010
0001
1000
0010
0100
,
0001
0010
0100
1000
0100
1000
0010
0100
0010
0100
0001
1000
0001
0010
0100
0010
,
0001
1000
0001
0100
0010
1000
0001
1000
0100
0010
0100
1000
0001
0100
0010
1000
,
0100
1000
0100
0010
0001
1000
0100
1000
0010
0100
0010
1000
0001
0010
0100
1000
,
0010
1000
0001
0100
0010
1000
0001
0100
0001
0010
0001
0010
0100
1000
0010
0100
,
0010
1000
0001
1000
0100
1000
0001
0010
0001
0100
0010
1000
0001
1000
0100
0010
,
0001
0100
0010
1000
0001
1000
0010
0100
0001
0010
0100
1000
0001
1000
0100
0010
,
0001
0100
0010
1000
0001
0010
0100
0010
0001
1000
0010
1000
0010
0100
0001
1000
,
0001
0010
0100
1000
0001
0010
0001
0100
0010
1000
0100
0010
0100
1000
0001
1000
,
0020
0000
0000
0000
,
0030
0000
0000
0000
;

//---------------dance-single - 8/8/16/16/16----------------
#NOTES:
     dance-single:
     8/8/16/16/16:
     Hard:
     13:
     1.000,1.000,0.005,0.550,1.000,1499.000,1.000,108.000,0.000,0.000:
0000
0000
0000
0000
,
0002
0203
0320
2030
3200
2300
3002
0203
,
0310
1000
0001
1000
0100
0010
0001
1000
0010
0100
0010
1000
0001
0010
0001
1000
,
0010
0100
0001
1000
0100
0010
0100
1000
0001
1000
0010
0100
0001
1000
0100
1000
,
0001
0010
0001
1000
0010
0100
0001
1000
0001
0010
0100
0010
0001
1000
0010
1000
,
0001
1000
0100
0010
0100
1000
0001
0100
0010
1000
0010
0100
0001
1000
0001
0100
,
0001
0010
0001
1000
0010
0100
0001
1000
0100
0010
0100
1000
0001
0100
0001
1000
,
0100
0010
0001
1000
0010
0100
0010
1000
0001
1000
0100
0010
0001
1000
0010
1000
,
0001
0100
0001
1000
0100
0010
0001
1000
0001
0100
0010
0100
0001
1000
0100
1000
,
0001
1000
0010
1000
0100
0010
0001
0100
0001
1000
0100
0000
0000
0000
0000
0000
,
0010
0000
0001
0010
0100
1000
0001
0100
,
0010
0100
0001
1000
0100
1000
0001
0100
,
0001
0010
0001
1000
0100
0010
0100
1000
,
0010
0100
0001
1000
0001
0010
0100
1000
,
0010
0100
0001
1000
0010
1000
0100
1000
,
0001
0010
0100
0010
0001
1000
0010
0100
,
0010
1000
0001
0100
0001
0010
0100
1000
,
0001
1000
0010
0100
0001
1000
0010
1000
,
0001
0010
0001
1000
0100
0010
0001
0100
0001
1000
0010
1000
0010
0100
0001
1000
,
0100
1000
0010
0100
0001
1000
0100
0010
0001
0100
0001
0100
0010
1000
0001
0010
,
0100
1000
0010
1000
0001
0100
0001
0010
0100
1000
0001
1000
0100
1000
0001
0100
,
0010
1000
0001
0010
0001
1000
0100
1000
0001
0100
0010
0100
0001
1000
0001
0010
,
0001
0100
0010
0100
0001
1000
0100
1000
0010
1000
0001
0010
0100
1000
0001
0100
,
0001
0010
0100
1000
0001
0010
0001
0100
0010
1000
0001
1000
0100
0010
0001
1000
,
0010
1000
0100
1000
0001
0100
0001
0010
0100
1000
0001
1000
0010
0100
0001
1000
,
0100
0010
0001
0100
0010
0100
0001
1000
0010
0100
0001
1000
0001
1000
0100
0010
,
0001
1000
0001
0010
0200
2300
3020
0230
,
0302
1003
0001
1000
0020
0130
0002
0013
,
0200
1300
0001
0200
0310
1000
0200
1300
,
0002
0013
0001
1000
0200
1300
0010
0100
,
0200
0301
1000
0100
0020
0130
1000
0001
,
0200
0310
2000
3100
2000
3010
0200
0301
,
0020
0130
1000
0002
0103
0010
0200
0301
,
2000
3100
0010
0001
2000
3010
0100
0001
,
1001
1000
0001
0010
0200
2300
3020
0230
,
0302
1003
0001
1000
0200
0310
0002
0103
,
0020
1030
0001
0020
0130
1000
0020
1030
,
0002
0103
0001
1000
0020
1030
0001
0010
,
0020
0031
1000
0010
0200
0310
1000
0001
,
0020
0130
2000
3010
2000
3100
0020
0031
,
0200
0310
1000
0002
0013
0100
0020
0031
,
2000
3010
0100
0001
2000
3100
0010
0001
,
1000
0001
1000
0010
0100
0001
1000
0100
,
0010
0100
1000
0001
0100
0001
1000
0100
,
1000
0010
1000
0001
0100
0010
0100
0001
,
0010
0100
1000
0001
1000
0010
0100
0001
,
0010
0100
1000
0001
0010
0001
0100
0001
,
1000
0010
0100
0010
1000
0001
0010
0100
,
0010
0001
1000
0100
1000
0010
0100
0001
,
1000
0001
0010
0100
1000
0001
1000
0100
,
0010
0001
1000
0010
1000
0100
0010
0100
1000
0010
0100
0001
0010
0001
1000
0001
,
0100
0010
1000
0001
1000
0100
0010
0001
0100
0001
1000
0010
1000
0100
1000
0010
,
0100
0001
1000
0001
1000
0100
0010
0100
1000
0001
0100
0010
1000
0001
0010
0100
,
1000
0001
1000
0001
0100
0001
1000
0100
0010
0001
1000
0010
0100
0001
1000
0100
,
1000
0010
0100
0001
0010
0100
1000
0001
1000
0010
0100
0001
1000
0100
0010
0100
,
1000
0001
0010
0001
1000
0001
0100
0010
1000
0100
1000
0001
0100
0010
1000
0001
,
0100
0001
0010
0100
1000
0001
1000
0010
0100
0001
1000
0100
1000
0001
0100
0001
,
1000
0100
0010
0001
0010
0100
1000
0010
0100
0001
1000
0001
1000
0100
0010
0100
,
1000
0001
1000
0100
1000
0010
0100
0010
1000
0100
0010
0001
0100
0001
1000
0001
,
0010
0100
1000
0001
1000
0010
0100
0001
0010
0001
1000
0100
1000
0010
1000
0100
,
0010
0001
1000
0001
1000
0010
0100
0010
1000
0001
0010
0100
1000
0001
0100
0010
,
1000
0001
1000
0001
0010
0001
1000
0010
0100
0001
1000
0100
0010
0001
1000
0010
,
1000
0100
0010
0001
0100
0010
1000
0001
1000
0100
0010
0001
1000
0010
0100
0010
,
1000
0001
0100
0001
1000
0001
0010
0100
1000
0010
1000
0001
0010
0100
1000
0001
,
0010
0001
0100
0010
1000
0001
1000
0100
0010
0001
1000
0010
1000
0001
0010
0001
,
1000
0010
0100
0001
0100
0010
1000
0100
0010
0001
1000
0001
1000
0010
0100
0010
,
2000
0000
0000
3002
0003
0000
0000
0000
,
0020
0000
0000
0230
0300
0000
0000
0000
,
2000
0000
0000
3020
0030
0000
0200
0000
,
0302
0003
0020
0030
,
0020
0000
0000
0032
0003
0000
0000
0000
,
2000
0000
0000
3200
0300
0000
0000
0000
,
0020
0000
0000
0032
0003
0000
2000
0000
,
3010
0100
0001
0100
0010
1000
0001
1000
,
0001
0010
0100
1000
0001
0100
0010
0100
,
0001
1000
0100
1000
0010
1000
0001
0100
,
0001
0010
0100
0010
0001
1000
0010
0100
,
0010
1000
0001
0100
0001
1000
0100
1000
,
0001
0010
0100
1000
0001
1000
0010
0100
,
0001
1000
0001
1000
0010
0100
0001
1000
,
0100
0010
0100
1000
0001
0100
0001
0100
,
0010
1000
0100
1000
0001
0010
0100
1000
,
0001
0100
0010
1000
0010
1000
0100
0010
0100
0010
0001
1000
0001
0100
0010
0100
,
0001
1000
0001
0010
0100
1000
0001
1000
0010
0100
0010
1000
0001
0010
0100
1000
,
0010
1000
0010
0100
0001
1000
0010
1000
0100
0010
0100
1000
0001
0100
0010
1000
,
0100
1000
0001
0010
0100
1000
0001
0010
0001
0100
0001
0100
0010
1000
0100
0010
,
0100
1000
0001
1000
0010
1000
0001
0100
0001
0010
0100
1000
0001
1000
0010
0100
,
0001
0010
0100
1000
0001
1000
0100
0010
0001
0100
0010
1000
0001
1000
0010
0100
,
0001
0010
0100
1000
0001
0100
0010
0100
0001
1000
0100
1000
0100
0010
0001
1000
,
0001
0100
0010
1000
0001
0100
0001
0010
0100
1000
0010
0100
0010
1000
0001
1000
,
0100
1000
0001
0100
0010
1000
0001
1000
0001
0010
0100
1000
0010
1000
0001
0100
,
0001
1000
0001
0010
0100
1000
0100
0010
0001
1000
0010
1000
0001
1000
0100
0010
,
0100
1000
0010
1000
0001
0100
0010
1000
0100
0010
0001
1000
0001
0100
0010
0100
,
0001
1000
0100
1000
0100
0010
0001
1000
0001
0100
0010
1000
0100
1000
0001
0010
,
0001
0100
0010
0100
0010
1000
0001
1000
0010
0100
0001
0010
0100
0010
0001
1000
,
0100
1000
0010
1000
0001
0010
0001
1000
0010
0100
0001
1000
0001
0010
0100
0010
,
0001
0100
0001
1000
0100
0010
0001
1000
0001
0100
0010
1000
0001
1000
0100
0010
,
0001
0010
0100
1000
0001
1000
0010
0100
0010
1000
0001
1000
0001
0010
0100
1000
,
0001
0100
0020
1030
0002
0013
0200
0320
,
0031
1000
0010
2000
3100
2000
3002
0023
,
0032
0103
0020
0230
0301
2000
3200
0320
,
0130
2000
3001
0020
0031
2000
3010
2000
,
3002
0103
0020
1030
0002
1003
0200
0320
,
0031
1000
0001
2000
3100
0020
0032
2003
,
3010
0200
0310
2000
3001
0020
0031
0020
,
0230
2300
3020
2030
3001
0200
0310
2000
,
3010
0100
0001
1000
0100
0010
0100
1000
,
0001
0100
0001
0010
0001
1000
0100
1000
,
0010
0100
0010
1000
0001
0010
0100
0010
,
0001
1000
0100
1000
0001
0100
0001
1000
,
0010
0100
0001
1000
0001
0010
0100
1000
,
0001
1000
0001
0010
0100
1000
0001
0100
,
0010
0100
0001
1000
0100
1000
0100
0010
,
0001
0100
0001
1000
0010
0100
0001
0010
,
0001
1000
0001
0010
0100
1000
0010
1000
0001
0100
0001
0100
0010
1000
0001
0010
,
0001
0100
0010
1000
0001
0010
0100
1000
0010
1000
0010
0100
0001
1000
0100
0010
,
0001
0100
0001
1000
0010
1000
0100
0010
0001
1000
0001
0010
0001
1000
0010
0100
,
0001
1000
0100
1000
0001
0010
0001
1000
0010
0100
0010
1000
0001
1000
0100
1000
,
0010
0100
0010
1000
0001
0010
0001
0100
0001
1000
0100
0010
0001
1000
0010
1000
,
0100
0010
0001
1000
0100
1000
0010
0100
0001
1000
0001
0010
0100
1000
0001
0100
,
0001
0010
0001
1000
0010
1000
0100
0010
0001
1000
0001
0100
0010
1000
0001
0010
,
0100
1000
0010
0100
0010
1000
0001
0100
0010
1000
0001
0010
0001
1000
0010
0100
,
0001
0010
0100
1000
0100
1000
0010
0100
0010
0100
0001
1000
0001
0010
0100
0010
,
0001
1000
0001
0100
0010
1000
0001
1000
0100
0010
0100
1000
0001
0100
0010
1000
,
0100
1000
0100
0010
0001
1000
0100
1000
0010
0100
0010
1000
0001
0010
0100
1000
,
0010
1000
0001
0100
0010
1000
0001
0100
0001
0010
0001
0010
0100
1000
0010
0100
,
0010
1000
0001
1000
0100
1000
0001
0010
0001
0100
0010
1000
0001
1000
0100
0010
,
0001
0100
0010
1000
0001
1000
0010
0100
0001
0010
0100
1000
0001
1000
0100
0010
,
0001
0100
0010
1000
0001
0010
0100
0010
0001
1000
0010
1000
0010
0100
0001
1000
,
0001
0010
0100
1000
0001
0010
0001
0100
0010
1000
0100
0010
0100
1000
0001
1000
,
0020
0000
0000
0000
,
0030
0000
0000
0000
;

//---------------dance-single - 4/4/8/8/8----------------
#NOTES:
     dance-single:
     4/4/8/8/8:
     Medium:
     12:
     1.000,1.000,0.005,0.718,0.652,1246.000,1.000,141.000,0.000,0.000:
0000
0000
0000
0000
,
2000
3020
0230
0302
0023
0032
2003
3020
,
0130
0001
1000
0001
0010
0100
1000
0001
0100
0010
0100
0001
1000
0100
1000
0001
,
0100
0010
1000
0001
0010
0100
0010
0001
1000
0001
0100
0010
1000
0001
0010
0001
,
1000
0100
1000
0001
0100
0010
1000
0001
1000
0100
0010
0100
1000
0001
0100
0001
,
1000
0001
0010
0100
0010
0001
1000
0010
0100
0001
0100
0010
1000
0001
1000
0010
,
1000
0001
0010
0100
1000
0001
0100
0010
,
0100
0001
1000
0100
1000
0010
0100
0001
,
0010
0100
1000
0001
1000
0001
0100
0010
,
1000
0001
0010
0100
1000
0001
0000
0000
,
0100
0000
0001
0010
0100
1000
0001
0100
,
0010
0100
0001
1000
0100
1000
0001
0100
,
0001
0010
0001
1000
0100
0010
0100
1000
,
0010
0100
0001
1000
0001
0010
0100
1000
,
0010
0100
0001
1000
0010
1000
0100
1000
,
0001
0010
0100
0010
0001
1000
0010
0100
,
0010
1000
0001
0100
0001
0010
0100
1000
,
0001
1000
0010
0100
0001
1000
0010
1000
,
0001
0010
0001
1000
0100
0010
0001
0100
0001
1000
0010
1000
0010
0100
0001
1000
,
0100
1000
0010
0100
0001
1000
0100
0010
0001
0100
0001
0100
0010
1000
0001
0010
,
0100
1000
0010
1000
0001
0100
0001
0010
0100
1000
0001
1000
0100
1000
0001
0100
,
0010
1000
0001
0010
0001
1000
0100
1000
0001
0100
0010
0100
0001
1000
0001
0010
,
0100
1000
0001
0100
0010
0100
0001
0010
,
0100
1000
0001
0100
0010
1000
0001
1000
,
0100
0010
0100
1000
0001
0100
0001
1000
,
0010
0100
0010
1000
0100
0010
0100
0010
,
0001
1000
0001
0010
0200
2300
3020
0230
,
0302
1003
0001
1000
0020
0130
0002
0013
,
0200
1300
0001
0200
0310
1000
0200
1300
,
0002
0013
0001
1000
0200
1300
0010
0100
,
0200
0301
1000
0100
0020
0130
1000
0001
,
0200
0310
2000
3100
2000
3010
0200
0301
,
0020
0130
1000
0002
0103
0010
0200
0301
,
2000
3100
0010
0001
2000
3010
0100
0001
,
1001
1000
0001
0010
0200
2300
3020
0230
,
0302
1003
0001
1000
0200
0310
0002
0103
,
0020
1030
0001
0020
0130
1000
0020
1030
,
0002
0103
0001
1000
0020
1030
0001
0010
,
0020
0031
1000
0010
0200
0310
1000
0001
,
0020
0130
2000
3010
2000
3100
0020
0031
,
0200
0310
1000
0002
0013
0100
0020
0031
,
2000
3010
0100
0001
2000
3100
0010
0001
,
1000
0001
1000
0010
0100
0001
1000
0100
,
0010
0100
1000
0001
0100
0001
1000
0100
,
1000
0010
1000
0001
0100
0010
0100
0001
,
0010
0100
1000
0001
1000
0010
0100
0001
,
0010
0100
1000
0001
0010
0001
0100
0001
,
1000
0010
0100
0010
1000
0001
0010
0100
,
0010
0001
1000
0100
1000
0010
0100
0001
,
1000
0001
0010
0100
1000
0001
1000
0100
,
0010
0001
1000
0010
1000
0100
0010
0100
1000
0010
0100
0001
0010
0001
1000
0001
,
0100
0010
1000
0001
1000
0100
0010
0001
0100
0001
1000
0010
1000
0100
1000
0010
,
0100
0001
1000
0001
1000
0100
0010
0100
1000
0001
0100
0010
1000
0001
0010
0100
,
1000
0001
1000
0001
0100
0001
1000
0100
0010
0001
1000
0010
0100
0001
1000
0100
,
1000
0010
0100
0001
0010
0100
1000
0001
1000
0010
0100
0001
1000
0100
0010
0100
,
1000
0001
0010
0001
1000
0001
0100
0010
1000
0100
1000
0001
0100
0010
1000
0001
,
0100
0001
0010
0100
1000
0001
1000
0010
0100
0001
1000
0100
1000
0001
0100
0001
,
1000
0100
0010
0001
0010
0100
1000
0010
0100
0001
1000
0001
1000
0100
0010
0100
,
1000
0001
1000
0010
0100
0010
1000
0100
,
0010
0001
1000
0010
0100
0001
1000
0001
,
0010
0100
0010
0001
1000
0010
1000
0001
,
0100
0010
0100
0001
0010
0100
0010
0100
,
1000
0001
1000
0100
0010
0100
1000
0010
,
0100
0001
1000
0100
0010
0001
1000
0001
,
0100
0010
0100
0001
1000
0100
1000
0001
,
0010
0100
0010
0001
0100
0010
0100
0010
,
2000
0000
0000
3002
0003
0000
0000
0000
,
0020
0000
0000
0230
0300
0000
0000
0000
,
2000
0000
0000
3020
0030
0000
0200
0000
,
0302
0003
0020
0030
,
0020
0000
0000
0032
0003
0000
0000
0000
,
2000
0000
0000
3200
0300
0000
0000
0000
,
0020
0000
0000
0032
0003
0000
2000
0000
,
3010
0100
0001
0100
0010
1000
0001
1000
,
0001
0010
0100
1000
0001
0100
0010
0100
,
0001
1000
0100
1000
0010
1000
0001
0100
,
0001
0010
0100
0010
0001
1000
0010
0100
,
0010
1000
0001
0100
0001
1000
0100
1000
,
0001
0010
0100
1000
0001
1000
0010
0100
,
0001
1000
0001
1000
0010
0100
0001
1000
,
0100
0010
0100
1000
0001
0100
0001
0100
,
0010
1000
0100
1000
0001
0010
0100
1000
,
0001
0100
0010
1000
0010
1000
0100
0010
0100
0010
0001
1000
0001
0100
0010
0100
,
0001
1000
0001
0010
0100
1000
0001
1000
0010
0100
0010
1000
0001
0010
0100
1000
,
0010
1000
0010
0100
0001
1000
0010
1000
0100
0010
0100
1000
0001
0100
0010
1000
,
0100
1000
0001
0010
0100
1000
0001
0010
0001
0100
0001
0100
0010
1000
0100
0010
,
0100
1000
0001
1000
0010
1000
0001
0100
0001
0010
0100
1000
0001
1000
0010
0100
,
0001
0010
0100
1000
0001
1000
0100
0010
0001
0100
0010
1000
0001
1000
0010
0100
,
0001
0010
0100
1000
0001
0100
0010
0100
0001
1000
0100
1000
0100
0010
0001
1000
,
0001
0100
0010
1000
0001
0100
0001
0010
0100
1000
0010
0100
0010
1000
0001
1000
,
0002
0013
0200
2300
3001
0200
0302
0023
,
0130
1000
0010
2000
3001
0200
0320
0230
,
0302
2003
3200
0320
0130
2000
3010
2000
,
3002
0013
0200
1300
0002
1003
0002
0103
,
0020
0130
0001
1000
0200
0310
0001
0010
,
0200
1300
0001
0100
0020
0130
0002
2003
,
3200
2300
3020
0230
0301
2000
3001
0020
,
0130
0010
0001
0100
0020
1030
0100
0010
,
0001
0100
0020
1030
0002
0013
0200
0320
,
0031
1000
0010
2000
3100
2000
3002
0023
,
0032
0103
0020
0230
0301
2000
3200
0320
,
0130
2000
3001
0020
0031
2000
3010
2000
,
3002
0103
0020
1030
0002
1003
0200
0320
,
0031
1000
0001
2000
3100
0020
0032
2003
,
3010
0200
0310
2000
3001
0020
0031
0020
,
0230
2300
3020
2030
3001
0200
0310
2000
,
3010
0100
0001
1000
0100
0010
0100
1000
,
0001
0100
0001
0010
0001
1000
0100
1000
,
0010
0100
0010
1000
0001
0010
0100
0010
,
0001
1000
0100
1000
0001
0100
0001
1000
,
0010
0100
0001
1000
0001
0010
0100
1000
,
0001
1000
0001
0010
0100
1000
0001
0100
,
0010
0100
0001
1000
0100
1000
0100
0010
,
0001
0100
0001
1000
0010
0100
0001
0010
,
0001
1000
0001
0010
0100
1000
0010
1000
0001
0100
0001
0100
0010
1000
0001
0010
,
0001
0100
0010
1000
0001
0010
0100
1000
0010
1000
0010
0100
0001
1000
0100
0010
,
0001
0100
0001
1000
0010
1000
0100
0010
0001
1000
0001
0010
0001
1000
0010
0100
,
0001
1000
0100
1000
0001
0010
0001
1000
0010
0100
0010
1000
0001
1000
0100
1000
,
0010
0100
0010
1000
0001
0010
0001
0100
0001
1000
0100
0010
0001
1000
0010
1000
,
0100
0010
0001
1000
0100
1000
0010
0100
0001
1000
0001
0010
0100
1000
0001
0100
,
0001
0010
0001
1000
0010
1000
0100
0010
0001
1000
0001
0100
0010
1000
0001
0010
,
0100
1000
0010
0100
0010
1000
0001
0100
0010
1000
0001
0010
0001
1000
0010
0100
,
0001
0100
0010
1000
0001
0010
0001
0100
,
0010
1000
0100
1000
0001
0010
0100
0010
,
0001
1000
0010
0100
0010
1000
0100
1000
,
0001
0100
0010
1000
0001
1000
0001
0010
,
0100
0010
0001
1000
0010
0100
0001
0100
,
0010
1000
0001
0010
0100
0010
0001
1000
,
0010
1000
0100
0010
0001
1000
0001
0100
,
0010
0100
0001
0010
0100
1000
0010
0100
,
0002
0000
0000
0000
,
0003
0000
0000
0000
;
