#TITLE:Prom;
#SUBTITLE:;
#ARTIST:Mindless Self Indulgence;
#TITLETRANSLIT:;
#SUBTITLETRANSLIT:;
#ARTISTTRANSLIT:;
#CREDIT:;
#BANNER:prom2mp.png;
#BACKGROUND:prombg2hp.png;
#LYRICSPATH:;
#CDTITLE:!A2Pcdtitle.png;
#MUSIC:Mindless Self Indulgence - Prom.mp3;
#OFFSET:-0.240;
#SAMPLESTART:34.833;
#SAMPLELENGTH:11.000;
#SELECTABLE:YES;
#BPMS:0.000=180.000,334.000=90.000,336.000=180.000,392.000=90.000,394.000=180.000;
#STOPS:126.750=0.340
,129.750=0.340
,184.750=0.340
,187.750=0.340
,322.750=0.340
,325.750=0.340
,416.750=0.340
,419.750=0.340
;
#BGCHANGES:;
// cache tags:
#FIRSTBEAT:0.000;
#LASTBEAT:427.500;
#SONGFILENAME:Songs/Essential Sim Collection/(A2P) Prom/Prom.sm;
#HASMUSIC:1;
#HASBANNER:1;
#MUSICLENGTH:148.905;
// end cache tags

//---------------dance-single - ----------------
#NOTES:
     dance-single:
     :
     Challenge:
     12:
     1.000,1.000,1.000,0.195,1.000,1073.000,300.000,29.000,0.000,0.000:
1000
0000
0100
0000
0010
0000
0100
0100
,
0000
0100
0001
0010
0000
0100
1000
0000
,
0010
0000
1000
0000
0100
0000
0010
0010
,
0000
0010
0001
0011
0110
1010
0110
0101
,
1001
0010
1100
0010
1001
0010
0100
1001
,
0010
0100
1000
0101
0010
1100
0101
0010
,
1000
0000
1000
0100
1000
0000
1000
0100
0001
0000
0001
0100
0001
0100
1000
0100
,
0010
0000
0100
1000
0010
0000
0100
1000
0010
0000
0010
1000
0001
1000
0100
1000
,
1010
0100
1100
0100
0011
0100
1000
0110
,
1000
0100
0001
0110
0001
0110
1100
0100
,
0011
0000
0001
0010
0100
0000
0001
0010
0100
0000
0100
0010
0001
0100
0010
1000
,
0100
0000
0010
0001
1000
0000
0010
0001
1000
0000
0010
0001
1000
0001
1000
0001
,
1000
0000
0000
0000
0100
0000
0000
0000
1100
0000
0000
0000
0100
0000
0000
0000
1000
0000
0000
0000
1100
0000
0000
0000
0010
0000
0001
0010
0100
0000
0000
0000
,
0100
0001
1100
0001
0100
0001
1001
1001
,
0100
0000
0000
0000
0010
0000
0000
0000
0110
0000
0000
0000
0100
0000
0000
0000
0010
0000
0000
0000
0110
0000
0000
0000
0010
0000
1000
0001
1000
0000
0000
0000
,
0001
0000
0010
0000
0110
0000
0100
0000
1000
0000
1000
0100
0110
0000
1001
0001
,
1000
0000
0000
0000
0100
0000
0000
0000
0011
0000
0000
0000
0010
0000
0000
0000
0100
0000
0000
0000
0110
0000
0000
0000
0100
0000
1000
0001
0100
0000
0000
0000
,
1000
0010
1100
0010
0001
0100
1010
0011
,
1000
0000
0000
0000
0100
0000
0000
0000
1001
0000
0000
0000
0010
0000
0000
0000
0100
0000
0000
0000
1100
0000
0000
0000
0001
0000
0010
0100
1000
0000
0000
0000
,
1000
0100
1100
0010
0110
0100
0101
0001
,
2000
0000
0000
0000
3001
0000
0000
0001
0000
0001
0010
0001
0100
1000
0100
0000
,
0001
0010
0001
0010
0001
0010
0001
0010
0001
0010
0001
0010
0001
0010
0001
0010
,
0002
0000
0000
0000
1003
0000
0000
0100
0000
0010
0100
0010
0001
0100
1000
0000
,
0100
0010
0100
0010
0100
0010
0100
0010
0100
0010
0100
0010
0100
0010
0100
0010
,
0200
0000
0000
0000
0310
0000
0000
0010
0000
1000
0100
1000
0001
0010
1000
0000
,
0001
0100
0010
1000
0010
0100
0001
0100
0010
1000
0010
0100
0001
0100
0010
1000
,
1001
0000
1100
0000
1001
0000
0101
0000
1001
0100
1000
0100
1000
0001
1000
0001
,
0110
0000
1100
0000
0110
0000
0101
0000
0110
0001
0100
0001
0100
0010
0100
0010
,
1001
0000
0000
0000
0010
0000
0000
0000
1001
0000
0000
0000
0000
0000
0110
0000
0001
0000
0000
0000
1000
0000
0000
0000
0110
0000
0000
0000
0000
0100
0010
0100
,
0010
0000
0000
0000
0100
0000
0000
0000
1010
0000
0000
0000
0000
0000
1001
0000
0100
0000
0000
0000
1000
0000
0000
0000
1100
0000
0000
0000
0000
1000
0001
1000
,
0001
0000
0000
0000
0010
0000
0000
0000
0110
0000
0000
0000
0000
0000
1100
0000
0010
0000
0000
0000
0001
0000
0000
0000
0101
0000
0000
0000
0000
1000
0100
0010
,
0100
0000
0000
0000
0000
0000
0000
0000
1100
0000
0000
0000
0000
0000
0000
0000
0011
0000
0000
0000
0000
0000
0000
0000
1100
0000
0000
0000
0000
0000
0000
0000
1000
0000
0000
0000
0100
0000
0000
0000
0010
0000
0000
0000
0002
0003
0000
0000
1100
0000
0000
0000
0000
0000
0000
0000
0110
0000
0000
0000
0000
0000
0000
0000
,
0011
0000
0000
0000
0000
0000
0000
0000
1100
0000
0000
0000
0000
0000
0000
0000
0001
0000
0000
0000
0100
0000
0000
0000
0010
0000
0000
0000
2000
3000
0000
0000
1100
0000
0000
0000
0000
0000
0000
0000
0110
0000
0000
0000
0000
0000
0000
0000
0011
0000
0000
0000
0000
0000
0000
0000
0110
0000
0000
0000
0000
0000
0000
0000
,
1000
0000
0000
0000
0000
0000
0000
0000
1000
0000
0001
0100
1000
0000
0000
0000
1100
0000
0000
0000
1100
0000
0000
0000
0110
0000
0000
0000
0110
0000
0000
0000
,
0000
0000
1001
0000
0000
0000
0100
0000
2000
0000
0000
0000
3001
0000
0000
0001
,
0000
0100
1000
0100
0010
0001
1000
0000
1000
0010
0001
0010
1000
0010
0001
0010
,
1000
0010
0001
0010
1000
0010
0001
0010
2000
0000
0000
0000
3001
0000
0000
0010
,
0000
0001
1000
0100
0001
0100
0010
0000
0001
0100
1000
0100
0001
0100
1000
0100
,
0001
0100
1000
0100
0001
0100
1000
0100
0002
0000
0000
0000
1003
0000
0000
0100
,
0000
0001
0010
0001
0100
0001
0010
0000
0001
0100
0010
1000
0100
0010
0001
0100
,
0010
1000
0100
0010
0001
0100
0010
0100
1001
0000
0011
0000
1100
0000
0110
0000
,
0011
1000
0001
1000
0001
0010
0001
0010
0101
0000
0110
0000
1001
0000
1100
0000
,
1010
0001
1000
0001
1000
0100
1000
0100
1010
0000
0100
0000
1010
0000
0000
0110
,
0100
0000
0000
0000
1000
0000
0000
0000
1100
0000
0000
0000
0000
0100
0010
0100
0010
0000
0000
0000
0100
0000
0000
0000
0011
0000
0000
0000
0000
0000
1010
0000
,
0100
0000
0000
0000
0010
0000
0000
0000
1001
0000
0000
0000
0000
0001
0010
0001
1000
0000
0000
0000
0100
0000
0000
0000
0011
0000
0000
0000
0000
0000
0011
0000
,
1000
0000
0000
0000
1000
0000
0000
0000
1100
0000
0000
0000
0000
0001
0010
0100
0010
0000
0000
0000
1100
0000
0000
0000
0110
0000
0000
0000
0011
0000
0000
0000
,
0010
0000
0000
0000
0100
0000
0000
0000
1000
0000
0000
0000
0002
0003
0000
0000
1010
0000
0000
0000
0000
0000
0000
0000
0110
0000
0000
0000
0000
0000
0000
0000
0011
0000
0000
0000
0000
0000
0000
0000
1100
0000
0000
0000
0000
0000
0000
0000
1000
0000
0000
0000
0100
0000
0000
0000
0001
0000
0000
0000
0200
0300
0000
0000
,
0010
0000
0000
0000
0100
0000
0000
0000
1001
0000
0000
0000
0000
0000
1010
0000
0100
0000
0000
0000
0100
0000
0000
0000
1001
0000
0000
0000
0000
1000
0010
0100
,
0010
0000
0000
0000
0100
0000
0000
0000
1001
0000
0000
0000
0000
0000
0110
0000
1000
0000
0000
0000
1000
0000
0000
0000
0110
0000
0000
0000
0000
0001
0010
0001
,
0100
0000
0000
0000
0100
0000
0000
0000
0110
0000
0000
0000
0000
0000
0110
0000
0010
0000
0000
0000
0010
0000
0000
0000
1001
0000
0000
0000
0000
0001
0010
0100
,
1000
0101
1100
0101
0011
1010
0011
1010
,
0101
1100
0101
1100
0011
1010
0011
1010
,
1000
0000
0000
0000
0100
0000
0000
0000
0010
0000
0000
0000
0001
0000
0000
0000
1000
0000
0000
0000
0100
0000
0000
2000
0002
0000
0000
0000
3003
0000
0000
0000
,
1100
0100
0110
0010
0011
0100
1000
0011
,
0100
0100
1100
0010
0100
1001
1100
1001
,
0011
0000
0001
0100
1000
0000
1000
0010
0001
0000
1000
0100
0001
0100
1000
0001
,
1000
0000
1000
0100
1000
0000
1000
0010
1000
0000
1000
0100
0010
0001
0010
0001
,
0011
0001
1001
1000
1100
0010
0001
1100
,
0100
0010
0001
1010
0100
1010
1001
1100
,
1001
0000
1000
0010
0100
0000
0001
0010
0100
0000
1000
0100
0010
0001
0100
0010
,
1000
0000
1000
0100
0001
0000
0001
0100
1000
0000
0001
0010
1000
0010
0001
0100
,
1000
0000
0000
0000
1000
0000
0000
0000
1100
0000
0000
0000
0001
0000
0000
0000
0010
0000
0000
0000
0011
0000
0000
0000
0001
0000
0100
0001
1000
0000
0000
0000
,
1000
0100
0011
0010
1000
0100
0011
0011
,
1000
0000
0000
0000
0100
0000
0000
0000
1001
0000
0000
0000
0010
0000
0000
0000
0100
0000
0000
0000
1100
0000
0000
0000
0001
0000
1000
0100
0001
0000
0000
0000
,
0001
0000
0100
0000
0110
0000
0100
0000
1000
0000
0100
0010
0011
0000
0011
1000
,
0010
0000
0000
0000
1000
0000
0000
0000
0101
0000
0000
0000
0010
0000
0000
0000
0100
0000
0000
0000
1001
0000
0000
0000
0001
0000
0010
1000
0010
0000
0000
0000
,
0100
1000
0011
0010
0100
1000
0110
1001
,
0010
0000
0000
0000
0100
0000
0000
0000
1010
0000
0000
0000
0100
0000
0000
0000
0010
0000
0000
0000
1100
0000
0000
0000
1000
0000
0100
0010
0001
0000
0000
0000
,
0010
0100
1100
0100
0101
0001
0011
0001
,
2000
0000
0000
0000
3001
0000
0000
0010
0000
0100
1000
0001
0100
0010
0100
0000
,
0001
0100
0001
1000
0001
0010
0001
0100
0001
1000
0001
0010
0001
0100
0001
1000
,
0002
0000
0000
0000
1003
0000
0000
0010
0000
0001
0010
0100
0010
0001
0100
0000
,
0100
0010
0100
0001
0100
1000
0100
0010
0100
0001
0100
1000
0100
0010
0100
0001
,
0200
0000
0000
0000
0310
0000
0000
1000
0000
0010
1000
0010
0100
0001
0010
0000
,
1000
0100
0001
0100
1000
0010
0001
0010
1000
0100
0010
0001
0010
0100
1000
0010
,
0101
0000
1010
0000
1100
0000
0011
0000
1001
0100
0010
0100
0001
1000
0001
0010
,
1100
0000
0011
0000
0101
0000
1010
0000
0110
1000
0001
1000
0010
0100
0010
1000
,
0110
0000
0000
0000
0001
0000
0000
0000
0110
0000
0000
0000
0000
0000
1100
0000
0001
0000
0000
0000
0010
0000
0000
0000
0110
0000
0000
0000
0000
0100
1000
0001
,
0010
0000
0000
0000
0100
0000
0000
0000
0101
0000
0000
0000
0000
0000
1001
0000
0010
0000
0000
0000
0100
0000
0000
0000
1001
0000
0000
0000
0000
0010
0001
1000
,
0100
0000
0000
0000
0001
0000
0000
0000
1010
0000
0000
0000
0000
0000
0101
0000
0010
0000
0000
0000
0100
0000
0000
0000
1001
0000
0000
0000
0000
1000
0010
0100
,
0001
0000
0000
0000
0000
0000
0000
0000
0011
0000
0000
0000
0000
0000
0000
0000
1100
0000
0000
0000
0000
0000
0000
0000
1001
0000
0000
0000
0000
0000
0000
0000
1000
0000
0000
0000
0100
0000
0000
0000
0001
0000
0000
0000
0020
0030
0000
0000
1001
0000
0000
0000
0000
0000
0000
0000
1100
0000
0000
0000
0000
0000
0000
0000
,
0011
0000
0000
0000
0000
0000
0000
0000
0110
0000
0000
0000
0000
0000
0000
0000
0100
0000
0000
0000
0001
0000
0000
0000
0010
0000
0000
0000
2000
3000
0000
0000
1100
0000
0000
0000
0000
0000
0000
0000
0011
0000
0000
0000
0000
0000
0000
0000
0110
0000
0000
0000
0000
0000
0000
0000
1100
0000
0000
0000
0000
0000
0000
0000
,
1001
0000
0000
0000
0000
0000
0000
0000
0010
0000
0001
0100
0001
0000
0000
0000
1100
0000
0000
0000
0101
0000
0000
0000
0110
0000
0000
0000
0110
0000
0000
0000
,
0000
0000
0000
0000
0220
0000
0000
0000
0000
0000
0000
0000
0330
0000
0000
0000
2000
0000
0000
0000
0000
0000
0000
0000
3200
0000
0000
0000
0000
0000
0000
0300
,
1001
0000
1100
0000
0011
0000
0110
0000
1100
0001
0010
0001
1000
0100
0010
0001
,
1001
0000
0110
0000
1100
0000
1001
0000
0011
0100
1000
0100
0010
0001
0100
0010
,
0110
0000
0000
0000
1000
0000
0000
0000
0011
0000
0000
0000
0000
0000
1100
0000
0100
0000
0000
0000
0100
0000
0000
0000
0101
0000
0000
0000
0000
0001
0010
0100
,
1000
0000
0000
0000
0100
0000
0000
0000
1001
0000
0000
0000
0000
0000
0101
0000
0010
0000
0000
0000
0010
0000
0000
0000
1100
0000
0000
0000
0000
1000
0001
0100
,
0010
0000
0000
0000
1000
0000
0000
0000
1001
0000
0000
0000
0000
0000
0011
0000
0010
0000
0000
0000
0100
0000
0000
0000
0110
0000
0000
0000
0000
0001
0100
0010
,
1000
0000
0000
0000
1100
0000
0000
0000
1100
0000
0000
0000
0000
0000
0100
0000
0010
0000
1000
0000
0100
0000
0000
0000
1100
0000
0000
0000
0000
0001
0010
0001
,
0010
0000
0000
0000
1100
0000
0000
0000
0110
0000
0000
0000
0011
0000
0000
0000
1001
0000
0000
0000
0000
0000
0000
0000
0010
0000
0001
1000
0001
0000
0000
0000
,
1100
0000
0000
0000
1001
0000
0000
0000
0011
0000
0000
0000
0110
0000
0000
0000
1001
0000
0000
0000
0000
0000
0000
0000
1000
0000
0100
0001
0100
0000
0000
0000
,
1010
0000
0000
0000
1100
0000
0000
0000
0101
0000
0000
0000
0011
0000
0000
0000
1001
0000
0000
0000
0000
0000
0000
0000
1000
0000
0010
0001
1000
0000
0000
0000
,
1000
0100
0001
0010
0000
1001
0011
1100
,
1001
0000
0000
0000
0011
0000
0000
0000
1100
0000
0000
0000
0110
0000
0000
0000
0011
0000
0000
0000
0000
0000
0000
0000
1000
0000
0010
1000
0001
0000
0000
0000
,
0110
0000
0000
0000
1100
0000
0000
0000
0101
0000
0000
0000
1010
0000
0000
0000
1001
0000
0000
0000
0000
0000
0000
0000
0010
0000
1000
0001
0010
0000
0000
0000
,
1100
0000
0000
0000
0101
0000
0000
0000
1010
0000
0000
0000
0011
0000
0000
0000
1001
0000
0000
0000
0000
0000
0000
0000
0100
0000
0010
0001
0100
0000
0000
0000
,
1100
0110
0011
1001
1001
2002
0000
3003
,
0020
0000
0230
0000
0301
0011
1100
1010
,
0101
0010
1000
0100
1000
0010
1000
0100
1010
0000
0011
0000
1010
0000
1001
0000
,
1010
0100
0001
0010
0001
0100
0001
0010
0101
0000
0100
0000
1100
0000
0000
1001
,
0010
0000
0000
0000
0010
0000
0000
0000
1001
0000
0000
0000
0000
1000
0001
0010
0100
0000
0000
0000
0001
0000
0000
0000
1010
0000
0000
0000
0000
0000
0101
0000
,
0100
0000
0000
0000
0100
0000
0000
0000
1100
0000
0000
0000
0000
0100
0001
0100
1000
0000
0000
0000
0100
0000
0000
0000
1001
0000
0000
0000
0000
0000
0011
0000
,
0100
0000
0000
0000
0100
0000
0000
0000
1001
0000
0000
0000
0000
0001
0010
0001
1000
0000
0000
0000
1100
0000
0000
0000
1001
0000
0000
0000
0101
0000
0000
0000
,
1000
0000
0000
0000
0100
0000
0000
0000
0010
0000
0000
0000
0020
0030
0000
0000
0110
0000
0000
0000
0000
0000
0000
0000
0011
0000
0000
0000
0000
0000
0000
0000
0110
0000
0000
0000
0000
0000
0000
0000
1100
0000
0000
0000
0000
0000
0000
0000
1000
0000
0000
0000
0010
0000
0000
0000
0100
0000
0000
0000
0200
0300
0000
0000
,
0101
0110
0101
0011
0101
0000
0110
0000
,
0110
1100
0101
0110
0000
2002
0000
3003
;

//---------------dance-single - ----------------
#NOTES:
     dance-single:
     :
     Edit:
     1:
     0.000,0.000,0.000,0.000,0.000,0.000,0.000,0.000,0.000,0.000:
0000
0000
0000
0000
;
