#TITLE:DMYK;
#SUBTITLE:;
#ARTIST:DJ Sharpnel;
#TITLETRANSLIT:;
#SUBTITLETRANSLIT:;
#ARTISTTRANSLIT:;
#CREDIT:;
#BANNER:!BN.png;
#BACKGROUND:!BG.png;
#LYRICSPATH:;
#CDTITLE:!NemCDT.png;
#MUSIC:DMYK.mp3;
#OFFSET:-0.048;
#SAMPLESTART:184.897;
#SAMPLELENGTH:14.748;
#SELECTABLE:YES;
#BPMS:0.000=188.641;
#STOPS:;
#BGCHANGES:;
// cache tags:
#FIRSTBEAT:0.000;
#LASTBEAT:932.500;
#SONGFILENAME:Songs/Fabulously Fresh Flock of Fantastic Files F5/(Nemosta) DMYK/DMYK.sm;
#HASMUSIC:1;
#HASBANNER:1;
#MUSICLENGTH:298.004;
// end cache tags

//---------------dance-single - ----------------
#NOTES:
     dance-single:
     :
     Challenge:
     13:
     1.000,1.000,1.000,0.030,0.765,2182.000,678.000,9.000,0.000,0.000:
1000
1000
0100
0100
0010
0010
0001
0001
,
1000
1000
0100
0100
0010
0010
0001
0001
,
1000
1000
0100
0100
0010
0010
0001
0001
,
1000
1000
0100
0100
0010
0010
0001
0001
,
1000
1000
0100
0100
0010
0010
0001
0001
,
1000
1000
0100
0100
0010
0010
0001
0001
,
1000
1000
0100
0100
0010
0010
0001
0001
,
0100
0000
0100
0000
1001
0000
0010
0001
1000
0100
0010
0100
1001
0000
0100
1000
,
0001
0000
0001
0000
1010
0000
0100
1000
0001
0010
0100
0010
1001
0000
0010
0000
,
0100
0000
0100
0000
1001
0000
0100
0010
0001
0010
0100
1000
0110
0000
1000
0100
,
0010
0000
0010
0000
0011
0000
1000
0100
0001
0010
0100
0000
1000
0100
1000
0000
,
0100
0010
0100
0000
0010
0001
0010
0000
1000
0000
0100
0000
1001
0000
0010
0100
,
0001
0000
0001
0000
0110
0000
1000
0100
0010
0001
1000
0001
0110
0000
1000
0000
,
0010
0000
0010
0000
1100
0000
0001
0010
0100
1000
0001
1000
0110
0000
0001
0000
,
0100
0000
0100
0000
1010
0000
0010
0100
1000
0001
0010
0001
1100
0000
0010
0000
,
0100
0000
0010
0000
1001
0000
0010
0100
1001
0000
0010
0100
2002
0000
0000
3003
,
0100
0000
1000
0000
0011
0000
0001
1000
0100
0001
0010
0001
1100
0000
0001
0000
,
0100
0000
0100
0000
0011
0000
0010
1000
0010
0001
0100
1000
0011
0000
0100
0000
,
1000
0000
1000
0000
0011
0000
0100
0010
1000
0100
0010
0000
1000
0100
0010
0000
,
0100
0010
0001
0000
1000
0100
0001
0000
1000
0000
0100
0000
0011
0000
0100
0010
,
0100
0000
0100
0000
0011
0000
0010
0100
1000
0010
0100
0010
1100
0000
0100
0000
,
0010
0000
0010
0000
0101
0000
0010
0100
0010
0001
0100
1000
0011
0000
1000
0000
,
0100
0000
0100
0000
1001
0000
0010
0100
0010
1000
0001
0010
1100
0000
0010
0000
,
1001
0000
0000
0000
0110
0000
1000
0100
0011
0000
0100
0010
2002
0000
0000
3003
,
0110
0000
0001
0000
1010
0000
0100
0010
1001
0010
0100
1000
0011
0000
1000
0000
,
0110
0000
1000
0000
0011
0000
0100
0010
1001
0010
0001
0010
1100
0000
0001
0000
,
0110
0000
0001
0000
1100
0000
0001
0010
1100
0010
0100
0000
1001
0010
0100
0000
,
1010
0100
0001
0000
1010
0001
0100
0000
0011
0000
1000
0000
0011
0000
0100
0001
,
1010
0000
0100
0000
1001
0000
0100
0010
1100
0010
1000
0010
0101
0000
1000
0000
,
0110
0000
0001
0000
1010
0000
0100
0010
1001
0100
0010
1000
0101
0000
0010
0000
,
1001
0000
0010
0000
1100
0000
0010
0100
1001
0010
0100
0001
1010
0000
0100
0000
,
1001
0000
0010
0000
0101
0000
0100
0010
0101
0000
0100
0010
2002
0000
0000
3003
,
0001
0000
0001
0000
1010
0000
0100
0001
1010
0100
0001
0010
1100
0000
0010
0000
,
0001
0000
0001
0000
1100
0000
0001
0010
1001
0010
1000
0100
0011
0000
0100
0000
,
1000
0000
1000
0000
0101
0000
0001
0010
0101
0010
0100
0000
1100
0010
1000
0000
,
0110
1000
0100
0000
0101
0010
0001
0000
1010
0000
0100
0000
1001
0000
0010
0100
,
0011
0000
0001
0000
1100
0000
0010
0100
1001
0010
0001
0010
1100
0000
0010
0000
,
0001
0000
0001
0000
0110
0000
0001
0100
1010
0100
0010
1000
0101
0000
0010
0000
,
1000
0000
1000
0000
0110
0000
1000
0100
0011
1000
0001
0000
1001
0000
0000
0000
,
0010
0000
0001
1000
0110
0000
0001
0010
1100
0000
0010
0100
1001
0000
0000
0000
,
1000
0000
0101
0011
1000
0100
0010
0101
,
0010
1100
0001
0100
0011
0011
0000
0000
,
0010
0000
0110
0000
0000
0101
0010
0100
,
1000
0000
0001
0000
0110
0000
0000
0000
0001
0100
1000
0100
0001
0010
0100
1000
,
0110
0001
1100
0010
0000
1000
0101
0010
,
0001
0110
0000
0101
,
0100
0010
1100
0010
0000
0001
1010
0100
,
0000
0000
0101
0010
1001
0110
0110
0000
,
1001
0110
0011
1100
,
1001
0010
0101
0010
1100
0000
0110
0000
,
0011
0000
0011
0000
0011
1000
0101
0010
,
1001
0010
0101
0000
1001
0000
1100
0000
,
0011
0100
1010
0100
0011
1000
0101
0010
,
1100
0010
1001
0010
1100
0000
1010
0000
,
0011
0000
0011
1000
0101
1000
0110
0000
,
0101
1000
0011
0011
0000
1000
0110
0110
,
1001
0000
0010
0000
1001
0000
0010
0000
0101
0000
1000
0010
0100
0010
0100
0010
,
1001
0010
0100
1000
0001
1000
0011
1000
,
0011
0101
0010
0100
1000
0100
0010
0100
,
1010
0001
1100
0010
1001
0110
0001
1100
,
0010
1000
0100
0010
0100
0010
1000
0010
,
1001
0010
1000
0010
1000
0100
0011
0100
,
0011
1001
0100
1000
0010
1000
0100
1000
,
0011
0100
1001
0010
1100
0110
0001
1100
,
0101
0011
1100
0110
0011
1001
1100
1010
,
0011
1000
0100
1000
0010
0001
0110
1000
,
0101
1100
0010
1000
0001
0100
0010
0100
,
1010
0001
1100
0010
1001
0100
0011
1100
,
0010
0100
0001
1000
0010
0100
0010
1000
,
0101
0010
0100
0010
0001
1000
0110
0100
,
1001
1001
0010
1000
0100
1000
0100
0010
,
1001
0010
1001
0010
0101
0101
1100
0101
,
0110
0000
0110
0000
0110
0110
0110
0110
,
0110
0000
0110
0110
0110
0110
0000
0000
,
1001
0100
0010
0100
1010
0100
0001
0100
0011
0100
1000
0100
1001
0010
0001
0010
,
0101
0010
1000
0010
1100
0010
0001
0010
1001
0100
0001
0010
0100
0010
0100
0010
,
0000
0000
1000
0000
0010
0000
0110
0000
1000
0001
0100
0000
0010
0100
0011
0000
,
1000
0011
0100
1000
0110
0011
0100
0000
,
0000
0010
1001
0100
0010
1001
0100
0010
,
0001
0000
0100
0000
0110
0000
1000
0000
0100
0000
0010
0000
1000
0100
0010
0001
,
1100
0010
0101
1000
0010
0001
1100
0010
,
0100
0000
1000
0000
0110
0000
0001
0000
0010
0100
0010
0100
0011
0000
0000
0000
,
0000
0001
1100
0010
0100
1000
0110
0001
,
1010
0000
1010
0000
1010
0100
1010
0100
,
1010
0001
0110
0011
0100
1000
0010
0101
,
0010
1000
0100
0001
1100
1100
0010
0000
,
0000
0100
0011
1000
0001
0110
0000
0000
,
0010
0000
0001
0000
1100
0000
0010
0000
0100
0000
1000
0000
0001
0010
0001
0100
,
1001
0100
0011
1000
0110
1000
0101
0010
,
1001
0010
1100
0010
0101
0010
1100
0010
,
0101
1000
0110
1000
0010
0100
1001
0100
,
1001
0010
1001
0010
1001
0010
1001
0000
,
1001
0000
1100
0000
0101
1000
0011
1100
,
0000
0000
0110
0000
0011
1000
0110
0011
,
0000
0000
1100
0000
0110
0011
0011
0011
,
0100
1000
0010
0020
0000
0000
0000
0000
,
1030
0010
0001
0100
0010
1000
0101
0101
,
0110
0110
1100
1100
0011
0012
0103
0010
,
0100
0010
0100
1000
0010
0100
0000
0002
,
0000
0000
0000
0000
0000
0000
0000
0000
0000
0000
0000
0000
0000
0000
0013
1000
,
0100
1000
0100
0010
1000
0001
0100
1000
0100
0010
1000
0001
0100
0010
1000
0100
,
0000
0000
0001
0010
0100
1000
0001
0100
1000
0100
0010
1000
0010
0001
0010
0000
,
0010
1000
0100
0000
0100
1000
0100
0000
0100
0010
1000
0000
0001
0010
0001
0000
,
0100
0001
0100
0000
0100
0010
1000
0100
0010
0000
1000
0000
0100
1000
0100
0000
,
0010
0100
0010
0000
1000
0010
0100
0010
0100
0001
0010
0000
0100
0010
0001
0000
,
0100
1000
0010
0000
0100
0010
0100
0000
1000
0100
0001
0000
0010
0100
1000
0000
,
0100
0010
1000
0000
0010
0100
1000
0100
0010
0000
0100
0000
0010
0100
0001
0000
,
0001
0010
0100
0000
1000
0100
1000
0000
0010
0100
0010
0100
0001
0000
0000
0000
,
1001
0100
0010
0001
1000
0001
1100
0001
,
1100
1010
0100
0010
0001
0010
0100
0010
,
0101
1000
0101
0010
1100
0010
1100
0011
,
0100
0000
1000
0000
0010
0000
0100
0000
0010
0000
0001
0000
0100
1000
0100
0010
,
0101
1000
0001
1000
0001
0010
1100
0010
,
1100
1001
0010
0001
0100
0001
0010
0001
,
1100
0010
1001
1100
0011
1010
0100
0011
,
1010
1100
0011
0110
1100
1001
0011
0101
,
1100
0010
0001
0010
0100
1000
0110
0001
,
1010
0011
1100
0001
1000
0010
0100
0010
,
0101
1000
0011
0100
1001
0010
1100
0010
,
1001
0000
0010
0000
1000
0000
0001
0000
0100
0000
1000
0000
0010
0001
0010
0100
,
1010
0100
0010
0100
1000
0001
0110
0010
,
1001
1001
0010
0100
0010
0001
0010
0100
,
1001
0100
1001
0100
1010
1010
0011
1010
,
1001
0000
1001
0000
1001
1001
1001
1001
,
1001
0000
1001
1001
1001
1001
0000
0000
,
1100
1000
0100
0100
0010
0010
0001
0001
,
1100
1000
0100
0100
0010
0010
0001
0001
,
1100
1100
0110
0110
0011
0011
1001
1001
,
1100
1100
0110
0110
0011
0011
1001
1001
,
0100
0010
0100
0001
1100
0010
0001
1000
0100
1000
0110
1000
0011
0100
0010
0100
,
1010
0100
0010
0001
1010
0001
0010
0100
1000
0100
0011
0100
0011
1000
0010
0100
,
1001
0010
0001
0010
1100
0010
1000
0001
1100
0010
0101
0010
1100
0010
0100
0010
,
1001
0000
0110
1000
0001
1000
0110
0000
,
1000
0100
0010
0001
1000
0100
0010
0001
1000
0000
0000
0000
0100
0000
0000
0000
0001
0010
0100
1000
0001
0010
0100
1000
0010
0000
0100
0000
0010
0000
0001
0000
,
1000
0001
0100
0010
1000
0001
0100
0010
0001
0000
0000
0000
0001
0000
0000
0000
0001
1000
0010
0100
0001
1000
0010
0100
1000
0000
0010
0000
0100
0000
0010
0000
,
1000
0100
0001
0010
1000
0100
0001
0010
0100
0000
0000
0000
0001
0000
0000
0000
0001
0010
1000
0100
0001
0010
1000
0100
0010
0000
0100
0000
1000
0000
0100
0000
,
1000
0100
1000
0010
1000
0001
1000
0010
1000
0000
0000
0000
0100
0000
0000
0000
0001
0010
0001
0100
0001
1000
0001
0100
0001
0000
0010
0000
0100
0000
1000
0000
,
0001
0010
0100
1000
0001
0010
0100
1000
0001
0000
0000
0000
0010
0000
0000
0000
1000
0100
0010
0001
1000
0100
0010
0001
0100
0000
0010
0000
0100
0000
0001
0000
,
0001
1000
0010
0100
1000
0001
0010
0100
1000
0000
0000
0000
1000
0000
0000
0000
1000
0001
0100
0010
1000
0001
0100
0010
0001
0000
0100
0000
0010
0000
0100
0000
,
0001
0010
1000
0100
0001
0010
1000
0100
0010
0000
0000
0000
1000
0000
0000
0000
1000
0100
0001
0010
1000
0100
0001
0010
0100
0000
0010
0000
0001
0000
0010
0000
,
1000
0100
0010
0001
1000
0100
0010
0001
0010
0000
0000
0000
0100
0000
1000
0000
0100
0000
0000
0000
0010
0000
0100
0000
0010
0000
0000
0000
0001
0000
0000
0000
,
1000
0100
0100
0010
0001
0010
0010
0100
,
1000
0100
0100
0010
0001
0010
0010
0100
,
1000
0100
0100
0010
0001
0010
0100
0010
,
1001
0100
1000
0100
0010
0100
0001
1000
,
0000
0000
0001
0000
0100
0000
0110
0000
0001
1000
0010
0000
0100
0010
1100
0000
,
0001
1100
0010
0001
1000
0110
1100
0000
,
0000
0100
1001
0010
0100
1001
0010
0100
,
1000
0000
0010
0000
0110
0000
0001
0000
0010
0000
0100
0000
1000
0001
0100
0010
,
1001
0100
1010
0001
0100
1000
0011
0100
,
0010
0000
0001
0000
0110
0000
1000
0000
0100
0010
0100
0010
1100
0000
0000
0000
,
0000
1000
0011
0100
0010
0001
1100
0010
,
1001
0000
1001
0000
1001
0010
1001
0010
,
1001
0100
0011
1100
0010
0001
0100
1010
,
0100
0001
0010
1000
0011
0011
0100
0000
,
0000
0010
1100
0001
1000
0110
0000
0000
,
0100
0000
1000
0000
0011
0000
0100
0000
0010
0000
0001
0000
0100
0010
1000
0001
,
0110
0001
1100
0001
0110
0001
1010
0100
,
1001
0100
0011
0100
1010
0100
0011
0000
,
1010
0001
0110
0001
0100
0001
0110
1000
,
0110
0000
1000
0001
0110
0000
1000
0001
0110
0000
1000
0001
0110
0000
0010
0100
,
1001
0000
0100
0000
0110
0000
0100
0000
1000
0010
0100
0000
1100
0000
1000
0000
,
1000
0000
1000
0000
1010
0000
0010
0100
1000
0000
0010
0000
0011
0000
0001
0000
,
0001
0000
0001
0000
1001
0000
1000
0000
0100
0010
1000
0000
1010
0000
0010
0000
,
0010
0000
0010
0000
0110
0000
0100
0000
0010
1000
0100
0000
0110
0000
0010
0000
,
0011
0000
0001
0000
1001
0000
1000
0000
0010
0100
1000
0000
1010
0000
0010
0000
,
0011
0000
0010
0000
0110
0000
0010
0000
1000
0100
0010
0000
0011
0100
0001
0010
,
0001
0000
0001
0000
0101
0000
0100
0000
1000
0001
0100
0000
1100
0000
1000
0000
,
1001
0010
1000
0010
0101
1000
0100
0010
1100
0001
0010
0100
1001
0000
1001
0000
,
1001
0100
0011
0100
0001
0110
1100
0010
,
1000
0001
0110
0001
0100
1001
0110
0001
,
0010
1000
0101
1000
0100
1010
0101
1000
,
0100
0001
1010
0001
0010
0101
1010
0001
,
0100
0011
0100
1001
0011
0100
1000
0100
,
0010
1001
0010
1100
0011
0100
1000
0001
,
0010
1100
0110
1100
0011
0110
0011
0101
,
1001
1001
1001
1001
,
1001
0000
0010
0000
1100
0000
0100
0010
0001
0100
1000
0100
0011
0000
1000
0000
,
0001
0000
0001
0000
1100
0000
1000
0010
1000
0100
0001
0010
1100
0000
0001
0000
,
0001
0000
0001
0000
1100
0000
0001
1000
0010
0001
1000
0001
0110
0000
1000
0000
,
0010
0000
0010
0000
0101
0000
0010
0001
1000
0010
0100
0010
1001
0000
0100
0000
,
1000
0000
1000
0000
0110
0000
0100
0001
0100
0010
1000
0001
0110
0000
1000
0000
,
0001
0000
0001
0000
0110
0000
1000
0100
0001
1000
0100
1000
0011
0000
1000
0000
,
0110
0000
1000
0010
0101
0000
0001
0010
1100
0000
0001
0100
1010
0000
0001
0100
,
0011
0100
0011
0100
0011
0100
0011
0100
,
0011
0000
0010
0000
0101
0000
0100
1000
0100
0010
0100
0001
0110
0000
1000
0100
,
0010
0000
0001
0000
0110
0000
0100
0010
0100
1000
0100
1000
0110
0000
0001
0100
,
0010
0000
0100
0000
1001
0000
0100
0010
0100
0010
1000
0010
0101
0000
0010
0100
,
1000
0000
0010
0000
1001
0000
0010
0001
0010
1000
0010
0100
1010
0000
0001
1000
,
0100
0000
0100
0000
1001
0000
0010
0100
0010
0001
0010
0100
1001
0000
0100
0010
,
0001
0000
0100
0000
0011
0000
0001
0100
0010
0100
1000
0010
1001
0000
0100
0010
,
0100
0000
0010
0000
1100
0000
0010
0100
0001
0100
1000
0001
1100
0000
0101
0000
,
0011
0000
0000
0000
0011
0000
0101
0000
0011
0100
0010
0100
0011
1000
0101
0000
,
1100
0010
1010
0110
1000
0011
0110
1100
,
0110
0001
0110
0011
0100
1010
0110
1000
,
0101
0010
1001
1010
0100
1001
1010
1100
,
0101
0010
1001
0110
0001
1100
0101
1000
,
0110
0001
1010
1100
0010
0101
1001
0011
,
1001
0010
1100
1001
0010
1001
0101
0010
,
1001
0100
0011
0101
1000
0101
0011
1010
,
1100
0000
0000
0000
1100
0000
1001
0000
1100
0010
0100
0010
1100
0001
1010
0000
,
1001
0000
0001
0000
0110
0000
0011
0100
0010
0001
0110
1000
0011
0000
1001
0100
,
0011
0000
1000
0000
0011
0000
0110
0001
0010
0100
1010
0100
0011
0000
1000
0010
,
0101
0000
0010
0000
1100
0000
1010
0001
0010
0001
1100
0001
1010
0000
1001
0010
,
0101
0000
0001
0000
1100
0000
0011
1000
0001
0100
1001
0010
0101
0000
1000
0100
,
0011
0000
0010
0000
1100
0000
1001
0010
0001
1000
0101
0010
1100
0000
0110
0001
,
1100
0000
0010
0000
1001
0000
1100
0010
0001
0010
1100
0001
1100
0000
0010
0001
,
1010
0000
0001
0000
0110
0000
0101
0010
1000
0010
0101
1000
0110
0000
1010
0000
,
1001
0000
0100
0000
1010
0000
1001
0010
0001
1000
0110
1000
0011
0000
0100
0010
,
1001
0000
1000
0000
0110
0000
1100
0010
0100
1000
0110
0001
1100
0000
1001
0010
,
1100
0000
0001
0000
1100
0000
0110
1000
0100
0010
0101
0010
1100
0000
0001
0100
,
1010
0000
0100
0000
0011
0000
0101
1000
0100
1000
0011
1000
0101
0000
1001
0100
,
1010
0000
1000
0000
0011
0000
1100
0001
1000
0010
1001
0100
1010
0000
0001
0010
,
1100
0000
0100
0000
0011
0000
1001
0100
1000
0001
1010
0100
0011
0000
0110
1000
,
0011
0000
0100
0000
1001
0000
0011
0100
1000
0100
0011
1000
0011
0000
0100
1000
,
0101
0000
1000
0000
0110
0000
1010
0100
0001
0100
1010
0001
0110
0000
0101
0000
,
1001
0000
0010
0000
0101
0000
1001
0100
1000
0001
0110
0001
1100
0000
0010
0100
,
1001
0000
0101
0010
0000
0100
1010
0100
,
0010
0000
0101
0010
0000
0100
1001
0000
,
0010
0000
1010
0001
0000
0010
0101
0010
,
0001
0000
1010
0001
0000
0010
1100
0000
,
0001
0000
0110
0001
0000
0100
0011
0100
,
1000
0000
0110
0001
0000
0010
1001
0000
,
1000
0000
1001
0100
0000
0010
1100
0010
,
1001
0010
0001
0010
1100
0000
0110
1000
0001
1000
0110
0000
1001
0000
0000
0000
,
1010
0000
1010
0100
0000
0010
0101
0010
,
0100
0000
1010
0100
0000
0010
1001
0000
,
0100
0000
0101
1000
0000
0100
1010
0100
,
1000
0000
0101
1000
0000
0100
0011
0000
,
1000
0000
1001
1000
0000
0010
1100
0010
,
0001
0000
1001
1000
0000
0100
0110
0000
,
0001
0000
0110
0010
0000
0100
0011
0100
,
1100
0010
0100
0010
0101
0000
0110
0001
0100
1000
0110
0000
0011
0100
0010
0001
;

//---------------dance-single - ----------------
#NOTES:
     dance-single:
     :
     Hard:
     11:
     1.000,1.000,1.000,0.030,0.388,1927.000,605.000,9.000,0.000,0.000:
0000
0000
1000
1000
0100
0100
0010
0010
,
0001
0001
1000
1000
0100
0100
0010
0010
,
0001
0001
1000
1000
0100
0100
0010
0010
,
0001
0001
1000
1000
0100
0100
0010
0010
,
0001
0001
1000
1000
0100
0100
0010
0010
,
0001
0001
1000
1000
0100
0100
0010
0010
,
0001
0001
1000
1000
0100
0100
0010
0010
,
0001
0000
0001
0000
0100
0000
0100
0000
0001
0000
0010
0001
1000
0100
0010
0100
,
1000
0000
0100
1000
0001
0000
0001
0000
1000
0000
0100
1000
0001
0010
0100
0010
,
0001
0000
0010
0000
0100
0000
0100
0000
0001
0000
0100
0010
0001
0010
0100
1000
,
0100
0000
1000
0100
0010
0000
0010
0000
0001
0000
1000
0100
0001
0010
0100
0000
,
1000
0100
1000
0000
0100
0010
0100
0000
0010
0001
0010
0000
1000
0000
0100
0000
,
1000
0000
0010
0100
1001
0000
0001
0000
0100
0000
1000
0100
0010
0001
1000
0001
,
0010
0000
1000
0000
0010
0000
0010
0000
1000
0000
0001
0010
0100
1000
0001
1000
,
0100
0000
0001
0000
0100
0000
0100
0000
0010
0000
0010
0100
1000
0001
0010
0001
,
0100
0000
0010
0000
0100
0000
0010
0000
1000
0000
0010
0100
1000
0000
0010
0100
,
2002
0000
0000
3003
0100
0000
1000
0000
0011
0000
0001
1000
0100
0001
0010
0001
,
0100
0000
0001
0000
0010
0000
0100
0000
0011
0000
0100
1000
0010
0001
0100
1000
,
0010
0000
0100
0000
1000
0000
1000
0000
0110
0000
0100
0010
1000
0100
0010
0000
,
1000
0100
0010
0000
0100
0010
0001
0000
1000
0100
0001
0000
1000
0000
0100
0000
,
0010
0000
0100
0010
0100
0000
0100
0000
0011
0000
1000
0100
1000
0010
0100
0010
,
0001
0000
0100
0000
0010
0000
0010
0000
0101
0000
0010
0100
0010
0001
0100
1000
,
0010
0000
1000
0000
0100
0000
0100
0000
1001
0000
0010
0100
0010
1000
0001
0010
,
0100
0000
0010
0000
1001
0000
0000
0000
0110
0000
1000
0100
0010
0000
0100
0010
,
2002
0000
0000
3003
0110
0000
0001
0000
1010
0000
0100
0000
1001
0000
0100
0000
,
0011
1000
0110
1000
0011
0100
1001
0001
,
1100
0000
0001
0000
0110
0000
0001
0000
1100
0000
0001
0000
0100
0010
0100
0000
,
1000
0010
0100
0000
1000
0100
1000
0000
0001
0010
0100
0000
0011
0000
1000
0000
,
0011
0000
0100
0001
1010
0000
0100
0000
1001
0000
0010
0000
1100
0000
0010
0000
,
0101
1000
0110
0001
1010
0100
1001
0010
,
0101
0010
1001
0010
1100
0010
1001
0100
,
1010
0000
0100
0000
1001
0000
0010
0000
0101
0000
1000
0100
0010
0000
0100
0010
,
2002
0000
0000
3003
0001
0000
0001
0000
1010
0000
0100
0001
1000
0100
0001
0010
,
1100
0000
0010
0000
0001
0000
0001
0000
1100
0000
0001
0010
1000
0010
1000
0100
,
0011
0000
0100
0000
1000
0000
1000
0000
0101
0000
0001
0010
0100
0010
0100
0000
,
1000
0010
1000
0000
0100
1000
0100
0000
0100
0010
0001
0000
0010
0000
0100
0000
,
1010
0000
0100
0000
0001
0000
0001
0000
1100
0000
0010
0100
0001
0010
0001
0010
,
1100
0000
0010
0000
0001
0000
0001
0000
0110
0000
0001
0100
0010
0100
0010
1000
,
0101
0000
0010
0000
1000
0000
1000
0000
0110
0000
1000
0100
0010
1000
0001
0000
,
1001
0000
0000
0000
0010
0000
0100
1000
0100
0000
0001
0010
0100
0000
0010
0100
,
1000
0000
1000
0000
0101
0011
1000
0100
,
0010
0101
0010
1100
0001
0100
0011
0011
,
0000
0000
0010
0000
0110
0000
0000
0101
,
0010
0000
0100
0000
1000
0000
0001
0000
0110
0000
0000
0000
0001
0100
1000
0100
,
0001
0010
0100
1000
0110
0000
0001
0000
1100
0000
0010
0000
0000
0000
1000
0000
,
0101
0010
0001
0000
0110
0000
0000
0000
,
0101
0000
0100
0010
1100
0010
0000
0001
,
1010
0100
0000
0000
0101
0010
1001
0110
,
0110
1001
0110
0011
,
1100
0000
1001
0010
0101
0010
1100
0000
,
0110
0000
0011
0000
0011
0000
0011
1000
,
0101
0010
1001
0010
0101
0000
1001
0000
,
1100
0000
0011
0100
1010
0100
0011
1000
,
0101
0010
1100
0010
1001
0010
1100
0000
,
1010
0000
0011
0000
0011
1000
0101
1000
,
0110
0000
0101
1000
0011
0011
0000
1000
,
0110
0000
0110
0000
1001
0000
0010
0000
1001
0000
0010
0000
0101
0000
1000
0010
,
0100
0010
0100
0010
1001
0000
0010
0000
0100
0000
1000
0000
0001
0000
1000
0000
,
0011
1000
0011
0101
0010
0100
1000
0100
,
0010
0100
1010
0001
1100
0010
1001
0110
,
0001
1100
0010
1000
0100
0010
0100
0010
,
1000
0010
1001
0010
1000
0010
1000
0100
,
0011
0100
0011
1001
0100
1000
0010
1000
,
0100
1000
0011
0100
1001
0010
1100
0110
,
0001
1100
0101
0011
1100
0110
0011
1001
,
1100
1010
0011
1000
0100
1000
0010
0001
,
0110
1000
0101
1100
0010
1000
0001
0100
,
0010
0100
1010
0001
1100
0010
1001
0100
,
0011
1100
0010
0100
0001
1000
0010
0100
,
0010
1000
0101
0010
0100
0010
0001
1000
,
0110
0100
1001
1001
0010
1000
0100
1000
,
0100
0010
1001
0010
1001
0010
0101
0101
,
1100
0101
0110
0000
0110
0000
0110
0110
,
0110
0110
0110
0000
0110
0110
0110
0110
,
0000
0000
0000
0000
1001
0010
0100
1000
0010
0100
0001
0100
1000
0100
0010
0001
,
0100
1000
0010
0100
0010
0100
1000
0010
0100
0010
0001
0010
0001
0100
1000
0100
,
0010
0100
0010
0001
0000
0000
1000
0000
0010
0000
0110
0000
1000
0000
0100
0000
,
0010
0011
1000
0011
0100
1000
0110
0011
,
0100
0000
0000
0010
1001
0100
0010
1001
,
0100
0010
0001
0100
0110
1000
0100
0010
,
1000
0100
0010
0001
1100
0000
0010
0000
0101
0000
1000
0000
0010
0000
0001
0000
,
1100
0010
0100
1000
0110
0001
0010
1000
,
0011
0000
0000
0001
1100
0010
0100
1000
,
0110
0001
1010
0000
1010
0000
1010
0100
,
1010
0100
1010
0001
0110
0011
0100
1000
,
0010
0101
0010
1000
0100
0001
1100
1100
,
0010
0000
0000
0100
0011
1000
0001
0110
,
0000
0000
0010
0001
1100
0010
0100
1000
,
0001
0010
0001
0100
1001
0000
0100
0000
0011
0000
1000
0000
0110
0000
1000
0000
,
0101
0010
1001
0010
1100
0010
0101
0010
,
1100
0010
0101
1000
0110
1000
0010
0100
,
1001
0100
1001
0010
1001
0010
1001
0010
,
1001
0000
1001
0000
1100
0000
0101
1000
,
0011
1100
0000
0000
0110
0000
0011
1000
,
0110
0011
0000
0000
1100
0000
0110
0011
,
0011
0011
0100
1000
0010
0020
0000
0000
,
0000
0000
1030
0010
0001
0100
0010
1000
,
0101
0101
0110
0110
1100
1100
0011
0012
,
0103
0010
0100
0010
0100
1000
0010
0100
,
0000
0002
0000
0000
0000
0000
0000
0000
,
0000
0000
0013
1000
0100
1000
0100
0010
1000
0001
0100
1000
0100
0010
1000
0001
,
0100
0010
1000
0100
0000
0000
0001
0010
0100
1000
0001
0100
1000
0100
0010
1000
,
0010
0001
0010
0000
0010
1000
0100
0000
0100
0010
0001
0000
0010
0001
1000
0000
,
0001
0010
0001
0000
0100
0001
0100
0000
0100
0010
1000
0100
0010
0000
1000
0000
,
0100
1000
0100
0000
1010
0000
0101
0000
0011
0000
1010
0000
0000
0000
0000
0000
,
0011
0000
0101
0011
1100
0101
0000
0000
,
0101
0000
0110
1100
0011
1010
0000
0000
,
1010
0000
0000
0000
0001
0010
0100
0000
0010
0100
1000
0000
0100
0010
1000
0100
,
0001
0000
1001
0100
0010
0001
1000
0001
,
1100
0001
1100
1010
0100
0010
0001
0010
,
0100
0010
0101
1000
0101
0010
1100
0010
,
1100
0011
0100
1000
0010
0100
0010
0001
,
0100
1000
0100
0010
0101
0000
1000
0000
0001
0000
1000
0000
0001
0000
0010
0000
,
1100
0010
1100
1001
0010
0001
0100
0001
,
0010
0001
1100
0010
1001
1100
0011
1010
,
0100
0011
1010
1100
0011
0110
1100
1001
,
0011
0101
1100
0010
0001
0010
0100
1000
,
0110
0001
1010
0011
1100
0001
1000
0010
,
0100
0010
0101
1000
0011
0100
1001
0010
,
1100
0010
1001
0010
1000
0001
0100
1000
,
0010
0001
0010
0100
1010
0000
0100
0000
0010
0000
0100
0000
1000
0000
0001
0000
,
0110
0010
1001
1001
0010
0100
0010
0001
,
0010
0100
1001
0100
1001
0100
1010
1010
,
0011
1010
1001
0000
1001
0000
1001
1001
,
1001
1001
1001
0000
1001
1001
1001
1001
,
0000
0000
1100
1000
0100
0010
0100
0010
,
0001
0010
1100
1000
0100
0010
0100
0010
,
0001
0010
1100
1100
0100
0010
0100
0010
,
0001
0010
1100
1100
0100
0010
0100
0010
,
0001
0000
0010
0000
0100
0010
0100
0001
0100
0010
0001
1000
0100
1000
0100
1000
,
0010
0100
0010
0100
1000
0100
0010
0001
0010
0001
0010
0100
1000
0100
0010
0100
,
0010
1000
0010
0100
0001
0010
0001
0010
0100
0010
1000
0001
1000
0001
0010
0100
,
1000
0010
0100
0010
1001
0000
0000
0000
1000
0000
0100
0000
0001
0000
0100
0000
,
1000
0000
0000
0000
1000
0100
0010
0001
1010
0000
0101
0000
0001
0010
0100
1000
,
0011
0000
0100
0000
0001
0010
0100
1000
0110
0000
0010
0000
0100
0010
0100
1000
,
0100
0001
0010
0001
0100
0010
0001
1000
0101
0000
1000
0000
0100
0001
1000
0100
,
0011
0000
0010
0000
1000
0001
1000
0001
0110
0000
0001
0000
0100
0001
1000
0100
,
0001
0010
0100
1000
0100
1000
0001
0100
1010
0000
0100
0000
0010
1000
0010
1000
,
0101
0010
0100
0010
1000
0100
0010
1000
0101
0000
1000
0000
1000
0010
0001
0010
,
1001
0100
0010
0100
1000
0100
0010
1000
0011
0000
0100
0000
1000
0010
0100
0001
,
1100
0010
0001
0010
1000
0001
0010
0100
1010
0000
0100
1000
0100
0000
0010
0100
,
0010
0001
1000
0100
0100
0010
0001
0010
,
0010
0100
1000
0100
0100
0010
0001
0010
,
0010
0100
1000
0100
0100
0010
0001
0010
,
0100
0010
1001
1000
0100
0010
0100
0010
,
0001
0010
0000
0001
0100
0110
0001
0010
,
0100
1100
0001
1100
0010
0001
1000
0110
,
1100
0000
0000
0100
1001
0010
0100
1001
,
0010
0100
1000
0010
0110
0001
0010
0100
,
1000
0001
0100
0010
1001
0000
0100
0000
1010
0000
0001
0000
0100
0000
1000
0000
,
0011
0100
0010
0001
0110
1000
0001
0010
,
1100
0000
0000
1000
0011
0100
0010
0001
,
1100
0010
1001
0000
1001
0000
1001
0010
,
1001
0010
1001
0100
0011
1100
0010
0001
,
0100
1010
0100
0001
0010
1000
0011
0011
,
0100
0000
0000
0010
1100
0001
1000
0110
,
0000
0000
0100
1000
0011
0100
0010
0001
,
0100
0010
1000
0001
0110
0000
0001
0000
1100
0000
0001
0000
0110
0000
0001
0000
,
1010
0100
1001
0100
0011
0100
1010
0100
,
0011
0000
1010
0001
0110
0001
0100
0001
,
0110
1000
0101
0010
0101
0010
0101
0010
,
0101
0010
1001
0100
0100
0100
0000
0100
,
1000
1000
1000
1000
0010
0010
0000
0010
,
0011
0001
0001
0001
1001
1000
0000
1000
,
1010
0010
0010
0010
0110
0100
0000
0100
,
0110
0010
0011
0001
1001
1000
0000
1000
,
1010
0010
0010
0010
0110
0010
0000
0010
,
0011
0000
0001
0010
0001
0000
0001
0000
0101
0000
0100
0000
0000
0000
0010
0000
,
1100
0010
1100
0001
1010
0100
1001
0010
,
1001
1001
1001
0100
0011
0100
0000
0110
,
1100
0010
1000
0001
0110
0001
0000
1001
,
0110
0001
0010
1000
0101
1000
0000
1010
,
0101
1000
0100
0001
1010
0001
0000
0101
,
1010
0001
0100
0011
0100
1001
0011
0100
,
1000
0100
0010
1001
0010
1100
0011
0100
,
1000
0001
0010
1100
0110
1100
0011
0110
,
0011
0101
1001
0000
1001
0000
1001
0000
,
1001
0000
0000
0000
1001
0000
0010
0000
0001
0000
0100
0010
0001
0100
1000
0100
,
0011
0000
1000
0000
0001
0000
0001
0000
0100
0000
1000
0010
1000
0100
0001
0010
,
1100
0000
0010
0000
0001
0000
0001
0000
0100
0000
0001
1000
0010
0001
1000
0001
,
0110
0000
1000
0000
0010
0000
0010
0000
0100
0000
0010
0001
1000
0010
0100
0010
,
1001
0000
0100
0000
1000
0000
1000
0000
0010
0000
0100
0001
0100
0010
1000
0001
,
0110
0000
1000
0000
0001
0000
0001
0000
0100
0000
1000
0100
0001
1000
0100
1000
,
0011
0000
1000
0000
0100
0000
1000
0010
0100
0000
0001
0010
0100
0000
0001
0100
,
1000
0000
0001
0100
0011
0000
0100
0000
0011
0000
0100
0000
0011
0000
0100
0000
,
0011
0100
0011
0010
1001
0010
1000
0001
,
0110
0001
0010
1000
0110
1000
0100
0010
,
1100
0000
0000
0100
1001
0010
0100
0010
,
0101
1000
0100
0010
1001
0100
0001
0100
,
1010
0000
0000
0010
1001
0010
0001
0100
,
1001
0100
0001
0100
0011
0100
0000
0100
,
1001
0100
0000
0010
1100
0010
0001
0010
,
1001
0100
0011
0000
0011
0100
0011
0100
,
0011
0100
1001
0110
1000
0110
1001
0010
,
0100
1000
0100
0011
1000
0011
0110
0001
,
0010
1000
0001
0110
1001
1010
0101
1000
,
0100
0010
0100
0011
1010
0101
1001
1100
,
0001
1000
0100
1001
0010
1100
0011
1000
,
0100
0010
1000
0110
0001
1100
0110
1000
,
0010
0100
1000
0110
0011
0101
1010
1100
,
0110
1001
1100
0000
1100
0010
1100
0010
,
1100
0010
1001
1000
0110
0011
1000
0110
,
0011
1001
0011
1000
0011
0110
0001
1010
,
0011
1000
0101
0010
1100
1010
0001
1100
,
1010
1001
0101
0010
1100
0011
0100
1001
,
0101
1000
0011
0010
1100
1001
0010
0101
,
1100
0110
1100
0010
1001
1100
0001
1100
,
1100
0001
1010
0001
0110
0101
1000
0101
,
0110
1010
1001
0100
1010
1001
0100
0110
,
0011
0100
1001
1000
0110
1100
0001
0110
,
1100
1001
1100
0001
1100
0110
1000
0101
,
1100
0001
1010
0100
0011
0101
1000
0011
,
0101
1001
1010
0100
0011
1100
0010
1001
,
1010
0001
1100
0100
0011
1001
0100
1010
,
0011
0110
0011
0100
1001
0011
1000
0011
,
0011
1000
0101
1000
0110
1010
0001
1010
,
0110
0101
1001
0010
0101
1001
1000
0110
,
1100
0010
1001
0000
0101
0010
0000
0100
,
1010
0100
0010
0000
0101
0010
0000
0100
,
1001
0000
0010
0000
1010
0001
0000
0010
,
0101
0010
0001
0000
1010
0001
0000
0010
,
1100
0000
0001
0000
0110
0001
0000
0100
,
0011
0100
1000
0000
0110
0001
0000
0010
,
1001
0000
1000
0000
1001
0100
0000
0010
,
1100
0010
1001
0000
1100
0110
0000
0110
,
1001
0000
1010
0000
1010
0100
0000
0010
,
0101
0010
0100
0000
1010
0100
0000
0010
,
1001
0000
0100
0000
0101
1000
0000
0100
,
1010
0100
1000
0000
0101
1000
0000
0100
,
0011
0000
1000
0000
1001
1000
0000
0010
,
1100
0010
0001
0000
1001
1000
0000
0100
,
0110
0000
0001
0000
0110
0010
0000
0100
,
0011
0100
1100
0000
0101
0110
0000
0110
,
0011
0001
0000
0000
0000
0000
0000
0000
;
