#TITLE:Fatal Tragedy;
#SUBTITLE:Scenes From a Memory (1999);
#ARTIST:Dream Theater;
#TITLETRANSLIT:;
#SUBTITLETRANSLIT:;
#ARTISTTRANSLIT:;
#CREDIT:;
#BANNER:tragedy - banner.png;
#BACKGROUND:tragedy - bg.png;
#LYRICSPATH:;
#CDTITLE:cdtitle.png;
#MUSIC:05 Fatal Tragedy.mp3;
#OFFSET:-4.044;
#SAMPLESTART:55.625;
#SAMPLELENGTH:13.000;
#SELECTABLE:YES;
#BPMS:0.000=140.000,16.500=139.140,21.000=139.940,26.000=140.160,44.000=141.140,49.000=446.038,50.000=141.160,52.000=140.320,60.000=139.700,62.000=140.540,71.000=139.480,75.000=140.100,76.000=141.520,80.000=141.100,80.500=140.460,84.500=139.840,85.000=139.480,101.000=139.920,109.000=140.540,113.500=140.100,114.000=139.880,130.000=139.680,146.000=139.940,151.000=140.200,160.000=139.660,165.000=139.860,168.000=140.280,170.000=141.720,177.000=140.100,178.000=138.880,180.000=140.140,189.000=180.980,189.250=138.740,189.750=138.520,190.000=137.280,193.000=137.300,193.500=137.720,194.000=137.920,194.500=139.140,196.000=139.760,197.000=140.180,202.500=139.760,209.000=140.380,210.000=141.040,211.750=139.820,214.000=141.900,215.500=140.240,226.000=140.020,258.000=140.200,259.000=140.440,264.000=140.220,272.000=139.800,273.250=138.580,274.000=137.560,275.000=137.820,276.000=139.260,281.000=139.480,282.000=140.100,285.000=141.120,293.000=140.440,295.000=138.660,296.000=139.500,297.000=140.320,298.000=141.600,299.000=141.500,302.000=139.880,303.000=138.460,304.000=139.520,304.500=140.320,305.667=140.880,306.000=142.360,308.500=140.240,319.000=139.620,330.000=140.240,340.000=139.820,343.000=140.440,354.000=140.000,367.000=139.560,381.000=139.780,382.000=140.600,388.000=139.980,390.000=139.380,396.000=140.800,400.000=139.980;
#STOPS:302.000=0.460
,412.938=0.500
;
#BGCHANGES:;
// cache tags:
#FIRSTBEAT:1.250;
#LASTBEAT:412.938;
#SONGFILENAME:Songs/Astronomic Metal Collection 2/(IamMe) Fatal Tragedy/Fatal Tragedy.sm;
#HASMUSIC:1;
#HASBANNER:1;
#MUSICLENGTH:183.222;
// end cache tags

//---------------dance-single - Copied from Copied f----------------
#NOTES:
     dance-single:
     Copied from Copied f:
     Challenge:
     13:
     1.000,1.000,1.000,0.431,1.000,1663.000,525.000,79.000,0.000,69.000:
0000
0000
0000
0000
0000
1001
0010
0100
1000
0000
1000
0000
0001
0010
0100
0001
,
1000
0000
1000
0000
0001
0010
0100
0001
1000
0000
1000
0000
0001
0010
0100
0001
,
1000
0000
1000
0000
0001
0010
0100
0001
1000
0000
1000
0000
0001
0010
0100
0001
,
1000
0000
0000
0000
0000
0000
0000
0000
0000
0000
0000
0000
0000
0000
0000
0000
0000
0000
0000
0000
0000
0000
0000
0000
1000
0000
0000
0000
0000
0000
0000
0000
0000
0000
0000
0000
0000
0000
0000
0000
0000
0000
0000
0000
0000
0000
0000
0000
0001
0000
0000
0000
0000
0000
0000
0000
0000
0000
0000
0000
1010
0000
0000
0000
0000
0000
0000
0000
0000
0000
0000
0000
0101
0000
0000
0000
0000
0000
0000
0000
0000
0000
0000
0000
0011
0000
0000
0000
0000
0000
0000
0000
0000
0000
0000
0000
1002
0000
0003
0000
0000
0000
0000
0000
0000
0000
0000
0000
0000
0000
0000
0000
0000
0000
0000
0000
0000
0000
0000
0000
1010
0000
0000
0000
0000
0000
0000
0000
0000
0000
0000
0000
1100
0000
0000
0000
0000
0000
0000
0000
0000
0000
0000
0000
0012
0000
0003
0000
0000
0000
0000
0000
0000
0000
0000
0000
0000
0000
0000
0000
0000
0000
0000
0000
0000
0000
0000
0000
0110
0000
0000
0000
0000
0000
0000
0000
0000
0000
0000
0000
0101
0000
0000
0000
0000
0000
0000
0000
0000
0000
0000
0000
,
1001
0000
1010
0101
1001
1110
0001
0010
1000
0101
1000
0000
0101
1010
0001
0010
,
1000
0101
1000
0000
0101
1010
0001
0010
1000
0101
1000
0000
0101
1010
0001
0010
,
1000
0101
1000
0000
0101
1010
0001
0010
1000
0101
1000
0000
0101
1010
0001
0010
,
1000
0101
1000
0000
0101
1010
0001
0010
0100
0011
1000
0010
0101
0000
0010
0100
,
1000
0101
0010
0100
1010
0111
1000
0010
0100
0011
1000
0000
0011
1100
0001
0010
,
0100
0011
1000
0000
0011
1100
0001
0010
0100
0011
1000
0000
0011
1100
0001
0010
,
0100
0011
1000
0000
0011
1100
0001
0010
0100
0011
1000
0000
0011
1100
0001
0010
,
0100
0000
0000
0000
0000
0000
0000
0000
0000
0000
0000
0000
0011
0000
0000
0000
0000
0000
0000
0000
0000
0000
0000
0000
1000
0000
0000
0000
0000
0000
0000
0000
0000
0000
0000
0000
0000
0000
0000
0000
0000
0000
0000
0000
0000
0000
0000
0000
1000
0000
0000
0000
0000
0000
0000
0000
0000
0000
0000
0000
0101
0000
0000
0000
0000
0000
0000
0000
0000
0000
0000
0000
0101
0000
0000
0000
0000
0000
0000
0000
0000
0000
0000
0000
0101
0000
0000
0000
0000
0000
0000
0000
0000
0000
0000
0000
2010
0000
3000
0000
0000
0000
0000
0000
0000
0000
0000
0000
0000
0000
0000
0000
0000
0000
0000
0000
0000
0000
0000
0000
0101
0000
0000
0000
0000
0000
0000
0000
0000
0000
0000
0000
0110
0000
0000
0000
0000
0000
0000
0000
0000
0000
0000
0000
2001
0000
3000
0000
0000
0000
0000
0000
0000
0000
0000
0000
0000
0000
0000
0000
0000
0000
0000
0000
0000
0000
0000
0000
0110
0000
0000
0000
0000
0000
0000
0000
0000
0000
0000
0000
1100
0000
0000
0000
0000
0000
0000
0000
0000
0000
0000
0000
,
0011
0000
1001
0101
0010
0000
0000
0000
1000
0001
1000
0001
0000
1000
0001
1000
,
0001
0000
0010
0100
0010
0100
0000
0010
0100
0010
0100
0000
0010
0100
0010
0000
,
1000
0010
1000
0010
0000
1000
0010
1000
0010
0000
0001
0100
0001
0100
0000
0001
,
0100
0001
0100
0000
0001
0100
0001
0000
1000
0100
1000
0100
0000
1000
0100
1000
,
0100
0000
0001
0010
0001
0010
0000
0001
0010
0001
0010
0000
0001
0010
0001
0000
,
1000
0001
1000
0001
0000
1000
0001
1000
0001
0000
0010
0100
0010
0100
0000
0010
,
0100
0000
0000
0000
0000
0000
0000
0000
0000
0000
0000
0000
0010
0000
0000
0000
0000
0000
0000
0000
0000
0000
0000
0000
0100
0000
0000
0000
0000
0000
0000
0000
0000
0000
0000
0000
0000
0000
0000
0000
0000
0000
0000
0000
0000
0000
0000
0000
0010
0000
0000
0000
0000
0000
0000
0000
0000
0000
0000
0000
0100
0000
0000
0000
0000
0000
0000
0000
0000
0000
0000
0000
0010
0000
0000
0000
0000
0000
0000
0000
0000
0000
0000
0000
0000
0000
0000
0000
0000
0000
0000
0000
0000
0000
0000
0000
0000
0000
1001
0000
0000
0000
0000
0000
0000
0000
0000
0000
0000
0000
0101
0000
0000
0000
0000
0000
0000
0000
0000
0000
0000
0000
0011
0000
0000
0000
0000
0000
0000
0000
0000
0000
0000
0000
1001
0000
0000
0000
0000
0000
0000
0000
0000
0000
0000
0000
0000
0000
0000
0000
0000
0000
0000
0000
0000
0000
0000
0000
0101
0000
0000
0000
0000
0000
0000
0000
0000
0000
0000
0000
0011
0000
0000
0000
0000
0000
0000
0000
0000
0000
0000
0000
1001
0000
0000
0000
0000
0000
0000
0000
0000
0000
,
0000
0000
0101
0000
0000
0000
0000
0000
0000
0000
0000
0000
0000
0000
0000
0000
0000
0000
0000
0000
0000
0000
0000
0000
0000
0000
1001
0000
0000
0000
0000
0000
0000
0000
0000
0000
0000
0000
1010
0000
0000
0000
0000
0000
0000
0000
0000
0000
0000
0000
1101
0000
0000
0000
0000
0000
0000
0000
0000
0000
0000
0000
1001
0000
0000
0000
0000
0000
0000
0000
0000
0000
0000
0000
0000
0000
0000
0000
0000
0000
0000
0000
0000
0000
0000
0000
1010
0000
0000
0000
0000
0000
0000
0000
0000
0000
0000
0000
1100
0000
0000
0000
0000
0000
0000
0000
0000
0000
0000
0000
1001
0000
0000
0000
0000
0000
0000
0000
0000
0000
0000
0000
1010
0000
0000
0000
0000
0000
0000
0000
0000
0000
0000
0000
0000
0000
0000
0000
0000
0000
0000
0000
0000
0000
0000
0000
0111
0000
0000
0000
0000
0000
0000
0000
0000
0000
0000
0000
0101
0000
0000
0000
0000
0000
0000
0000
0000
0000
0000
0000
1001
0000
0000
0000
0000
0000
0000
0000
0000
0000
0000
0000
0000
0000
0000
0000
0000
0000
0000
0000
0000
0000
,
0000
0000
0101
0000
0000
0000
0000
0000
0000
0000
0000
0000
0000
0000
0011
0000
0000
0000
0000
0000
0000
0000
0000
0000
0000
0000
1001
0000
0000
0000
0000
0000
0000
0000
0000
0000
0000
0000
0101
0000
0000
0000
0000
0000
0000
0000
0000
0000
0000
0000
0000
0000
0000
0000
0000
0000
0000
0000
0000
0000
0000
0000
0011
0000
0000
0000
0000
0000
0000
0000
0000
0000
0000
0000
1001
0000
0000
0000
0000
0000
0000
0000
0000
0000
0000
0000
0101
0000
0000
0000
0000
0000
0000
0000
0000
0000
0000
0000
0011
0000
0000
0000
0000
0000
0000
0000
0000
0000
0000
0000
0000
0000
0000
0000
0000
0000
0000
0000
0000
0000
0000
0000
1010
0000
0000
0000
0000
0000
0000
0000
0000
0000
0000
0000
1100
0000
0000
0000
0000
0000
0000
0000
0000
0000
0000
0000
1011
0000
0000
0000
0000
0000
0000
0000
0000
0000
0000
0000
1010
0000
0000
0000
0000
0000
0000
0000
0000
0000
0000
0000
0000
0000
0000
0000
0000
0000
0000
0000
0000
0000
0000
0000
1100
0000
0000
0000
0000
0000
0000
0000
0000
0000
,
0000
0000
1001
0000
0000
0000
0000
0000
0000
0000
0000
0000
0000
0000
1010
0000
0000
0000
0000
0000
0000
0000
0000
0000
0000
0000
1100
0000
0000
0000
0000
0000
0000
0000
0000
0000
0000
0000
0000
0000
0000
0000
0000
0000
0000
0000
0000
0000
0000
0000
0111
0000
0000
0000
0000
0000
0000
0000
0000
0000
0000
0000
0011
0000
0000
0000
0000
0000
0000
0000
0000
0000
0000
0000
1100
0000
0000
0000
0000
0000
0000
0000
0000
0000
0000
0000
0000
0000
0000
0000
0000
0000
0000
0000
0000
0000
0000
0000
0110
0000
0000
0000
0000
0000
0000
0000
0000
0000
0000
0000
0011
0000
0000
0000
0000
0000
0000
0000
0000
0000
0000
0000
1010
0000
0000
0000
0000
0000
0000
0000
0000
0000
0000
0000
0110
0000
0000
0000
0000
0000
0000
0000
0000
0000
0000
0000
0000
0000
0000
0000
0000
0000
0000
0000
0000
0000
0000
0000
0011
0000
0000
0000
0000
0000
0000
0000
0000
0000
0000
0000
1010
0000
0000
0000
0000
0000
0000
0000
0000
0000
0000
0000
0110
0000
0000
0000
0000
0000
0000
0000
0000
0000
,
0000
0000
0011
0000
0000
0000
0000
0000
0000
0000
0000
0000
0000
0000
0000
0000
0000
0000
0000
0000
0000
0000
0000
0000
0000
0000
0110
0000
0000
0000
0000
0000
0000
0000
0000
0000
0000
0000
1100
0000
0000
0000
0000
0000
0000
0000
0000
0000
0000
0000
0111
0000
0000
0000
0000
0000
0000
0000
0000
0000
0000
0000
0110
0000
0000
0000
0000
0000
0000
0000
0000
0000
0000
0000
0000
0000
0000
0000
0000
0000
0000
0000
0000
0000
0000
0000
1100
0000
0000
0000
0000
0000
0000
0000
0000
0000
0000
0000
0101
0000
0000
0000
0000
0000
0000
0000
0000
0000
0000
0000
0110
0000
0000
0000
0000
0000
0000
0000
0000
0000
0000
0000
1100
0000
0000
0000
0000
0000
0000
0000
0000
0000
0000
0000
0000
0000
0000
0000
0000
0000
0000
0000
0000
0000
0000
0000
1101
0000
0000
0000
0000
0000
0000
0000
0000
0000
0000
0000
0110
0000
0000
0000
0000
0000
0000
0000
0000
0000
0000
0000
1100
0000
0000
0000
0000
0000
0000
0000
0000
0000
0000
0000
0000
0000
0000
0000
0000
0000
0000
0000
0000
0000
,
1000
0000
0000
0000
0000
0000
0100
0000
0000
0000
0000
0000
0010
0000
0000
0000
0000
0000
0001
0000
0000
0000
0000
0000
1000
0000
0000
0000
0000
0000
0100
0000
0000
0000
0000
0000
0010
0000
0000
0000
0000
0000
0100
0000
0000
0000
0000
0000
1010
0000
0000
0000
0000
0000
0000
0000
0001
0000
0000
0000
0000
0000
0000
0000
0010
0000
0000
0000
0000
0000
0000
0000
0001
0000
0000
0000
0000
0000
1000
0000
0000
0000
0000
0000
0010
0000
0000
0000
0000
0000
0100
0000
0000
0000
0000
0000
0001
0000
0000
0000
0000
0000
0000
0000
1000
0000
0000
0000
0000
0000
0000
0010
0000
0000
0000
0000
0000
0000
0000
0000
0001
0000
0000
0000
0000
0000
0100
0000
0000
0000
0000
0000
0010
0000
0000
0000
0000
0000
1000
0000
0000
0000
0000
0000
0101
0000
0000
0000
0000
0000
0010
0000
0000
0000
0000
0000
0100
0000
0000
0000
0000
0000
0001
0000
0000
0000
0000
0000
0100
0000
0000
0000
0000
0000
1000
0000
0000
0000
0000
0000
0010
0000
0000
0000
0000
0000
0100
0000
0000
0000
0000
0000
,
1000
0000
0000
0000
0000
0000
0001
0000
0000
0000
0000
0000
0100
0000
0000
0000
0000
0000
0010
0000
0000
0000
0000
0000
1000
0000
0000
0000
0000
0000
0100
0000
0000
0000
0000
0000
0010
0000
0000
0000
0001
0000
0000
0000
0000
1000
0000
0000
0110
0000
0000
0001
0000
0000
0000
0000
0000
1000
0000
0000
0000
0000
0000
0100
0000
0000
0000
0000
0000
0000
0000
0000
0000
0000
0000
0000
0000
0000
0000
0000
0000
0000
0000
0000
0000
0000
0000
0000
0000
0000
0000
0000
0000
0000
0000
0000
2010
0000
3000
0000
0000
0000
0000
0000
0000
0000
0000
0000
2010
0000
3000
0000
0000
0000
0000
0000
0000
0000
0000
0000
0000
0000
0000
0000
0000
0000
0000
0000
0000
0000
0000
0000
0000
0000
0000
0000
0000
0000
0000
0000
0000
0000
0000
0000
0000
0000
0000
0101
0000
0000
0000
0000
0000
0000
0000
0000
0000
0000
0000
0000
0000
0000
0000
0000
0000
0000
0000
0000
2010
0000
3000
0000
0000
0000
0000
0000
0000
0000
0000
0000
2010
0000
3000
0000
0000
0000
0000
0000
0000
0000
0000
0000
,
0000
0000
0000
0000
0000
0000
0000
0000
0000
0000
0000
0000
2010
0000
3000
0000
0000
0000
0000
0000
0000
0000
0000
0000
2010
0000
3000
0000
0000
0000
0000
0000
0000
0000
0000
0000
0000
0000
0000
0000
0000
0000
0000
0000
0000
0000
0000
0000
0101
0000
0000
0000
0000
0000
0000
0000
0000
0000
0000
0000
0000
0000
0000
0000
0000
0000
0000
0000
0000
0000
0000
0000
0000
0000
0000
0000
0000
0000
0000
0000
0000
0000
0000
0000
0000
0000
0000
0000
0000
0000
0000
0000
0000
0000
0000
0000
2100
0000
3000
0000
0000
0000
0000
0000
0000
0000
0000
0000
2100
0000
3000
0000
0000
0000
0000
0000
0000
0000
0000
0000
0000
0000
0000
0000
0000
0000
0000
0000
0000
0000
0000
0000
0000
0000
0000
0000
0000
0000
0000
0000
0000
0000
0000
0000
0011
0000
0000
0000
0000
0000
0000
0000
0000
0000
0000
0000
0000
0000
0000
0000
0000
0000
0000
0000
0000
0000
0000
0000
2100
0000
3000
0000
0000
0000
0000
0000
0000
0000
0000
0000
2100
0000
3000
0000
0000
0000
0000
0000
0000
0000
0000
0000
,
0000
0000
0000
0000
0000
0000
0000
0000
0000
0000
0000
0000
2100
0000
3000
0000
0000
0000
0000
0000
0000
0000
0000
0000
2100
0000
3000
0000
0000
0000
0000
0000
0000
0000
0000
0000
0000
0000
0000
0000
0000
0000
0000
0000
0000
0000
0000
0000
0011
0000
0000
0000
0000
0000
0000
0000
0000
0000
0000
0000
0000
0000
0000
0000
0000
0000
0000
0000
0000
0000
0000
0000
0000
0000
0000
0000
0000
0000
0000
0000
0000
0000
0000
0000
0000
0000
0000
0000
0000
0000
0000
0000
0000
0000
0000
0000
2010
0000
3000
0000
0000
0000
0000
0000
0000
0000
0000
0000
2010
0000
3000
0000
0000
0000
0000
0000
0000
0000
0000
0000
0000
0000
0000
0000
0000
0000
0000
0000
0000
0000
0000
0000
0000
0000
0000
0000
0000
0000
0000
0000
0000
0000
0000
0000
0101
0000
0000
0000
0000
0000
0000
0000
0000
0000
0000
0000
0000
0000
0000
0000
0000
0000
0000
0000
0000
0000
0000
0000
2010
0000
3000
0000
0000
0000
0000
0000
0000
0000
0000
0000
2010
0000
3000
0000
0000
0000
0000
0000
0000
0000
0000
0000
,
0000
0000
0000
0000
0000
0000
0000
0000
0000
0000
0000
0000
2010
0000
3000
0000
0000
0000
0000
0000
0000
0000
0000
0000
2010
0000
3000
0000
0000
0000
0000
0000
0000
0000
0000
0000
0000
0000
0000
0000
0000
0000
0000
0000
0000
0000
0000
0000
0101
0000
0000
0000
0000
0000
0000
0000
0000
0000
0000
0000
0000
0000
0000
0000
0000
0000
0000
0000
0000
0000
0000
0000
0000
0000
0000
0000
0000
0000
0000
0000
0000
0000
0000
0000
0000
0000
0000
0000
0000
0000
0000
0000
0000
0000
0000
0000
2100
0000
3000
0000
0000
0000
0000
0000
0000
0000
0000
0000
2100
0000
3000
0000
0000
0000
0000
0000
0000
0000
0000
0000
0000
0000
0000
0000
0000
0000
0000
0000
0000
0000
0000
0000
0000
0000
0000
0000
0000
0000
0000
0000
0000
0000
0000
0000
0011
0000
0000
0000
0000
0000
0000
0000
0000
0000
0000
0000
0000
0000
0000
0000
0000
0000
0000
0000
0000
0000
0000
0000
2100
0000
3000
0000
0000
0000
0000
0000
0000
0000
0000
0000
2100
0000
3000
0000
0000
0000
0000
0000
0000
0000
0000
0000
,
0000
0000
0000
0000
0000
0000
0000
0000
0000
0000
0000
0000
2100
0000
3000
0000
0000
0000
0000
0000
0000
0000
0000
0000
2100
0000
3000
0000
0000
0000
0000
0000
0000
0000
0000
0000
0000
0000
0000
0000
0000
0000
0000
0000
0000
0000
0000
0000
0011
0000
0000
0000
0000
0000
0000
0000
0000
0000
0000
0000
0001
0000
0000
0000
0000
0000
0000
0000
0000
0000
0000
0000
0001
0000
0000
0000
0000
0000
0000
0000
0000
0000
0000
0000
0001
0000
0000
0000
0000
0000
0000
0000
0000
0000
0000
0000
1100
0000
0000
0000
0000
0000
0000
0000
0010
0000
0000
0000
0000
0000
0000
0000
0100
0000
0000
0000
0000
0000
0000
0000
0001
0000
0000
0000
0000
0000
0000
0000
0100
0000
0000
0000
0000
0000
0000
0000
1000
0000
0000
0000
0000
0000
0000
0000
0011
0000
0000
0000
0000
0000
0000
0000
0100
0000
0000
0000
0000
0000
0000
0000
1000
0000
0000
0000
0000
0000
0000
0000
0001
0000
0000
0000
0000
0000
0000
0000
0100
0000
0000
0000
0001
0000
0000
0000
0010
0000
0000
0000
0000
0000
0000
0000
,
1100
0000
0010
0000
0100
0000
0001
0000
0100
0000
1000
0000
0011
0000
0100
0000
1000
0000
0001
0000
0100
0001
0010
0000
1100
0000
0010
0000
0100
0000
0001
0000
0100
0000
1000
0000
0011
0000
0100
0000
1000
0000
0001
0000
0100
1000
0010
0000
,
1001
0000
0100
0000
0010
0000
1000
0000
0100
0000
1000
0000
0011
0000
0100
0000
1000
0000
0100
0000
0010
0100
0001
0000
1010
0000
0100
0000
0010
0000
0001
0000
0010
0000
1000
0000
0101
0000
0010
0000
0100
0000
1000
0000
0001
0010
0100
0000
,
1010
0000
0100
0000
0010
0000
0001
0000
0010
0000
1000
0000
0101
0000
0010
0000
0100
0000
1000
0000
0001
0000
0100
0000
1010
0000
0001
0100
1000
0000
0010
0000
0100
0000
0001
0000
1000
0000
0001
0010
1000
0000
0100
0000
0010
1000
0001
0000
,
0010
0000
0100
0001
1000
0000
0100
0000
0010
1000
0100
0000
0010
0000
0001
1000
0010
0000
0100
0000
1000
0001
0100
0000
1010
0000
0000
0010
0000
0000
0010
0000
0000
0100
0000
0000
0000
0000
0000
0010
0000
0000
0010
0000
0000
0010
0000
0000
,
1000
0000
0000
0000
0000
0000
0000
0000
0000
0000
0000
0000
0100
0000
0000
0000
0000
0000
0000
0000
0000
0000
0000
0000
0010
0000
0000
0000
0000
0000
0001
0000
0000
0000
0000
0000
0000
0000
0000
0000
0100
0000
0000
0000
0000
0000
0000
0000
1010
0000
0000
0000
0000
0000
0000
0000
0000
0000
0000
0000
0100
0000
0000
0000
0000
0000
0000
0000
0000
0000
0000
0000
1000
0000
0000
0000
0000
0000
0000
0000
0000
0000
0000
0000
0000
0000
0000
0000
0000
0000
0000
0000
0000
0000
0000
0000
0010
0000
0000
0000
0000
0000
0000
0000
0000
0000
0000
0000
0010
0000
0000
0000
0000
0000
0000
0000
0000
0000
0000
0000
0010
0000
0000
0000
0000
0000
0000
0000
0000
0000
0000
0000
0100
0000
0000
0000
0000
0000
0000
0000
0000
0000
0000
0000
0000
0000
0000
0000
0000
0000
0000
0000
0000
0000
0000
0000
0010
0000
0000
0000
0000
0000
0000
0000
0000
0000
0000
0000
0010
0000
0000
0000
0000
0000
0000
0000
0000
0000
0000
0000
0010
0000
0000
0000
0000
0000
0000
0000
0000
0000
0000
0000
,
1000
0000
0000
0000
0000
0000
0000
0000
0000
0000
0000
0000
0100
0000
0000
0000
0000
0000
0000
0000
0000
0000
0000
0000
0010
0000
0000
0000
0000
0000
0001
0000
0000
0000
0000
0000
0000
0000
0000
0000
0100
0000
0000
0000
0000
0000
0000
0000
1010
0000
0000
0000
0000
0000
0000
0000
0000
0000
0000
0000
0100
0000
0000
0000
0000
0000
0000
0000
0000
0010
0000
0000
0002
0000
0000
0000
0000
0000
0000
0000
0000
0000
0000
0000
0000
0000
0000
0000
0000
0000
0000
0000
0000
0000
0000
0000
0000
0000
0000
0000
0000
0000
0000
0000
0000
0000
0000
0000
0000
0000
0000
0000
0000
0000
0000
0000
0000
0000
0000
0000
0103
0000
0000
0000
0000
0000
0000
0000
1000
0000
0000
0000
0000
0000
0000
0000
0100
0000
0000
0000
0000
0000
0000
0000
1010
0000
0000
0000
0001
0000
0000
0000
0000
0000
0000
0000
0100
0000
0000
0000
0000
0000
0000
0000
0000
0000
0000
0000
0010
0000
0000
0000
0000
0000
0000
0000
0100
0000
0000
0000
0000
0000
0000
0000
0010
0000
0000
0000
0000
0000
0000
0000
,
0100
1000
0000
0001
0000
0000
0100
0000
0010
0000
0100
0000
0011
1000
0000
0100
0000
0000
0001
0000
0010
0000
0001
0000
0010
0100
0000
1000
0000
0000
0010
0000
0100
0000
0010
0000
1100
0010
0000
0001
0000
0000
1000
0000
0010
0000
1000
0000
,
0010
0001
0000
0100
0000
0000
0010
0000
0100
0000
0010
0000
0101
1000
0000
0110
0000
0000
1001
0000
0100
0011
1000
0000
0101
0000
0000
0010
0000
0000
1000
0000
0000
0010
0000
0000
1100
0000
0000
0001
0000
0000
1000
0000
0000
0110
0000
0000
,
0000
0000
0000
0000
1000
0001
0100
1010
0101
0010
1000
0100
0011
0100
0010
1100
,
0110
0000
0000
0000
0000
0000
0000
0000
0000
0000
0000
0000
0001
0000
0000
0000
0000
0000
0000
0000
0000
0000
0000
0000
0100
0000
0000
0000
0000
0000
0000
0000
0000
0000
0000
0000
0010
0000
0000
0000
0000
0000
0000
0000
0000
0000
0000
0000
1100
0000
0000
0000
0000
0000
0000
0000
0000
0000
0000
0000
0001
0000
0000
0000
0000
0000
0000
0000
0000
0000
0000
0000
0010
0000
0000
0000
0000
0000
0000
0000
0000
0000
0000
0000
0100
0000
0000
0000
0000
0000
0000
0000
0000
0000
0000
0000
1010
0000
0000
0000
0000
0000
0000
0000
0000
0000
0000
0000
0110
0000
0000
0000
0000
0000
0000
0000
0000
0000
0000
0000
0101
0000
0000
0000
0000
0000
0000
0000
0000
0000
0000
0000
1002
0000
0003
0000
0000
0000
0000
0000
0000
0000
0000
0000
0010
0000
0000
0000
0000
0000
0000
0000
0000
0000
0000
0000
0101
0000
0000
0000
0000
0000
0000
0000
0000
0000
0000
0000
1100
0000
0000
0000
0000
0000
0000
0000
0000
0000
0000
0000
0012
0000
0003
0000
0000
0000
0000
0000
0000
0000
0000
0000
,
0100
0000
0000
0000
0000
0000
0000
0000
0000
0000
0000
0000
1001
0000
0000
0000
0000
0000
0000
0000
0000
0000
0000
0000
1100
0000
0000
0000
0000
0000
0000
0000
0000
0000
0000
0000
1010
0000
0000
0000
0000
0000
0001
0000
0000
0000
0000
0000
0100
0000
0000
0000
0000
0000
0000
0000
1000
0000
0000
0000
0010
0000
0000
0000
0001
0000
0000
0000
0000
0000
0000
0000
1100
0000
0000
0000
0000
0000
0000
0000
0000
0000
0000
0000
1010
0000
0000
0000
0000
0000
0000
0000
0000
0000
0000
0000
1101
0000
0000
0000
0000
0000
0000
0000
0010
0000
0000
0000
0000
0000
0000
0000
0001
0000
0000
0000
0000
0000
0000
0000
1000
0000
0000
0000
0000
0000
0000
0000
0010
0000
0000
0000
0000
0000
0000
0000
0001
0000
0000
0000
0000
0000
0000
0000
1100
0000
0000
0000
0000
0000
0000
0000
0010
0000
0000
0000
0000
0000
0000
0000
0001
0000
0000
0000
0000
0000
0000
0000
0100
0000
0000
0000
0000
0000
0000
0000
1000
0000
0000
0000
0000
0000
0000
0000
0010
0000
0000
0000
0000
0000
0000
0000
,
0100
0000
0000
1000
0000
0010
0000
0100
0000
1000
0000
0010
0100
0000
1000
0000
0010
0000
0001
0000
1000
0000
0010
0000
0001
0000
1000
0000
0010
0000
0100
0000
1000
0000
0010
0000
0101
0000
1000
0000
0010
0000
0100
0000
1000
0000
0010
0000
,
1000
0000
0010
0000
0001
0000
1000
0000
0010
0000
0001
0000
1100
0000
0010
0000
0001
0000
0100
0000
1000
0000
0010
0000
0100
0000
0001
0000
0100
0000
0010
0000
1000
0000
0100
0000
1001
0000
0010
0000
0001
0000
1000
0000
0000
0010
0000
0001
,
0000
1000
0000
0010
0000
0000
0001
0000
0100
0000
0010
0000
1001
0000
0100
1000
0010
0000
1001
0000
0100
1000
0010
0000
1101
0000
0000
1000
0000
0000
1000
0000
0000
0100
0000
0000
0101
0000
0000
0100
0000
0000
0100
0000
0000
0101
0000
0000
,
0100
0000
0000
0000
0000
0000
0000
0000
0000
0000
0000
0000
0010
0000
0000
0000
0000
0000
0000
0000
0000
0000
0000
0000
0010
0000
0000
0000
0000
0000
0000
0000
0000
0000
0000
0000
0010
0000
0000
0000
0000
0000
0000
0000
0000
0000
0000
0000
0110
0000
0000
0000
0000
0000
0000
0000
0000
0000
0000
0000
0010
0000
0000
0000
0000
0000
0000
0000
0000
0000
0000
0000
0001
0000
0000
0000
0000
0000
0000
0000
0000
0000
0000
0000
0001
0000
0000
0000
0000
0000
0000
0000
0000
0000
0000
0000
1001
0000
0000
0000
0000
0000
0000
0000
0000
0000
0000
0000
1001
0000
0000
0000
0000
0000
0000
0000
0000
0000
0000
0000
1001
0000
0000
0000
0000
0000
0000
0000
0000
0000
0000
0000
0120
0000
0030
0000
0000
0000
0000
0000
0000
0000
0000
0000
0100
0000
0000
0000
0000
0000
0000
0000
0000
0000
0000
0000
0110
0000
0000
0000
0000
0000
0000
0000
0000
0000
0000
0000
1010
0000
0000
0000
0000
0000
0000
0000
0000
0000
0000
0000
1200
0000
0300
0000
0000
0000
0000
0000
0000
0000
0000
0000
,
1000
0000
0000
1010
0000
0000
0101
0000
0000
1001
0000
0000
0010
0000
0000
0110
0000
0000
1001
0000
0000
0101
0000
0000
1011
0000
0100
0000
1000
0000
0001
0000
0010
0000
0100
0000
1010
0000
0100
0000
0010
0000
1000
0000
0100
0000
0010
0000
,
0001
0100
0010
0001
0010
0100
1010
0001
1000
0100
0010
0001
1100
0010
1000
0001
0100
0010
0101
1000
0010
1000
0001
0010
,
0100
0000
0000
0000
0000
0000
0000
0000
0001
0000
0000
0000
0000
0000
0000
0000
0010
0000
0000
0000
0000
0000
0000
0000
1000
0000
0000
0000
0000
0000
0000
0000
0001
0000
0000
0000
0000
0000
0000
0000
0010
0000
0000
0000
0000
0000
0000
0000
0101
0000
0000
0000
0000
0000
0000
0000
0010
0000
0000
0000
0000
0000
0000
0000
0100
0000
0000
0000
0000
0000
0000
0000
1000
0000
0000
0000
0000
0000
0000
0000
0010
0000
0000
0000
0000
0000
0000
0000
0100
0000
0000
0000
0000
0000
0000
0000
1001
0000
0000
0000
0000
0000
0000
0000
0010
0000
0000
0000
0001
0000
0000
0000
0100
0000
0000
0000
0000
0000
0000
0000
1001
0000
0000
0000
0000
0000
0000
0000
0010
0000
0000
0000
0002
0000
0003
0000
0100
0000
0000
0000
0000
0000
0000
0000
1000
0000
0000
0000
0000
0000
0000
0000
0100
0000
0000
0000
1000
0000
0000
0000
0010
0000
0000
0000
0000
0000
0000
0000
1001
0000
0000
0000
0000
0000
0000
0000
0100
0000
0000
0000
2000
0000
3000
0000
0010
0000
0000
0000
0000
0000
0000
0000
,
0001
0000
0010
0100
1000
0000
0101
0000
0010
0100
0002
0000
0000
0000
0000
0010
0000
0000
0013
0000
0000
0010
0000
0000
1101
0000
0000
0000
0000
0000
0010
0000
0100
0000
0010
0000
1001
0000
0000
0100
0000
0000
0010
0000
0000
1000
0000
0000
,
0100
0000
0000
0100
0000
0000
0001
0000
0000
0010
0000
0000
1001
0000
0000
0010
0000
0000
1100
0000
0000
1010
0000
0000
1101
0000
0010
0000
0100
0000
1000
0000
0000
0010
0000
0000
1100
0000
0000
0001
0000
0000
0010
0000
0000
0101
0000
0000
,
1000
0000
0000
0000
0000
0000
0000
0000
0000
0000
0000
0000
0100
0000
0000
0000
0000
0000
0000
0000
0000
0000
0000
0000
0010
0000
0000
0000
0000
0000
0000
0000
0000
0000
0000
0000
0001
0000
0000
0000
0000
0000
0000
0000
0000
0000
0000
0000
1100
0000
0000
0000
0000
0000
0000
0000
0000
0000
0000
0000
0010
0000
0000
0000
0000
0000
0000
0000
0000
0000
0000
0000
0001
0000
0000
0000
0000
0000
0000
0000
0000
1000
0000
0000
0010
0000
0000
0000
0000
0000
0000
0000
0000
0000
0000
0000
1100
0000
0000
0000
0000
0000
0000
0000
0010
0000
0000
0000
0000
0000
0000
0000
0100
0000
0000
0000
0000
0000
0000
0000
1000
0000
0000
0000
0000
0000
0000
0000
0000
0000
0000
0000
0001
0000
0000
0000
0000
0000
0000
0000
0000
0000
0000
0000
1010
0000
0000
0000
0000
0000
0000
0000
0000
0000
0000
0000
0100
0000
0000
0000
0000
0000
0000
0000
0000
0000
0000
0000
0010
0000
0000
0000
0000
0000
0000
0000
0000
0000
0000
0000
0101
0000
0000
0000
0000
0000
0000
0000
0000
0000
0000
0000
,
1000
0000
0000
0010
0000
0000
0100
0000
0000
0001
0000
0000
1010
0000
0000
0100
0000
0000
0010
0000
0000
0101
0000
0000
1000
0000
0010
0000
0100
0000
1000
0000
0010
0000
0100
0000
1001
0000
0010
0000
0100
0000
0001
0000
0010
1000
0100
0000
,
1000
0001
0010
1000
0001
0010
1100
0001
1000
0100
0001
1000
0101
0010
0100
0010
0100
1000
0100
1000
0001
1000
0001
0010
,
0001
0000
0010
0000
0100
0000
0010
0000
0100
0000
1000
0000
0100
0000
1000
0000
0001
0000
1000
0100
0001
0000
0010
0000
0101
0000
0000
1001
0000
0000
1100
0000
0000
0110
0000
0000
0000
0000
0000
0011
0000
0000
1010
0000
0000
0101
0000
0000
,
0000
1010
1100
1001
0000
0110
0101
1001
2101
0000
0000
0000
0010
0000
3100
0010
,
0001
0000
0100
0000
0001
0000
0010
0000
0001
0000
1000
0000
0011
0000
0100
0000
0001
0000
0110
0000
0001
1000
0010
0000
1201
0000
0000
0000
0000
0000
0300
0000
0000
0200
0000
0000
0010
0000
0000
0000
0000
0000
0000
0000
0000
0000
0000
0000
,
1300
0000
0000
0000
0000
0000
0000
0000
0100
0000
0000
0000
0000
0000
0000
0000
0010
0000
0000
0000
0000
0000
0000
0000
1000
0000
0000
0000
0000
0000
0000
0000
0100
0000
0000
0000
0000
0000
0000
0000
0010
0000
0000
0000
0000
0000
0000
0000
1001
0000
0000
0000
0000
0000
0000
0000
0100
0000
0000
0000
0000
0000
0000
0000
0001
0000
0000
0000
0000
0000
0000
0000
1000
0000
0000
0000
0000
0000
0000
0000
0100
0000
0000
0000
0000
0000
0000
0000
0001
0000
0000
0000
0000
0000
0000
0000
1010
0000
0000
0000
0000
0000
0000
0000
0000
0000
0000
0000
0110
0000
0000
0000
0000
0000
0000
0000
0000
0000
0000
0000
0011
0000
0000
0000
0000
0000
0000
0000
0000
0000
0000
0000
2100
0000
3000
0000
0000
0000
0000
0000
0000
0000
0000
0000
0020
0000
0000
0000
0000
0000
0000
0000
0000
0000
0000
0000
0101
0000
0000
0000
0000
0000
0000
0000
0000
0000
0000
0000
1001
0000
0000
0000
0000
0000
0000
0000
0000
0000
0000
0000
2100
0000
3000
0000
0000
0000
0000
0000
0000
0000
0000
0000
,
0000
0000
0000
1001
0000
0000
0101
0000
0000
1100
0000
0000
0000
0000
0000
0101
0000
0000
1001
0000
0000
0101
0000
0000
1231
0000
0000
0000
0000
0000
0000
0000
0300
0000
0200
0000
0001
0000
0000
0000
0300
0000
0200
0000
0000
0000
0000
0000
,
0000
0000
0000
0000
0000
0000
0000
0000
0300
0000
0000
0000
0020
0000
0000
0030
0200
0000
0000
0000
0000
0000
0000
0000
0000
0000
0000
0000
0000
0000
0000
0000
0000
0000
0000
0000
0000
0000
0000
0000
0000
0000
0000
0000
0000
0000
0000
0000
0301
0000
0000
0000
0000
0000
0000
0000
0000
0000
0000
0000
0100
0000
0000
0000
0000
0000
0000
0000
0000
0000
0000
0000
1000
0000
0000
0000
0000
0000
0000
0000
0100
0000
0000
0000
0000
0000
0000
0000
0010
0000
0000
0000
0000
0000
0000
0000
0100
0000
0000
0000
0000
0000
0000
0000
0000
0000
0000
0000
2000
0000
0000
0000
0000
0000
0000
0000
0000
0000
0000
0000
0000
0000
0000
0000
0000
0000
0000
0000
0000
0000
0000
0000
0000
0000
0000
0000
0000
0000
0000
0000
0000
0000
0000
0000
3101
0000
0000
0000
0000
0000
0000
0000
0010
0000
0000
0000
0000
0000
0000
0000
0100
0000
0000
0000
0000
0000
0000
0000
1000
0000
0000
0000
0000
0000
0000
0000
0010
0000
0000
0000
0000
0000
0000
0000
0100
0000
0000
0000
0000
0000
0000
0000
,
0002
0000
0000
0003
0000
0000
0000
0000
0020
0000
0000
0030
0000
0000
0000
0000
0200
0000
0000
0000
0000
0000
0000
0000
0000
0000
0000
0000
0000
0000
0000
0000
0000
0000
0000
0000
0000
0000
0000
0000
0000
0000
0000
0000
0000
0000
0000
0000
0010
0000
0000
0000
0000
0000
0000
0000
0000
0000
0000
0000
0000
0000
0000
0000
0000
0000
0000
0000
0000
0000
0000
0000
0010
0000
0000
0000
0000
0000
0000
0000
0000
0000
0000
0000
0010
0000
0000
0000
0000
0000
0000
0000
0000
0000
0000
0000
1321
0000
0000
0000
0000
0000
0000
0000
0000
0000
0000
0000
0000
0000
0000
0000
0000
0000
0000
0000
0000
0000
0000
0000
0030
0000
0000
0000
0000
0000
0000
0000
0020
0000
0000
0000
0000
0000
0000
0000
0000
0000
0000
0000
0000
0000
0000
0000
0101
0000
0000
0000
0000
0000
0000
0000
0030
0000
0000
0000
0000
0000
0000
0000
2000
0000
0000
0000
3000
0000
0000
0000
0020
0000
0000
0000
0030
0000
0000
0000
0000
0000
0000
0000
1200
0000
0000
0000
0300
0000
0000
0000
0000
0000
0000
0000
,
0002
0000
0000
0000
0000
0000
0000
0000
0003
0000
0000
0000
1010
0000
0100
0000
0010
0000
0001
0000
0010
0000
0100
0000
1000
0000
0010
0000
0100
0000
0001
0000
0010
0000
0100
0000
1001
0000
0010
0000
0100
0000
1000
0000
0001
0010
0100
0000
,
0010
0000
1000
0000
0100
0000
0010
0000
0100
0000
0001
0000
1100
0000
0010
0000
0100
0000
1000
0000
0100
0000
0001
0000
2010
0000
0000
0101
0000
0000
0011
0000
0000
0110
0000
0000
0000
0000
0000
0101
0000
0000
3011
0000
0000
1100
0010
0000
,
0200
0011
1001
1010
0000
1001
0011
1010
2311
0000
0000
0000
0100
0000
0000
0000
,
0000
0000
3200
0000
1000
0320
0000
0000
0032
0000
0000
0000
0010
0000
2003
3200
,
0000
0000
0000
0000
0310
0200
0000
0300
0200
0000
0000
0000
0301
0100
1000
0010
,
0100
0000
0001
0000
1000
0000
0100
0000
0001
0000
0010
0000
0101
0000
1000
0000
0010
0000
1100
0000
0001
0100
0010
0000
1101
0000
0010
0000
1000
0000
0100
0000
0010
0000
0001
0000
1010
0000
0001
0000
0100
0000
0010
0000
0001
0010
1000
0000
,
0100
0000
1000
0000
0100
0000
0010
0000
0001
0000
1000
0000
0101
0000
0010
0000
0100
0000
0001
0000
1000
0000
0100
0000
0010
0000
0000
0100
0000
0000
0010
0000
0100
0000
0010
0000
1100
0000
0010
0000
0100
0000
0010
0000
0100
1000
0010
0000
,
0001
0000
0000
0000
0000
0000
0000
0000
0000
0000
0000
0000
0000
0000
0000
0000
1000
0000
0000
0000
0000
0000
0000
0000
0200
0000
0000
0000
0000
0000
0000
0000
0000
0000
0000
0000
0000
0000
0000
0000
0000
0000
0000
0000
0000
0000
0000
0000
0010
0000
0000
0000
0000
0000
0000
0000
0000
0000
0000
0000
0000
0000
0000
0000
0000
0000
0000
0000
0000
0000
0000
0000
0000
0000
0000
0000
0000
0000
0000
0000
0000
0000
0000
0000
0310
0000
0000
0000
0000
0000
2000
0000
0000
0000
0000
0000
0000
0000
0000
0000
0000
0000
0000
0000
0000
0000
0000
0000
0000
0000
0000
0000
0000
0000
0000
0000
0000
0000
0000
0000
3100
0000
0000
0000
0000
0000
0000
0000
0010
0000
0000
0000
0000
0000
0000
0000
0001
0000
0000
0000
0000
0000
0000
0000
1100
0000
0000
0000
0000
0000
0000
0000
0010
0000
0000
0000
0000
0000
0000
0000
0001
0000
0000
0000
0000
0000
0000
0000
1000
0000
0000
0000
0000
0000
0000
0000
0010
0000
0000
0000
0100
0000
0000
0000
0001
0000
0000
0000
0000
0000
0000
0000
,
1000
0000
0000
0000
0000
0000
0000
0000
0001
0000
0000
0000
0000
0000
0000
0000
1000
0000
0000
0000
0000
0000
0000
0000
0100
0000
0000
0000
0000
0000
0000
0000
1000
0000
0000
0000
0000
0000
0000
0000
0100
0000
0000
0000
0000
0000
0000
0000
1010
0000
0000
0000
0000
0000
0000
0000
0001
0000
0000
0000
0000
0000
0000
0000
0100
0000
0000
0000
0000
0000
0000
0000
0010
0000
0000
0000
0000
0000
0000
0000
0001
0000
0000
0000
0000
0000
0000
0000
1000
0000
0000
0000
0000
0000
0000
0000
0101
0000
0000
0000
0000
0000
0000
0000
0000
0000
0000
0000
0101
0000
0000
0000
0000
0000
0000
0000
0000
0000
0000
0000
0101
0000
0000
0000
0000
0000
0000
0000
0000
0000
0000
0000
2010
0000
3000
0000
0000
0000
0000
0000
0000
0000
0000
0000
0000
0000
0000
0000
0000
0000
0000
0000
0000
0000
0000
0000
0101
0000
0000
0000
0000
0000
0000
0000
0000
0000
0000
0000
0011
0000
0000
0000
0000
0000
0000
0000
0000
0000
0000
0000
2001
0000
3000
0000
0000
0000
0000
0000
0000
0000
0000
0000
,
0000
0000
0000
0110
0000
0000
1001
0000
0000
1100
0000
0000
0000
0000
0000
0110
0000
0000
0011
0000
0000
1100
0000
0000
1011
0000
0100
0000
0010
0000
1000
0000
0100
0000
0010
0000
1001
0000
0100
0000
0010
0000
1000
0000
0100
0000
0010
0000
,
0001
0100
0010
0001
0100
0010
1001
0100
0010
0001
0100
0010
1000
0100
0010
1000
0100
0010
1001
0100
0010
1000
0100
0010
,
0001
0000
0010
0000
0100
0000
0001
0000
0010
0000
0100
0000
1020
0000
0000
0000
0000
0000
0000
0000
0000
0000
0000
0000
0000
0000
0000
0230
0000
0000
0000
0000
0000
0000
0000
0000
0001
0000
0000
2300
0000
0000
3200
0000
0000
0000
0000
0000
,
0000
0000
0000
0000
0000
0000
2301
0000
0000
0000
0000
0000
3001
0010
0100
1000
0010
0100
1001
0010
0100
1000
0010
0100
,
1000
0000
0100
0000
0010
0000
0001
0000
0100
0000
0010
0000
1001
0000
0100
0000
0010
0000
1001
0000
0100
1000
0010
0000
1101
0000
0010
0000
0100
0000
1000
0000
0000
0100
0000
0000
0010
0000
0000
0100
0000
0000
1001
0000
0010
0000
0000
0000
,
0100
0000
0000
1001
0000
0000
0010
0000
0000
0100
0000
0000
1010
0000
0000
0001
0000
0000
1100
0000
0000
0110
0000
0000
1011
0000
0100
0000
0001
0000
0100
0000
0000
0010
0000
0000
1000
0000
0000
0100
0000
0000
1001
0000
0000
0010
0000
0000
,
0100
1010
0001
0100
1010
0001
0010
0100
1011
1101
1010
0101
0011
0110
1100
0011
,
1100
0101
0011
0110
1001
1100
0110
0101
1010
0000
0000
0000
1110
0001
0001
1010
,
0001
0001
0110
0001
0001
1010
0001
0001
1100
0001
1010
0001
0110
0001
0001
1010
,
0001
0001
1100
0001
0001
1010
0001
0001
0110
0001
1010
0001
1100
0001
0001
1010
,
0001
0001
0110
0001
0001
1010
0001
0001
1100
0001
1010
0001
0110
0001
0001
1010
,
0001
0001
1100
0001
0001
1010
0001
0001
0110
0001
1010
0001
1101
0010
0010
1001
,
0010
0010
0101
0010
0010
1001
0010
0010
1100
0010
1001
0010
0101
0010
0010
1001
,
0010
0010
1100
0010
0101
1001
1100
0110
0101
0010
1001
0010
1101
0010
0010
1001
,
0010
0010
0101
0010
0010
1001
0010
0010
1100
0010
1001
0010
0101
0010
0010
1001
,
0010
0010
1100
0010
0110
1001
1010
0011
0101
0110
1001
0011
1110
0001
0001
1010
,
0001
0001
0110
0001
0001
1010
0001
0001
1100
0001
1010
0001
0110
0001
0001
1010
,
0001
0001
1100
0001
0001
1010
0001
0101
0110
0001
1010
0001
1110
0001
0001
1010
,
0001
0001
0110
0001
0001
1010
0001
0001
1100
0001
1010
0001
0110
0001
0001
1010
,
0001
0001
1100
0001
0001
1010
0001
0001
0110
0001
1010
0001
1110
0001
0001
1010
,
0100
0100
1011
0100
0100
0011
1000
1000
0111
1000
0101
0010
1101
0010
0010
1100
,
0001
0001
1110
0001
0001
0110
1000
1000
0111
1000
0011
0100
1011
0100
0100
0011
,
1000
0000
0000
1000
0000
0000
0111
0000
0000
1000
0000
0000
1000
0000
0000
0011
0000
0000
0100
0000
0000
0100
0000
0000
1011
0000
0000
0100
0000
0000
0011
0000
0000
1000
0000
0000
0111
0000
1000
0000
0001
0000
1000
0000
0010
0000
0100
0000
,
0001
0000
1000
0000
0010
0000
0100
0000
0001
0000
1000
0000
0001
0000
1000
0000
0010
0000
0100
0000
0001
0000
1000
0000
0110
0000
0000
0011
0000
0000
1010
0000
0000
0110
0000
0000
1001
0000
0000
0100
0000
0000
0100
0000
0000
0011
0000
0000
,
1010
1000
0101
0010
0011
1100
0010
0010
0101
0010
1100
0001
0110
1000
1000
0101
,
0011
0010
1100
0001
0101
1010
0100
0100
1001
0100
0011
0100
1011
0100
0100
1001
,
0011
0010
0101
1000
1001
0110
0001
0001
1100
0010
0101
1000
0011
0100
0100
1010
,
1001
0001
1100
0001
0101
1010
0100
0100
0011
0100
1001
0010
1101
0010
0100
1001
,
0100
0010
1001
0010
0100
0011
1000
0010
1100
0001
1010
0100
1001
0100
0010
1001
,
0010
0100
1001
0100
0010
1100
0001
0100
0011
1000
0101
0010
1001
0010
0100
1001
,
0100
0010
1001
0010
0100
0011
1000
0010
1100
0001
1010
0100
1021
0000
2131
0000
,
3112
0000
0000
0003
1111
0000
0010
0000
0010
0000
0010
0000
0010
0000
0010
0000
,
0010
0010
0010
0010
0010
0010
0010
0010
,
0010
0010
0100
0100
0100
0100
0100
0100
,
0100
0100
0100
0100
0100
0100
0101
1100
,
0101
0000
0000
0000
0000
0000
0000
0000
0100
0000
0000
0000
0000
0000
0000
1011
0000
0000
0000
0000
0000
0000
0000
0000
0000
0000
0000
0000
0000
0000
0000
0000
0000
0000
0000
0000
0000
0000
0000
0000
0000
0000
0000
0000
0000
0000
0000
0000
0000
0000
0000
0000
0000
0000
0000
0000
0000
0000
0000
0000
0000
0000
0000
0000
;
