#TITLE:Resurrection;
#SUBTITLE:;
#ARTIST:PPK;
#TITLETRANSLIT:;
#SUBTITLETRANSLIT:;
#ARTISTTRANSLIT:;
#CREDIT:Plaguefox (gamecast.org/plaguemix);
#BANNER:resurrection-bn.png;
#BACKGROUND:resurrection-bg.jpg;
#LYRICSPATH:;
#CDTITLE:pm3cd.png;
#MUSIC:Resurrection.ogg;
#OFFSET:-0.002;
#SAMPLESTART:13.720;
#SAMPLELENGTH:12.000;
#SELECTABLE:YES;
#BPMS:0.000=140.000;
#STOPS:;
#BGCHANGES:;
// cache tags:
#FIRSTBEAT:16.000;
#LASTBEAT:264.000;
#SONGFILENAME:Songs/plaguemix series/Resurrection/resurrection.sm;
#HASMUSIC:1;
#HASBANNER:1;
#MUSICLENGTH:116.571;
// end cache tags

//---------------dance-single - HEAVY----------------
#NOTES:
     dance-single:
     HEAVY:
     Hard:
     9:
     0.460,0.538,0.146,0.034,0.214,354.000,17.000,4.000,0.000,0.000:
0000
0000
0000
0000
,
0000
0000
0000
0000
,
0000
0000
0000
0000
,
0000
0000
0000
0000
,
0100
0101
0010
1010
,
0001
0101
1000
1010
,
0001
0110
1000
0110
,
0001
0100
0000
1000
0000
0010
0000
0100
,
0001
0000
0000
0000
0000
1000
0100
0010
,
0001
0000
0000
0000
0000
1000
0100
0010
,
0001
1000
0010
0100
0001
0100
1000
0100
,
0001
0010
1000
0010
0001
0000
0100
0000
,
1001
0010
0100
0010
,
1000
0010
0100
0010
,
1000
0000
0000
0000
0000
0001
0010
0100
,
1000
0000
0000
0000
0000
0001
0010
0100
,
1000
0001
0100
0010
1000
0100
0001
0100
,
1000
0010
0001
0010
1000
0000
0100
0000
,
1001
0100
0010
0100
,
0001
0100
0010
0100
,
0001
0000
0000
1000
0000
0010
1000
0100
,
1000
0000
0000
0000
0000
0010
1000
0100
,
1000
0010
1000
0100
1000
0010
1000
0001
,
1000
0010
1000
0001
1000
0000
0100
0000
,
0010
0001
0010
0000
0000
0000
0000
0000
0010
0000
0000
0000
0100
0000
0000
0000
,
1000
0100
0010
0100
,
1000
0000
0000
0001
0000
0010
0001
0100
,
0001
0000
0000
0000
0000
0010
0001
0100
,
0001
0010
0001
0100
0001
0010
0001
1000
,
0001
0010
0001
1000
0001
0000
0100
0000
,
0010
1000
0010
0000
0000
0000
0000
0000
0010
0000
0000
0000
0100
0000
0000
0000
,
2002
0000
0000
3003
,
1000
0000
0100
0000
0010
0000
0001
0100
0000
0010
1000
0000
0100
0000
0010
0000
,
0001
0000
0100
0000
0010
0000
1000
0100
0000
0010
0001
0000
0100
0000
0010
0000
,
1000
0000
0010
0000
0100
0000
0001
0010
0000
0100
1000
0000
0010
0000
0100
0000
,
0001
0000
0010
0000
0100
0000
1000
0010
0000
0100
0001
0000
0010
0000
0100
0000
,
1000
0000
0100
0000
0010
0000
0001
1000
0000
0100
0010
0000
0001
0000
0001
0000
,
0010
0000
0100
0000
1000
0000
0001
0010
0000
0100
1000
0000
0001
0000
1000
0000
,
0001
0000
0100
0000
0010
0000
1000
0100
0000
0010
0001
0000
0100
0000
0010
0000
,
1000
0000
0100
0000
0010
0000
0001
0100
0000
0010
1000
0000
0100
0000
0010
0000
,
0001
0000
0010
0000
0100
0000
1000
0010
0000
0100
0001
0000
0010
0000
0100
0000
,
1000
0000
0010
0000
0100
0000
0001
0010
0000
0100
1000
0000
0010
0000
0100
0000
,
0001
0000
0100
0000
0010
0000
1000
0001
0000
0100
0010
0000
1000
0000
1000
0000
,
0010
0000
0100
0000
0001
0000
1000
0010
0000
0100
0001
0000
1000
0000
0001
0000
,
1000
0000
0000
0100
0000
0000
0001
0000
0000
0100
0000
0000
1000
0000
0100
0000
,
0010
0000
0000
0001
0000
0000
0100
0000
0000
0001
0000
0000
0010
0000
0100
0000
,
1000
0000
0000
0010
0000
0000
0100
0000
0000
0010
0000
0000
1000
0000
0100
0000
,
0010
0000
0000
0001
0000
0000
0100
0000
0000
1000
0000
0000
0100
0000
0001
0000
,
1000
0000
0000
0001
0000
0000
0100
0000
0000
0010
0000
0000
1000
0000
0100
0000
,
0001
0000
0000
0100
0000
0000
1000
0000
0000
0010
0000
0000
0001
0000
0010
0000
,
1000
0000
0000
0100
0000
0000
1000
0000
0000
1100
0000
0000
1000
0000
0010
0000
,
0100
0000
0000
0010
0000
0000
0100
0000
0000
0110
0000
0000
0010
0000
0100
0000
,
0001
0000
0000
0010
0000
0000
0001
0000
0000
0011
0000
0000
0001
0000
0100
0000
,
0010
0000
0000
1000
0000
0000
0010
0000
0000
1010
0000
0000
1000
0000
0100
0000
,
1000
0000
0000
0001
0000
0000
1000
0000
0000
1001
0000
0000
0001
0000
1000
0000
,
0001
0000
0000
0100
0000
0000
0001
0000
0000
0101
0000
0000
0010
0000
0100
0000
,
1000
0000
0010
0000
0100
0000
0010
0010
,
1000
0000
0001
0000
0100
0000
0001
0001
,
0010
0000
0100
0000
1000
0000
0100
0100
,
0010
0001
0100
0010
,
1001
0100
1000
0100
,
0001
0010
0001
0100
,
1000
0100
0001
1000
,
0100
0001
0100
1000
,
2002
0000
0000
0000
,
0000
0000
0000
0000
,
3003
0000
0000
0000
;

//---------------dance-single - STANDARD----------------
#NOTES:
     dance-single:
     STANDARD:
     Medium:
     5:
     0.087,0.142,0.077,0.017,0.000,60.000,9.000,2.000,0.000,0.000:























              


0000


0000


0000


0000


,              


0000


0000


0000


0000


,              


0000


0000


0000


0000


,              


0000


0000


0000


0000


,              


1000


0100


1000


0110


,              


0001


0010


0001


0110


,              


1000


0010


1000


0110


,              


0000


0100


0000


0010


0000


0100


0000


0000


,              


1001


0000


0000


0000


0000


0000


1000


0100


,               


0010


0000


0000


0000


0000


0000


1000


0100


,               


0010


0000


0100


0010


0001


0000


0010


0100


,               


1000


0000


0001


0010


0100


0000


0010


0000


,               


1001


0010


0100


0000


,               


0100


0010


0100


0000


,               


1001


0000


0000


0000


0000


0000


0001


0010


,               


0100


0000


0000


0000


0000


0000


0001


0010


,               


0100


0000


0010


0100


1000


0000


0100


0010


,               


0001


0000


1000


0100


0010


0000


0100


0000


,               


1001


0100


0010


0000


,               


0010


0100


0010


0000


,               


1001


0000


0000


1000


0000


0000


0010


1000


,               


0001


0000


0000


0000


0000


0000


0010


1000


,               


0001


0000


1000


0001


0100


0000


0001


1000


,               


0010


0000


0100


0001


1000


0000


0001


0000


,               


0110


1000


0100


0000


,               


0001


1000


0100


0000


,               


1001


0000


0000


0001


0000


0000


0100


0001


,               


1000


0000


0000


0000


0000


0000


0100


0001


,               


1000


0000


0001


1000


0010


0000


1000


0001


,               


0100


0000


0010


1000


0001


0000


1000


0000


,               


0110


0001


0010


0000


,               


1000


0001


0010


0100


,               


1000


0000


0010


0000


1000


0000


0000


0010


0000


0000


1000


0000


0010


0000


1000


0000


,               


0010


0000


0100


0000


0010


0000


0000


0100


0000


0000


0010


0000


0100


0000


0010


0000


,               


0100


0000


0001


0000


0100


0000


0000


0001


0000


0000


0100


0000


0001


0000


0100


0000


,               


0001


0000


0010


0000


0001


0000


0000


0010


0000


0000


0001


0000


0010


0000


0001


0000


,               


0010


0000


0100


0000


0010


0000


0000


0100


0000


0000


0010


0000


0100


0000


0010


0000


,               


0100


0000


1000


0000


0100


0000


0000


1000


0000


0000


0100


0000


1000


0000


0010


0000


,               


1000


0000


0100


0000


1000


0000


0000


0100


0000


0000


1000


0000


0100


0000


1000


0000


,               


0100


0000


0010


0000


0100


0000


0000


0010


0000


0000


0100


0000


0010


0000


0100


0000


,               


0010


0000


0001


0000


0010


0000


0000


0001


0000


0000


0010


0000


0001


0000


0010


0000


,               


0001


0000


0100


0000


0001


0000


0000


0100


0000


0000


0001


0000


0100


0000


0001


0000


,               


0100


0000


0010


0000


0100


0000


0000


0010


0000


0000


0100


0000


0010


0000


0100


0000


,               


0010


0000


1000


0000


0010


0000


0000


1000


0000


0000


0010


0000


1000


0000


0010


0000


,               


1000


0000


0000


0100


0000


0000


0010


0000


0000


0001


0000


0000


0001


0000


0000


0000


,               


0001


0000


0000


0100


0000


0000


0010


0000


0000


1000


0000


0000


1000


0000


0000


0000


,               


1000


0000


0000


0010


0000


0000


0100


0000


0000


0001


0000


0000


0001


0000


0000


0000


,               


0001


0000


0000


0010


0000


0000


0100


0000


0000


1000


0000


0000


1000


0000


0000


0000


,               


1000


0000


0000


0100


0000


0000


0010


0000


0000


0100


0000


0000


1000


0000


0000


0000


,               


0001


0000


0000


0100


0000


0000


0010


0000


0000


0100


0000


0000


0001


0000


0000


0000


,               


0001


0000


0000


0010


0000


0000


0100


0000


0000


1000


0000


0000


1000


0000


0000


0000


,               


1000


0000


0000


0010


0000


0000


0100


0000


0000


0001


0000


0000


0001


0000


0000


0000


,               


0001


0000


0000


0100


0000


0000


0010


0000


0000


1000


0000


0000


1000


0000


0000


0000


,               


1000


0000


0000


0100


0000


0000


0010


0000


0000


0001


0000


0000


0001


0000


0000


0000


,               


0001


0000


0000


0010


0000


0000


0100


0000


0000


0010


0000


0000


0001


0000


0000


0000


,               


1000


0000


0000


0010


0000


0000


0100


0000


0000


0010


0000


0000


1000


0000


0000


0000


,               


1000


0100


1000


0110


,               


0001


0010


0001


0110


,               


1000


0010


1000


0110


,               


0001


0100


0001


0110


,               


1000


0100


0010


0100


,               


1000


0001


0010


0100


,               


1000


0100


0010


0001


,               


1000


0100


0010


0001


,               


2002


0000


0000


0000


,               


0000


0000


0000


0000


,               


3003


0000


0000


0000


,;

//---------------dance-single - LIGHT----------------
#NOTES:
     dance-single:
     LIGHT:
     Easy:
     4:
     0.075,0.142,0.034,0.094,0.000,45.000,4.000,11.000,0.000,8.000:
0000
0000
0000
0000
,
0000
0000
0000
0000
,
0000
0000
0000
0000
,
0000
0000
0000
0000
,
1000
0000
0000
0000
,
1000
0000
0000
0000
,
0001
0000
0000
0000
,
0000
0000
0000
0000
,
1001
0000
0000
0000
,
0100
0000
0000
0000
,
0001
0000
0000
0000
,
0010
0000
0000
0000
,
1001
0000
0000
0000
,
1000
0000
0000
0000
,
1001
0000
0000
0000
,
0010
0000
0000
0000
,
1000
0000
0000
0000
,
0100
0000
0000
0000
,
1001
0000
0000
0000
,
0001
0000
0000
0000
,
0001
0000
0000
0000
,
1000
0000
0000
0000
,
0001
0000
0000
0000
,
0001
0000
0000
0000
,
0100
0000
0000
0000
,
0001
0000
0000
0000
,
1000
0000
0000
0000
,
0001
0000
0000
0000
,
1000
0000
0000
0000
,
1000
0000
0000
0000
,
0010
0000
0000
0000
,
1000
0000
0000
0000
,
0002
0000
0000
0000
,
0000
0000
0000
0000
,
2000
0000
0000
0000
,
0000
0000
0000
0000
,
0200
0000
0000
0000
,
0000
0000
0000
0000
,
3000
0000
0000
0000
,
0000
0000
0000
0000
,
0003
0000
0000
0000
,
0000
0000
0000
0000
,
0020
0000
0000
0000
,
0000
0000
0000
0000
,
0002
0000
0000
0000
,
2000
0000
0000
0000
,
0300
0000
0000
0000
,
0030
0000
0000
0000
,
0003
0000
0000
0000
,
0200
0000
0000
0000
,
0020
0000
0000
0000
,
3000
0000
0000
0000
,
0300
0000
0000
0000
,
0030
0000
0000
0000
,
0002
0000
0000
0000
,
0200
0000
0000
0000
,
0010
0000
0000
0000
,
0010
0000
0000
0000
,
0010
0000
0000
0000
,
0010
0000
0000
0000
,
0300
0000
0000
0000
,
0100
0000
0000
0000
,
0100
0000
0000
0000
,
0100
0000
0000
0000
,
2003
0000
0000
0000
,
0000
0000
0000
0000
,
3003
0000
0000
0000
;
