#TITLE:Incognito;
#SUBTITLE:;
#ARTIST:Inspector K;
#TITLETRANSLIT:;
#SUBTITLETRANSLIT:;
#ARTISTTRANSLIT:;
#CREDIT:;
#BANNER:incognito-bn.png;
#BACKGROUND:incognito-bg.png;
#LYRICSPATH:;
#CDTITLE:!Dan23!.png;
#MUSIC:Incognito.mp3;
#OFFSET:-0.070;
#SAMPLESTART:44.810;
#SAMPLELENGTH:12.010;
#SELECTABLE:YES;
#BPMS:0.000=75.000,8.000=150.000,88.000=75.000,96.000=150.000,108.000=75.000,110.000=37.500,114.000=75.000,122.000=150.000,218.000=75.000;
#STOPS:;
#BGCHANGES:;
// cache tags:
#FIRSTBEAT:8.000;
#LASTBEAT:221.000;
#SONGFILENAME:Songs/Fresh Flock of Fantastic Files F4/(Dan23) Incognito/Incognito.sm;
#HASMUSIC:1;
#HASBANNER:1;
#MUSICLENGTH:105.098;
// end cache tags

//---------------dance-single - ----------------
#NOTES:
     dance-single:
     :
     Hard:
     11:
     1.000,1.000,1.000,0.352,0.866,592.000,116.000,37.000,0.000,3.000:
0000
0000
0000
0000
,
0000
0000
0000
0000
,
1001
0000
0010
0100
0001
0000
1100
0000
0001
1000
0001
0000
1001
0000
0100
0000
,
1100
0000
0001
0000
0101
0000
1000
0010
0100
0000
0001
0000
1001
0000
1000
0000
,
1100
0000
0100
0010
0001
0000
1100
0000
0010
0100
0001
0000
1100
0000
0001
1000
,
0001
0000
1000
0000
0110
0000
0100
0010
0100
0000
0010
0000
0101
0000
0001
0000
,
1001
0000
0001
1000
0001
0000
1100
0000
0100
1000
0100
0000
1001
0000
0100
0010
,
0100
0000
0010
0000
0101
0000
1000
0100
0010
0000
0001
0000
0110
0000
0001
0000
,
1001
0000
0001
1000
0001
0000
1100
0000
0001
0000
1100
0000
0101
0000
0100
0000
,
0010
1000
0010
1000
0010
0100
0010
0100
0001
0100
0001
0100
0001
1000
0100
0010
,
1001
0100
0001
1001
0001
1000
1001
0001
,
1000
0000
0100
0000
1000
0000
0100
1000
0100
0000
1000
0000
0001
0000
1000
0000
,
1001
0001
1000
1100
0100
0010
0110
0001
,
0010
0000
0001
0000
1000
0000
0100
1000
0100
0000
1000
0000
0001
1000
0001
1000
,
1001
0001
1000
1001
0001
1000
1010
0010
,
0100
0000
0010
0000
0100
0000
0010
0100
0010
0000
0100
0000
0001
1000
0001
0010
,
0110
0001
0010
0011
0001
1000
0100
1000
,
0100
1000
0100
0010
0001
1000
0001
0100
0001
0010
0100
1000
0100
0010
0001
1000
,
1001
0001
1001
1001
0001
1100
1100
0100
,
1000
0100
1000
0010
0101
0001
1100
0100
,
1001
0001
1100
1100
0010
0101
0101
1000
,
0110
0000
0000
0000
0010
0000
0000
0000
1000
0000
0100
0000
0010
0000
0001
1000
,
0020
0230
0302
0023
0230
2300
0002
3003
0200
0320
0030
2000
3202
0303
2200
3300
,
0002
0023
0230
0320
0032
2003
3200
0300
1001
0200
0300
0020
2230
3300
0202
0303
,
1000
0100
0010
0001
1000
0100
0010
0001
0100
0010
1000
0001
0100
0000
1010
0000
,
0001
0100
0010
0100
0001
0000
1100
0000
0001
0100
0001
1000
0100
1000
0100
0010
,
1001
0100
0010
0100
0001
1000
0100
0010
0001
0100
0010
1000
0001
0000
1100
0000
,
0002
0000
0000
0000
0203
0000
0000
0000
0320
0000
0000
0000
2030
0000
0000
0000
3200
0000
0000
0000
2300
0000
0000
0000
3002
0000
0000
0000
0000
0000
0000
0000
1103
0000
0000
0000
0000
0000
0000
0000
1000
0000
0000
0000
0000
0000
0010
0100
0001
0000
0000
0000
0100
0000
0000
0000
0001
0000
0000
0000
0000
0000
0000
0000
,
1100
0000
0000
0000
0000
0000
0000
0000
0001
0000
0000
0000
0000
0000
1000
0100
0010
0000
0000
0000
0001
0000
0000
0000
1001
0000
0000
0000
0010
0000
0000
0000
1100
0000
0000
0000
0010
0000
0100
0000
0010
0000
0000
0000
0101
0000
0000
0000
0000
0000
0000
0000
0100
0000
1000
0000
0100
0000
0000
0000
0010
0000
0000
0000
,
1001
0000
1000
0010
1000
0000
0011
0000
0000
0000
1100
0010
1100
0000
0000
0000
0101
0000
0100
0010
1000
0000
1001
0000
0000
0000
0100
1000
0100
0000
0010
0000
,
0012
0000
0000
0000
0000
0000
0000
0000
0000
0000
0000
0000
1003
0000
0000
1000
0000
0000
0010
0100
0001
0010
0100
1000
0001
0000
0000
0000
0000
0000
0100
0000
0000
0010
0000
0000
0100
0000
0000
0000
0000
0000
1010
0000
0000
0000
0000
0000
,
0010
0100
0001
0000
0011
0000
1000
0100
1000
0000
0010
0000
0110
0000
0001
0010
,
0100
1000
0010
0100
0001
1000
0100
1000
0101
0000
1000
0010
0100
0000
1001
0000
,
0100
0010
0100
0000
1001
0000
0001
0010
0100
0000
1000
0000
1100
0000
0001
0100
,
0010
0000
0000
1000
0000
0000
0100
0000
0000
0010
0000
0000
0001
0000
0000
0100
0000
0000
0010
0000
1000
0000
0001
0000
0100
0000
0000
0000
0000
0000
0010
0000
0000
0100
0000
0000
0001
0000
0000
0000
0000
0000
1100
0000
0000
0000
0000
0000
,
0001
0010
0100
0000
1001
0000
0100
1000
0100
0000
0010
0000
0011
0000
0001
0010
,
0100
1000
0010
0100
0001
1000
0010
0100
1001
0000
0001
0010
0100
0000
1100
0000
,
0010
0001
0100
0000
1010
0000
0010
0100
0001
0010
0001
0100
0010
0100
0001
1000
,
0100
0000
0000
0010
0000
0000
0001
0000
0000
0100
0000
0000
0010
0000
0000
1000
0000
0000
0100
0000
0010
0000
0001
0000
1000
0000
0000
0000
0000
0000
0001
0000
0000
0100
0000
0000
0001
0000
0000
0000
0000
0000
1100
0000
0000
0000
0000
0000
,
0001
1000
0001
0000
0110
0000
0001
1000
0010
0000
0100
0000
0101
0000
1000
0100
,
0010
0001
1000
0100
0010
0001
0100
0010
1001
0000
0100
0010
0100
0000
0101
0000
,
1000
0100
0010
0000
1001
0000
0001
0010
0100
0000
1000
0000
1100
0000
0100
0010
,
0001
0000
0000
0010
0000
0000
0100
0000
0000
1000
0000
0000
0010
0000
0000
0100
0000
0000
0001
0000
0010
0000
0100
0000
1000
0000
0000
0000
0000
0000
0010
0000
0000
0100
0000
0000
0001
0000
0000
0000
0000
0000
1100
0000
0000
0000
0000
0000
,
0001
0010
0100
0000
1001
0000
0001
0100
0001
0000
1000
0000
1100
0000
0010
0100
,
0001
0010
0100
1000
0100
0010
0001
0100
1010
0000
0001
0100
0001
0000
0101
0000
,
1000
0010
0100
0000
0101
0000
1100
0000
0001
0100
0001
0100
0010
1000
0100
0010
,
0001
0000
0000
0100
0000
0000
0010
0000
0000
1000
0000
0000
0010
0000
0000
0100
0000
0000
0001
0000
0100
0000
0010
0000
1000
0000
0000
0000
0000
0000
0100
0000
0000
0000
0000
0000
0011
0000
0000
0000
0000
0000
0101
0000
0000
0000
0000
0000
,
0010
0000
1010
0000
0011
0000
0100
0000
1100
0000
0001
0000
1001
0000
0001
1000
,
0010
0000
0100
0000
0101
0000
1000
0000
1001
0000
0001
0000
0100
0010
0100
0000
,
0001
0000
1000
0010
1000
0000
0001
0000
1001
0100
0010
0100
0001
0010
0100
1000
,
0010
0100
0001
0010
1001
0000
0010
0000
1100
0000
0000
0000
0101
0000
1000
0000
,
1100
0001
0011
1000
1010
0000
0101
1000
,
1001
0000
0100
0000
1010
0000
0010
0100
0010
0000
0000
0000
1100
0000
0001
0000
,
0101
0000
0001
0000
0011
0000
0100
0000
1010
0000
0010
0100
0010
0000
0001
0000
,
1001
0000
0100
0010
0100
0000
0001
0000
2200
0000
0000
0000
0000
0000
0000
0000
,
0000
3300
0000
0000
;
