#TITLE:Lake Bodom;
#SUBTITLE:By Nicholas T. Mihaila;
#ARTIST:Children of Bodom;
#TITLETRANSLIT:;
#SUBTITLETRANSLIT:;
#ARTISTTRANSLIT:;
#CREDIT:;
#BANNER:BN.jpg;
#BACKGROUND:BG.jpg;
#LYRICSPATH:;
#CDTITLE:cdtitle.gif;
#MUSIC:children of bodom - lake bodom.mp3;
#OFFSET:0.200;
#SAMPLESTART:100.000;
#SAMPLELENGTH:12.000;
#SELECTABLE:YES;
#BPMS:0.000=142.500,13.000=140.000,33.000=112.500,34.000=138.460,65.000=139.500,73.000=73.600,89.000=148.600,116.500=160.000,117.000=139.000,119.000=148.600,121.000=144.400,152.500=173.240,153.000=145.500,185.750=94.500,186.000=150.500,216.000=149.000,245.500=144.000,249.000=140.000,250.000=148.000,281.500=103.000,282.000=140.500,314.000=148.000,346.000=144.300,362.500=148.000,376.000=147.000,394.000=130.000,394.500=149.500,424.000=140.000,426.000=149.900,457.500=110.000,458.000=149.400,490.000=141.500,506.000=146.800,530.000=138.300,537.500=150.000,538.000=145.000,554.500=148.000;
#STOPS:;
#BGCHANGES:;
// cache tags:
#FIRSTBEAT:0.500;
#LASTBEAT:568.000;
#SONGFILENAME:Songs/toune 5/COB - Lake Bodom/children of bodom - lake bodom.sm;
#HASMUSIC:1;
#HASBANNER:1;
#MUSICLENGTH:241.049;
// end cache tags

//---------------dance-single - ----------------
#NOTES:
     dance-single:
     :
     Challenge:
     13:
     1.000,1.000,0.979,1.000,1.000,1497.000,236.000,300.000,0.000,13.000:
0000
0000
0110
0000
2100
0000
3010
0100
2000
0000
3001
0010
0100
1000
0002
0000
,
0000
0000
0113
0000
2100
0000
3010
0100
2000
0000
3001
0010
1000
0100
0010
0001
,
1000
0010
0100
0001
2100
0000
3010
0100
2000
0000
3001
0010
0100
1000
0002
0000
,
0000
0000
0113
0000
2100
0000
3010
0100
2000
0000
3001
0010
1000
0100
0010
0001
,
1000
0010
0100
0001
2100
0000
3010
0100
2000
0000
3001
0010
0100
1000
0002
0000
,
0000
0000
0113
0000
2100
0000
3010
0100
2000
0000
3001
0010
1000
0100
0010
0001
,
1000
0010
0100
0001
2100
0000
3010
0100
2000
0000
3001
0010
0100
1000
0002
0000
,
0000
0000
0113
0000
2100
0000
3010
0100
2000
0000
3001
0010
1000
0100
0010
0001
,
1000
0010
0100
0001
1000
0001
0100
0000
1010
0000
0001
0000
1000
0001
0100
0000
,
1010
0000
0001
0000
1000
0000
0100
0000
1010
0000
0001
0000
2200
0000
0000
3300
,
0022
0000
0000
0033
0001
0010
0100
0000
0011
0000
1000
0000
0001
0000
0100
0000
,
0011
0000
1000
0000
0001
0000
0100
0000
0011
0000
1000
0000
0202
0000
0000
0303
,
2020
0000
0000
3030
1000
0001
0100
0000
1010
0000
0001
0000
1000
0001
0100
0000
,
1010
0000
0001
0000
1000
0001
0100
0000
1010
0000
0001
0000
2200
0000
0000
3300
,
0022
0000
0000
0033
0001
0010
0100
0000
0011
0000
1000
0000
0001
0010
0100
0000
,
0011
0000
1000
0000
0001
0010
0100
0000
0011
0000
1000
0000
0202
0000
0000
0303
,
2020
0000
0000
3030
0001
0010
0100
1000
0100
0010
0001
0100
0010
1000
0100
0010
,
0001
0010
0100
0001
1000
0100
0010
0001
0010
0100
0001
1000
0100
0001
0010
0100
,
1010
0000
0000
0000
0011
0000
0000
0000
0110
0000
1000
1000
0000
0000
0001
0000
0100
0000
1000
1000
0000
0000
0010
0000
0010
0000
1000
1000
0000
0000
0001
0000
,
0010
0000
1100
0000
1001
0000
0011
0000
0101
0000
1000
1000
0000
0000
0001
0000
0100
0000
1000
1000
0000
0000
0010
0000
0010
0000
1000
1000
0000
0000
0001
0000
,
0010
0000
1100
0000
1001
0000
0011
0000
0101
0000
1000
1000
0000
0000
0001
0000
0100
0000
1000
1000
0000
0000
0010
0000
0010
0000
1000
1000
0000
0000
0001
0000
,
0010
0000
1100
0000
1001
0000
0011
0000
0101
1000
0001
1000
0001
1000
0001
1000
0001
1000
0001
1000
0001
1000
0001
1000
0001
1000
0001
1000
0001
1000
0001
1000
,
0001
1000
0001
0010
0100
1000
0100
0010
0002
0000
0003
0000
1100
0000
1100
0000
0000
0000
0000
0000
0002
0000
0003
0000
0200
0000
0300
0000
1100
0000
1100
0000
,
0000
0000
0020
0030
0020
0030
1100
1100
0000
0000
0002
0003
0220
0330
2200
3300
,
2002
3003
0022
0033
0202
0303
1100
1100
0000
0000
0002
0003
0200
0300
1100
1100
,
0000
0000
0020
0030
0020
0030
1100
1100
0000
0000
0002
0003
0220
0330
2200
3300
,
2002
3003
0022
0033
0202
0303
1100
1100
0000
0000
0002
0003
0200
0300
1100
1100
,
0000
0000
0020
0030
0020
0030
1100
1100
0000
0000
0002
0003
0220
0330
2200
3300
,
2002
3003
0022
0033
0202
0303
1100
1100
0000
0000
0200
0300
0020
0030
1100
1100
,
0000
0000
0000
0000
0000
0000
0000
0000
0000
0000
0000
0000
0000
0000
0000
0000
0000
0000
0000
0000
0000
0000
0000
0000
0200
0000
0000
0000
0000
0000
0000
0000
0000
0000
0000
0000
0300
0000
0000
0000
0000
0000
0000
0000
0000
0000
0000
0000
0001
0000
0000
0000
0000
0000
0000
0000
0010
0000
0000
0000
0000
0000
0000
0000
0100
0000
0000
0000
0000
0000
0000
0000
1000
0000
0000
0000
0000
0000
0000
0000
0100
0000
0000
0000
0000
0000
0000
0000
0010
0000
0000
0000
0000
0000
0000
0000
0001
0000
0000
0000
0000
0000
0000
0000
0010
0000
0000
0000
0000
0000
0000
0000
0100
0000
0000
0000
0000
0000
0000
0000
0001
0000
0000
0000
0000
0000
0000
0000
0010
0000
0000
0000
0000
0000
0000
0000
0100
0000
0000
0000
0000
0000
0000
0000
1000
0000
0000
0000
0000
0000
0000
0000
0000
0000
0000
0000
0000
0000
0000
0000
0000
0000
0000
0000
0000
0000
0000
0000
0000
0000
0000
0000
0000
0000
0000
0000
0000
0000
0000
0000
0000
0000
0000
0000
0000
0000
0110
0000
0000
0000
0000
0000
,
0000
0000
0000
0000
1000
0000
0100
0010
0001
0000
0100
0010
1000
0000
0100
0010
,
0001
0000
0100
0010
1000
0000
0100
0010
0001
0000
0100
0010
1000
0100
0010
0001
,
1000
0100
0010
0001
0100
0000
1000
0100
0010
0000
1000
0001
0100
0000
1000
0100
,
0010
0000
1000
0001
0100
0000
1000
0100
0010
0000
1000
0001
0220
0000
0000
0330
,
0022
0000
0000
0033
1000
0000
0100
0001
0010
0000
0001
0010
1000
0000
0100
0001
,
0010
0000
0001
0010
1000
0000
0100
0001
0010
0000
0001
0010
1000
0010
0100
0001
,
1000
0010
0100
0001
0010
0000
0001
0010
0100
0000
1000
0001
0010
0000
0001
0010
,
0100
0000
1000
0001
0010
0000
0001
0010
0100
0000
1000
0001
0110
0000
0000
0011
,
0000
0000
1100
0000
0000
0000
0002
0003
1020
0000
0030
0000
2010
3000
0200
0300
,
1020
0000
0030
0000
2010
3000
0200
0300
1020
0030
2000
3000
1020
0030
0202
0303
,
2200
3300
0202
0303
2020
3030
0202
0303
1020
0000
0030
0000
2010
3000
0200
0300
,
1020
0000
0030
0000
2010
3000
0200
0300
1020
0030
2000
3000
1020
0030
2200
3300
,
0220
0330
2200
3300
2002
3003
2200
3300
1020
0000
0030
0000
2010
3000
0200
0300
,
1020
0000
0030
0000
2010
3000
0200
0300
1020
0030
2000
3000
1020
0030
0202
0303
,
2200
3300
0202
0303
2020
3030
0202
0303
1020
0000
0030
0000
2010
3000
0110
0000
,
0000
0000
0000
0000
0011
0000
0000
0000
0000
0000
0000
0000
0000
0000
1100
0000
0000
0000
0000
0000
0000
0000
0000
0000
0000
0000
0000
0000
0000
0000
0101
0000
0000
0000
0000
0000
0000
0000
0000
0000
1010
0000
0000
0000
0000
0100
0000
0000
,
0001
0010
1000
0010
0001
0000
0110
0110
1000
0010
1000
0010
1000
0010
1000
0010
,
0100
0100
0100
0100
0010
0010
0010
0010
0001
0100
0001
0100
0001
0100
0001
0100
,
0010
0010
0010
0010
0100
0100
0100
0100
1000
0010
1000
0010
1000
0010
1000
0010
,
0100
0100
0100
0100
0010
0010
0010
0010
0001
0100
0001
0100
0001
0100
0001
0100
,
0010
0010
0010
0010
0100
0100
0100
0100
1100
0010
1000
0010
1000
0010
1001
0000
,
0110
0000
0000
0000
0110
0000
0000
0000
0011
0100
0001
0100
0001
0100
1001
0000
,
0110
0000
0000
0000
0110
0000
0000
0000
1010
0001
1000
0001
1000
0001
1010
0000
,
0101
0000
0000
0000
0000
0000
0101
0000
0000
0001
0010
0100
1000
0100
0010
0001
0010
0100
0001
0010
0100
0010
0100
1000
,
0110
0000
0000
0000
0100
0010
0100
0010
1000
0010
1000
0010
1000
0010
1000
0010
,
0100
0100
0100
0100
0010
0010
0010
0010
0001
0100
0001
0100
0001
0100
0001
0100
,
0010
0010
0010
0010
0100
0100
0100
0100
1000
0010
1000
0010
1000
0010
1000
0010
,
0100
0100
0100
0100
0010
0010
0010
0010
0001
0100
0001
0100
0001
0100
0001
0100
,
0010
0010
0010
0010
0100
0100
0100
0100
1100
0010
1000
0010
1000
0010
1001
0000
,
0110
0000
0000
0000
0110
0000
0000
0000
0011
0100
0001
0100
0001
0100
1001
0000
,
0110
0000
0000
0000
0110
0000
0000
0000
1010
0001
1000
0001
1000
0001
1010
0000
,
0101
0000
0000
0000
0000
0000
0101
0000
0000
1000
0100
0010
1000
0100
0010
0100
0010
0001
0100
0010
0001
1000
0100
0010
,
0001
0000
0000
0000
0110
0000
0000
0000
0001
0010
0100
0010
0001
0100
0010
1000
,
0001
0010
0100
0010
0001
0100
0010
1000
0001
0010
0100
0010
0001
0100
0010
1000
,
0001
0010
0100
0010
0001
0100
1000
0001
1000
0010
0100
0010
0001
0100
0010
1000
,
0001
0010
0100
0010
0001
0100
0010
1000
0002
0010
0100
0010
1000
0000
0103
0000
,
1020
0000
0100
0000
0001
0000
0031
0000
0002
0013
0200
0310
0001
0100
0010
1000
,
0001
0010
0100
0010
0001
0100
0010
1000
0001
0010
0100
0010
0001
0100
0010
1000
,
0001
0010
0100
0010
0001
0100
0010
1000
0001
0010
0100
0010
0001
0100
0010
1000
,
0001
0010
0100
0010
0001
0100
0010
1000
0002
0010
0100
0010
0110
0000
1003
0000
,
0120
0000
0001
0000
0000
0000
1000
0000
0000
0000
0000
0000
0001
0000
0000
0000
0000
0000
0031
0000
0000
0000
0000
0000
2000
0000
0000
0000
0000
0000
3010
0000
0000
0100
0000
0000
2000
0000
0000
0000
0000
0000
3001
0000
0000
0010
0000
0000
,
0100
1000
0002
0000
0000
0000
0103
0000
2000
0000
3010
0100
2000
0000
3001
0010
,
1000
0100
0010
0001
1000
0010
0100
0001
2000
0000
3010
0100
2000
0000
3001
0010
,
0100
1000
0002
0000
0000
0000
0103
0000
2000
0000
3010
0100
2000
0000
3001
0010
,
1000
0100
0010
0001
1000
0010
0100
0001
2000
0000
3010
0100
2000
0000
3001
0010
,
0100
1000
0002
0000
0000
0000
0103
0000
2000
0000
3010
0100
2000
0000
3001
0010
,
1000
0100
0010
0001
1000
0010
0100
0001
2000
0000
3010
0100
2000
0000
3001
0010
,
0100
1000
0002
0000
0000
0000
0103
0000
1000
0100
0010
0100
1000
0100
0010
0001
,
0100
0010
0001
0010
0100
0001
0010
0100
1002
0003
1020
0000
0030
0000
2010
3000
,
0200
0300
1020
0000
0030
0000
2010
3000
0200
0300
1020
0030
2000
3000
1020
0030
,
0202
0303
2200
3300
0202
0303
2020
3030
0202
0303
1020
0000
0030
0000
2010
3000
,
0200
0300
0020
0000
0030
0000
2000
3000
0200
0300
1020
0030
2000
3101
0020
0030
,
2200
3300
0001
0010
0100
1000
0001
0010
0100
1000
1020
0000
0030
0000
2010
3000
,
0200
0300
1020
0000
0030
0000
2010
3000
0200
0300
1020
0030
2000
3000
1020
0030
,
0202
0303
2200
3300
0202
0303
2020
3030
0202
0303
1020
0000
0030
0000
2000
3000
,
0201
0300
0001
0100
0010
1000
0001
0010
0100
1000
0001
0100
0010
1000
0001
0010
,
0100
1000
0001
0100
0010
1000
0001
0010
0200
0000
0000
0000
1300
0000
0100
0000
,
0002
0000
0000
0000
0023
0000
0000
0000
1030
0000
0010
0100
1000
0000
0010
0000
,
0200
0000
1300
0100
0002
0000
0103
0010
,
0002
2003
3200
0320
,
2130
0000
0000
0001
0010
0001
3010
0001
0200
0000
0000
0000
1300
0000
0100
0000
,
0002
0000
0000
0000
0023
0000
0000
0000
1030
0000
0010
0100
1000
0000
0010
0000
,
0200
0000
1300
0100
0002
0000
0103
0010
,
0002
2003
3011
0110
,
1100
0000
0000
0000
0010
0000
0010
0000
1100
1000
0100
0100
0010
0010
0001
0001
,
1000
1000
0100
0100
0010
0010
0001
0001
1100
0001
1000
0001
1000
0001
1000
0001
,
0220
0000
0000
0330
0022
0000
0000
0033
1100
1000
0100
0100
0010
0010
0001
0001
,
1000
1000
0100
0100
0010
0010
0001
0001
1000
0010
0000
0010
1000
0000
0100
0001
,
0000
0001
1000
0000
0010
0000
0100
0010
2000
0000
0000
0000
0000
0000
0000
0000
,
0000
0000
0000
3000
0000
0000
0020
0000
0000
0030
0000
0001
0010
0100
1000
0100
0001
0010
0100
0001
0010
0100
1000
0010
,
0200
0000
0000
0000
0302
0000
0000
0000
0103
1000
0010
1000
0001
1000
0010
1000
,
0100
0000
0000
1000
0000
0000
0010
0000
0000
1000
0000
0000
0001
0000
0000
1000
0000
0000
0200
0000
0000
1300
0000
0000
0001
0000
0010
0000
0100
0000
0001
0000
0010
0000
0100
0000
0001
0000
0010
0000
0100
0000
2000
0000
0000
0000
0000
0000
,
3200
0000
0000
0000
0000
0000
0000
0000
0000
0000
0000
0000
0000
0000
0000
0000
0000
0000
0000
0000
0000
0000
0000
0000
0000
0000
0000
0000
0000
0000
0000
0000
0000
0000
0000
0000
0300
0000
0000
0000
0000
0000
0020
0000
0000
0000
0000
0000
0000
0000
0000
0000
0000
0000
0000
0000
0000
0000
0000
0000
0000
0000
0000
0000
0000
0000
0000
0000
0000
0000
0000
0000
0030
0000
0000
0000
0000
0000
0000
0000
0000
0000
0000
0000
0000
0000
0000
0000
0000
0000
0000
0000
0000
0000
0000
0000
0001
0000
0000
0000
0000
0000
0000
0000
0010
0000
0000
0000
0000
0000
0000
0000
0100
0000
0000
0000
0000
0000
0000
0000
1000
0000
0000
0000
0000
0000
0000
0000
0001
0000
0000
0000
0000
0000
0000
0000
0010
0000
0000
0000
0000
0000
0000
0000
0100
0000
0000
0000
0000
0000
0000
0000
1000
0000
0000
0000
0000
0000
0000
0000
0001
0000
0000
0000
0000
0000
0000
0000
0010
0000
0000
0000
0000
0000
0000
0000
0100
0000
0000
0000
0000
0000
0000
0000
1000
0000
0000
0000
0000
0000
0000
0000
,
0001
0010
0100
1000
0100
0010
0001
0010
0100
0001
0010
0100
0001
0010
0100
1000
0001
0010
0001
0010
0100
1000
0100
0010
,
0001
0010
0100
0001
0010
0100
0001
0010
0100
1000
0001
0010
0100
1000
0001
0010
0100
1000
0001
0010
0100
1000
0100
0010
,
1000
0100
0010
0001
0100
1000
0001
0100
1000
0001
0100
1000
0011
0000
0000
0000
0000
0000
0110
0000
0000
0000
0000
0000
,
1100
0000
0000
0000
0000
0000
0000
0000
0000
0000
0000
0000
0000
0000
0000
0001
0000
0000
0000
0000
0000
0000
0000
0000
0001
0000
0000
0000
0000
0000
0000
0000
0200
0000
0000
0000
0000
0000
0000
0000
0000
0000
0000
0000
0000
0000
0000
0000
0000
0000
0000
0000
0000
0000
0000
0000
0000
0000
0000
0000
0000
0000
0000
0000
,
0000
0000
0000
0000
,
0000
0000
0000
0300
0000
0000
0001
0000
0010
0000
0100
0000
1000
0000
0000
0100
0000
0000
0010
0000
0000
0100
0000
0000
0010
0000
0000
0001
0000
0000
0010
0000
0000
0100
0000
0000
1000
0000
0000
0010
0000
0000
0001
0000
0000
0100
0000
0000
,
0010
0000
0000
0000
0000
0000
0000
0000
0000
0000
0000
0000
0100
0000
0000
0000
0000
0000
0000
0000
0000
0000
0000
0000
1000
0000
0000
0000
0000
0000
0001
0000
0000
0000
0000
0000
0010
0000
0000
0000
0000
0000
0100
0000
0000
0000
0000
0000
0001
0000
0000
0000
0000
0000
0000
0000
0000
0000
0000
0000
0000
0000
0000
0000
0000
0000
0000
0000
0000
0000
0000
0000
0000
0000
0000
0000
0000
0000
0001
0000
0000
0000
0000
0000
0010
0000
0000
0000
0000
0000
0100
0000
0000
0000
0000
0000
0010
0000
0000
0000
0000
0000
0000
0000
0000
0000
0000
0000
0000
0000
0000
0000
0000
0000
0000
0000
0000
0000
0000
0000
0000
0000
0000
0000
0000
0000
0001
0000
0000
0000
0000
0000
0010
0000
0000
0000
0000
0000
0100
0000
0000
0000
0000
0000
2000
0000
0000
0000
0000
0000
0000
0000
0000
0000
0000
0000
0000
0000
0000
0000
0000
0000
0000
0000
0000
0000
0000
0000
3000
0000
0000
0000
0000
0000
0000
0000
0001
0000
0000
0000
0000
0000
0000
0000
0010
0000
0000
0000
0000
0000
0000
0000
,
0100
0001
0010
0100
0010
0002
0000
0000
0000
0000
0000
0003
1000
0100
0010
0001
0010
0100
1000
0100
0010
0001
0010
0100
,
1000
0000
0100
0000
0010
0000
0001
0000
0010
0000
0100
0000
2000
0000
0000
0000
3000
0000
0200
0000
0000
0000
0300
0000
0001
0000
0010
0000
0100
0000
1000
0000
0100
0000
0010
0000
0001
0000
0000
0010
0000
0000
0100
0000
0000
1000
0000
0000
,
0001
0000
0000
0010
0000
0000
0100
0000
0000
1000
0000
0000
0001
0000
0000
0000
0000
0000
0000
0000
0000
0000
0000
0000
1000
0000
0100
0000
0010
0000
0001
0000
0010
0000
0100
0000
1000
0000
0000
0000
0000
0000
0001
0000
0010
0000
0100
0000
,
1000
0010
0100
1000
0001
0100
1000
0001
0010
1000
0001
0010
0100
0001
0010
0100
1000
0010
0100
1000
0001
0100
1000
0001
,
0010
1000
0001
0010
0100
0001
0010
0100
1000
0020
0000
0000
0001
0000
0000
0000
0000
0000
1000
0000
0000
1000
0000
0000
,
0001
1001
0130
1010
,
2000
3002
2003
0000
3001
0000
1000
0100
,
0001
0000
0000
0000
1000
0000
0000
0000
0202
0000
0000
0300
1010
0000
0013
0000
,
2020
0000
0100
3000
1000
0000
0030
0000
0001
0000
0000
0000
1000
0000
0100
0000
,
0001
1001
0100
1010
,
2000
3002
2003
0000
3001
0000
1000
0100
,
0001
0000
0000
0000
1000
0000
0000
0000
0202
0000
0000
0300
1000
0000
0003
0000
,
2020
0000
0000
3000
1000
0000
0030
0000
2200
0000
0000
0000
0000
0000
0000
0000
,
0000
0000
0000
3300
0022
0000
0000
0000
,
0000
0000
0000
0033
2200
0000
0000
0000
,
0000
0000
0000
3300
0022
0000
0000
0000
,
0000
0000
0000
0000
0000
0000
0033
0000
0110
0000
1000
1000
0000
0000
0001
0000
,
0100
0000
1000
1000
0000
0000
0010
0000
0010
0000
1000
1000
0000
0000
0001
0000
,
0010
0000
1100
0000
1001
0000
0011
0000
0101
0000
1000
1000
0000
0000
0001
0000
,
0100
0000
1000
1000
0000
0000
0010
0000
0010
0000
1000
1000
0000
0000
0001
0000
,
0010
0000
1100
0000
1001
0000
0011
0000
0101
0000
1000
1000
0000
0000
0001
0000
,
0100
0000
1000
1000
0000
0000
0010
0000
0010
0000
1000
1000
0000
0000
0001
0000
,
0010
1100
1001
0011
0101
0010
0100
1000
,
0110
0010
0100
1000
0010
0001
0100
1000
,
0010
0001
1100
1000
0200
0000
1300
0100
,
0002
0000
0000
0000
0023
0000
0000
0000
1030
0000
0010
0100
1000
0000
0010
0000
,
0200
0000
1300
0100
0002
0000
0103
0010
,
0002
2003
3200
0320
,
2130
0000
0000
0001
0010
0001
3010
0001
0200
0000
0000
0000
1300
0000
0100
0000
,
0002
0000
0000
0000
0023
0000
0000
0000
1030
0000
0010
0100
1000
0000
0010
0000
,
0200
0000
1300
0100
0002
0000
0103
0010
,
0002
2003
3011
0110
,
1100
0000
0000
0000
;
