#TITLE:DiSCONNECTED HaZaRD;
#SUBTITLE:;
#ARTIST:DM Ashura feat. Inspector K;
#TITLETRANSLIT:;
#SUBTITLETRANSLIT:;
#ARTISTTRANSLIT:;
#CREDIT:;
#BANNER:disconnectedhazard.png;
#BACKGROUND:disconnectedhazard-bg.png;
#LYRICSPATH:;
#CDTITLE:d2rcr-black.png;
#MUSIC:disconnectedhazard.mp3;
#OFFSET:-2.320;
#SAMPLESTART:9.000;
#SAMPLELENGTH:15.000;
#SELECTABLE:YES;
#BPMS:0.000=210.000;
#STOPS:;
#BGCHANGES:;
// cache tags:
#FIRSTBEAT:8.000;
#LASTBEAT:423.000;
#SONGFILENAME:Songs/new/Disconnected HaZaRD/disconnectedhazard.sm;
#HASMUSIC:1;
#HASBANNER:1;
#MUSICLENGTH:128.527;
// end cache tags

//---------------dance-single - D2RCR----------------
#NOTES:
     dance-single:
     D2RCR:
     Hard:
     10:
     0.819,0.782,0.654,0.257,0.058,620.000,84.000,33.000,0.000,0.000:
0000
0000
0000
0000
,
0000
0000
0000
0000
,
2002
0000
3003
0220
,
0000
0000
0330
0000
0000
0001
1000
0001
,
1001
0000
0100
0010
0001
1000
0100
1000
,
0010
0100
0001
0010
0002
0003
0000
1000
,
0100
0010
0001
1000
0100
0010
0001
0000
,
0110
1001
0110
1001
,
0010
0100
1000
0001
0010
0100
1000
0010
,
0100
0000
0001
0010
0100
1000
0100
0010
,
0001
0100
0010
1000
0100
0010
0001
0000
,
0110
0000
1001
0000
0110
0000
1000
0100
,
0001
0000
1000
0100
0001
0010
0001
1000
,
0100
0000
0010
0001
1000
0100
0010
0000
,
0001
0100
0010
0000
1000
0100
0010
0000
,
0001
0100
0010
1000
0100
0010
0001
0000
,
1000
0100
0010
0001
0010
0100
1000
0010
,
0100
0001
0010
0100
1000
0001
1000
0000
,
0110
0000
0001
1000
0000
1000
0001
0010
,
0001
1000
0100
0010
0001
0100
0010
0000
,
1000
0100
0010
0001
0010
0100
1000
0001
,
0010
0100
1000
0010
0100
0001
0010
0000
,
0001
1000
0100
0000
0010
0001
1000
0000
,
0110
1001
0110
1001
,
0010
0100
1000
0000
0001
0010
0100
1000
,
0001
0100
1000
0100
0001
0010
0001
0000
,
1000
0100
0010
0000
0001
0100
0010
0000
,
1001
0110
1001
0110
,
0001
0010
0100
0000
1000
0010
0100
0001
,
0010
0100
1000
0010
0100
0001
0010
0000
,
1001
0000
0110
0000
1001
0000
0000
0100
,
0010
0001
1000
0100
2000
0000
3000
0000
,
0110
0000
1001
0000
0110
0000
0000
0001
,
0100
1000
0100
0001
0010
0002
0003
0000
,
1100
0000
0011
0000
1100
0000
0000
0001
,
0010
0100
1000
0010
0200
0300
0000
0001
,
0100
0000
1000
0100
0000
0001
0100
0000
,
1001
0000
0010
0100
1000
0200
0300
0000
,
0011
0000
1100
0000
0011
0000
1100
0001
,
0010
0100
1000
0010
0200
0000
0300
0000
,
1001
0000
0110
0000
1001
0000
0100
0010
,
0001
0000
1000
0100
0010
0002
0003
0000
,
0101
0000
1010
0000
0101
0000
1000
0100
,
0010
0001
0100
0001
0010
0100
1000
0000
,
0010
0100
0001
0010
0100
1000
0010
0100
,
0001
0010
0100
1000
0001
0010
0001
0000
,
0010
0100
1000
0000
0001
0010
0001
0000
,
1000
0100
0010
0000
0001
0100
0010
0000
,
1000
0100
0010
0001
0100
0010
1000
0000
,
0110
1001
0220
0330
,
0001
0010
1000
0000
1000
0010
0001
0000
,
0001
0100
1000
0100
0001
0010
0001
0000
,
1000
0100
0010
0001
0100
0010
1000
0000
,
0110
1001
0220
0330
,
0001
0010
0100
1000
0001
0010
0100
1000
,
0001
0010
0001
0100
0010
0100
0001
0010
,
0100
1000
0010
0100
0010
1000
0100
0000
,
1001
0110
2002
3003
,
0100
0010
0110
0000
0001
1000
1001
0000
,
0100
0010
0110
0000
0001
0010
0011
0000
,
1000
0100
1100
0000
0001
0010
0011
0000
,
1001
0110
2002
3003
,
0110
0000
0000
0000
1000
0000
0100
0000
0000
0000
0010
0000
0001
0000
1000
0100
,
1000
0010
0100
0000
1001
0000
0110
0000
,
1001
0000
0000
0000
0010
0000
0100
0000
0010
0000
0100
0000
0000
0000
0001
1000
,
0001
0010
0100
0000
2002
0000
3003
0000
,
0010
0000
0100
0000
1000
0000
0001
0000
0000
0000
0010
0000
0001
0000
1000
0100
,
1000
0010
0100
0000
1001
0000
0110
0000
,
0000
0000
0001
0000
0010
0000
0100
0000
1000
0000
0000
0000
0010
0000
0100
0001
,
0100
0001
0010
0000
2002
0000
3003
0000
,
0110
0000
0000
0000
1000
0000
0001
0000
0000
0000
0001
0000
1000
0000
0001
0010
,
0001
0010
0100
0000
1000
0010
0100
0000
,
0001
0000
0010
0000
0100
0000
1000
0100
1000
0000
0010
0000
0100
0000
0001
0010
,
0001
1000
0100
0000
2002
0000
3003
0000
,
0110
0000
0000
0000
0001
0000
0010
0000
0000
0000
0010
0000
0001
0000
1000
0100
,
1000
0100
0010
0001
0100
0010
1000
0000
,
0100
0010
0001
0100
0010
1000
0100
0010
,
0001
0010
0100
0000
2002
0000
0000
0000
,
0000
0000
0000
0000
0000
3003
0000
0000
,
0010
0100
0010
0100
0001
1000
0001
1000
,
0001
0010
0100
1000
0010
0100
0001
0010
,
0001
1000
0100
0010
0001
0100
0010
0000
,
1000
0100
0001
0010
0001
0100
1000
0001
,
0010
0100
1000
0010
0100
0001
0010
0000
,
0001
0010
0100
1000
0000
0010
0100
0001
,
0010
0000
0100
0000
1000
0000
0010
0100
0010
0000
0100
0000
0001
0000
0010
0000
,
0100
0000
1000
0000
0010
0000
0100
0000
0001
0000
0010
0000
0100
0000
1000
0100
,
1000
0000
0100
0000
0010
0000
0001
0000
0100
0010
0100
0000
0010
0000
0000
0000
,
1000
0100
0010
0001
0010
0100
1000
0000
,
0010
0100
0001
0010
0100
1000
0001
0010
,
0001
1000
0100
0010
0001
0100
0010
1000
,
0001
0010
0100
1000
0100
0010
0001
0000
,
0110
1001
0110
1001
,
0011
1001
1100
1001
,
0101
0000
1010
0000
1000
0100
0010
0001
,
0010
0100
1000
0010
0100
0001
0010
0000
,
2002
0000
3003
0000
0110
0000
0000
0001
,
0010
0000
0100
0000
1000
0000
0100
0000
0010
0000
0000
0000
0000
0000
0001
0010
,
0001
0000
1000
0100
0000
0010
0001
1000
,
0100
0000
0010
0001
1000
0100
0000
0000
,
2200
0000
3300
0000
0011
0000
0000
1000
,
0100
0001
0100
1000
0100
0000
0000
0010
,
0001
0000
1000
0100
1000
0000
0001
0010
0001
0000
0100
0010
0100
0000
0001
0000
,
1000
0000
0001
0010
0100
1000
0000
0000
,
0220
0000
0000
0000
,
0000
0000
0000
0330
;

//---------------dance-single - D2RCR----------------
#NOTES:
     dance-single:
     D2RCR:
     Medium:
     8:
     0.566,0.534,0.296,0.156,0.000,451.000,38.000,20.000,0.000,0.000:
0000
0000
0000
0000
,
0000
0000
0000
0000
,
2002
0000
3003
0220
,
0000
0000
0330
1001
,
0100
0010
0001
1000
,
0100
1000
0001
0010
,
0001
1000
0100
0010
,
0001
0100
0010
0000
1000
0100
1000
0000
,
0100
0010
0001
0100
,
0010
1000
0001
0000
,
1000
0100
0010
0001
,
0100
0010
1000
0000
0100
0010
0001
0000
,
1000
0001
1000
0001
,
0010
0100
1000
0000
,
0001
0010
0100
1000
,
0010
0100
0001
0000
0010
0100
1000
0000
,
0010
0100
0001
0010
,
0001
1000
0100
0000
1000
0100
1000
0000
,
0100
0010
0001
0100
,
0010
1000
0100
0000
1000
0100
0010
0000
,
0001
0000
0100
0000
0010
1000
0100
0000
,
1000
0100
0010
0000
0001
0100
0010
0000
,
1000
0100
0010
0001
,
0110
1001
0110
1001
,
0010
0100
0010
0100
,
0001
1000
0001
0000
0001
1000
0001
0000
,
1000
0100
0010
0001
,
0100
0010
1000
0000
0001
0010
0100
0000
,
1000
0000
0010
0000
0100
0001
0010
0000
,
0001
0010
0001
0010
0001
0010
0001
0000
,
1000
0000
0100
0000
0010
0000
0001
0100
,
0010
0000
1000
0100
1000
0000
0000
0000
,
0001
0000
0010
0000
0100
0000
1000
0010
,
0100
0000
0001
0010
0001
0100
0000
0000
,
0010
0000
1000
0000
0100
0000
1000
0010
,
0100
0001
0010
0000
0001
0000
0000
0000
,
1001
0000
0100
0010
0000
0010
0100
0000
,
1001
0110
1001
0000
,
0010
0000
0100
0000
1000
0000
0001
0010
,
0001
0000
1000
0100
0010
0000
0000
0000
,
0001
0000
0100
0000
0010
0000
1000
0100
,
1000
0000
0001
0010
0001
0010
0000
0000
,
0001
0000
1000
0000
0100
0000
0010
0001
,
1000
0000
0100
1000
0100
0000
0000
1000
,
0100
0000
0010
0001
0000
1000
0100
0000
,
1000
0000
0001
0010
0100
1000
0000
0000
,
0220
0000
0000
0330
,
2002
0000
0000
3003
,
0220
0000
0000
0330
,
1001
0110
1001
0000
,
2020
0000
0000
3030
,
0202
0000
0000
0303
,
0022
0000
0000
0033
,
1100
0011
1100
0000
,
0001
0000
0010
0000
0100
1000
0001
0000
,
0010
0000
0001
0000
1000
0100
1000
0000
,
0010
0000
0100
0000
0001
0010
0001
0000
,
1000
0100
1000
0100
1000
0100
1000
0000
,
0100
0000
0010
0000
0001
0100
0010
0000
,
1000
0000
0100
0000
0010
0001
1000
0000
,
0100
0010
0001
1000
,
0010
0100
0010
0100
0010
0100
0010
0000
,
1000
0000
0001
1000
0000
1000
0001
0000
,
0010
0100
1000
0010
,
0100
0000
0001
0010
0001
0000
1000
0100
,
1000
0001
1001
0000
,
0001
0010
0100
1000
0000
0010
0100
0000
,
0001
0010
0100
1000
,
0001
0010
0001
0000
1000
0100
1000
0000
,
0010
0100
0110
0000
,
0001
0010
0001
0000
0001
0010
0001
0000
,
1000
0100
1000
0000
1000
0100
1000
0000
,
0100
0010
0001
1000
,
0010
0100
0010
0000
0110
0000
0000
0000
,
0001
1000
0001
0000
0001
1000
0001
0000
,
0100
0010
0100
0000
0100
0010
0100
0000
,
0001
0010
0100
1000
,
0010
0100
0010
0000
2002
0000
0000
0000
,
0000
0000
0000
3003
,
0010
0100
0010
0100
,
0001
0010
0100
0000
1000
0010
0100
0000
,
0001
0010
0001
1000
,
0100
0010
0001
0000
1000
0100
1000
0000
,
0010
0000
0100
0000
0001
0010
0001
0000
,
1000
0000
0100
0000
0010
0001
1000
0000
,
0100
1000
0001
0000
0010
0001
0100
0000
,
0010
1000
0100
0010
,
0001
0100
0010
0000
1000
0100
1000
0000
,
0001
0010
0100
1000
,
0110
1001
0110
1001
,
0010
0100
0010
0100
,
0110
1001
0110
0000
,
0001
0010
0001
0000
1000
0100
1000
0000
,
0100
0010
0001
0000
1000
0100
1000
0000
,
0010
0100
0001
0010
,
0100
1000
0010
0100
,
0001
0000
1000
0000
0001
0000
0000
1000
,
0100
1000
0100
1000
0100
0000
0000
0000
,
1000
0000
0001
0000
1000
0000
0000
0001
,
0010
0000
0001
1000
0100
0010
0000
0000
,
0001
0000
1000
0000
0001
0000
0000
0100
,
0010
0100
0010
0100
0010
0000
0000
1000
,
0001
0000
0001
1000
0000
0010
0100
0000
,
0110
1001
0110
0000
,
2002
0000
0000
0000
,
0000
0000
3003
0000
;

//---------------dance-single - D2RCR----------------
#NOTES:
     dance-single:
     D2RCR:
     Easy:
     6:
     0.391,0.534,0.140,0.101,0.000,321.000,18.000,13.000,0.000,0.000:
0000
0000
0000
0000
,
0000
0000
0000
0000
,
2002
0000
3003
0220
,
0000
0000
0330
0000
,
0001
0010
0001
0010
,
0100
1000
0100
0000
,
0010
0001
1000
0100
,
1000
0001
0010
0000
,
0001
1000
0100
0010
,
0001
0100
0010
0000
,
1000
0100
1000
1000
,
0100
0010
0001
0000
,
0100
0010
0100
0100
,
0001
0010
0100
0000
,
1000
0100
0010
0001
,
0110
1001
0110
1001
,
0010
0100
0010
0100
,
0001
1000
0001
0000
,
0001
0010
0100
1000
,
0110
1001
0110
1001
,
0100
0010
1000
0001
,
0010
0100
1000
0000
,
0010
0100
0001
1000
,
0001
0010
0100
1000
,
0010
0100
0001
0010
,
0001
1000
0100
0000
,
0010
0001
0100
0000
,
0010
1000
0100
0000
,
0010
0001
1000
0100
,
1000
0010
0100
0000
,
0001
0001
0001
0000
,
0010
0010
0010
0000
,
0100
0100
0100
0000
,
1000
1000
1000
0000
,
0001
0001
0001
0000
,
1000
1000
1000
0000
,
0010
0100
0010
0100
,
0001
1000
0001
0000
,
0100
0100
0100
0000
,
0010
0010
0010
0000
,
1000
1000
1000
0000
,
0001
0001
0001
0000
,
1000
0100
1000
0000
,
0001
0010
0100
0000
,
1000
0010
0100
0001
,
0010
0001
1000
0000
,
0200
0000
0000
0300
,
0020
0000
0000
0030
,
0002
0000
0000
0003
,
1000
0100
1000
0000
,
0002
0000
0000
0003
,
2000
0000
0000
3000
,
0002
0000
0000
0003
,
0100
0010
0100
0000
,
0001
0010
0100
0000
,
1000
0010
0100
0000
,
0001
0010
0100
1000
,
0010
0100
0001
0000
,
0010
0100
1000
0000
,
0010
0100
0001
0000
,
1000
0100
0010
0001
,
0010
0100
1000
0000
,
0010
0100
0001
0000
,
1000
0100
0010
0001
,
0100
0010
1000
0000
,
0001
0010
0100
0000
,
1000
0001
1000
0000
,
0001
0010
0100
1000
,
0010
0100
0001
0010
,
0100
1000
0100
0000
,
0010
0001
0100
0000
,
0010
1000
0100
0000
,
0010
0001
0100
0010
,
1000
0100
0010
0000
,
0001
1000
0100
0000
,
0010
0001
1000
0000
,
0100
1000
0010
0100
,
0001
0010
0002
0000
,
0000
0000
0003
0000
,
1000
0001
1000
0001
,
0100
0010
1000
0100
,
1000
0001
0010
0000
,
0001
1000
0100
0010
,
0001
0100
0010
0000
,
1000
0100
0010
0001
,
0010
0100
1000
0000
,
0001
0010
0100
1000
,
0010
0100
0001
0000
,
1000
0100
1000
0000
,
0110
1001
0110
1001
,
0010
0100
0010
0000
,
1001
0110
1001
0000
,
0010
0100
1000
0001
,
0010
0001
1000
0000
,
0100
0010
0001
1000
,
0100
1000
0010
0000
,
0100
0010
0100
0000
,
0001
0010
0001
0000
,
1000
0100
1000
0000
,
0010
0100
0010
0000
,
1000
0100
0010
0000
,
0001
0100
0010
0000
,
1000
0001
1000
0001
,
0010
0100
1000
0000
,
0220
0000
0000
0000
,
0000
0000
0330
0000
;

//---------------dance-single - D2RCR----------------
#NOTES:
     dance-single:
     D2RCR:
     Challenge:
     11:
     0.898,0.862,0.646,0.241,0.218,694.000,83.000,31.000,0.000,0.000:
0000
0000
0000
0000
,
0000
0000
0000
0000
,
2002
0000
3003
0220
,
0000
0000
0000
0000
0000
0000
0000
0000
0330
0000
0110
0000
0000
0000
0001
0010
,
0001
1000
0100
0010
0001
1000
0100
0001
,
0100
0000
1000
0000
0001
0010
0001
0010
0002
0000
0000
0000
0003
0000
1000
0000
,
0100
0010
0001
0010
0100
1000
0010
0000
,
1001
0000
0110
0000
1001
0000
0100
0010
,
0100
0000
0001
0010
0100
1000
0100
0010
,
0001
0000
1000
0100
0010
0001
1000
0100
,
0001
0010
0001
0100
1000
0100
1000
0000
,
0110
0000
1001
0000
0110
0000
0001
0010
,
0100
1000
0010
0100
0001
0010
0100
1000
,
0001
0010
0001
0010
0001
0000
1000
0000
0100
0000
0010
0000
0001
0000
0000
0000
,
0110
0000
1000
0100
0000
0001
0100
1000
,
0001
0010
0100
1000
0010
0100
0001
0000
,
1000
0000
0100
0000
0010
0000
0001
0000
0010
0000
0100
0000
1000
0000
0010
0100
,
0010
0000
1000
0000
0100
0000
0010
0000
0001
0010
0001
0000
1000
0000
0000
0000
,
0110
0000
0000
0000
0001
0000
1000
0000
0000
0000
1000
0000
0001
0000
0010
0001
,
0010
0000
0001
0000
1000
0000
0010
0100
0010
0000
1000
0000
0100
0000
1000
0000
,
0100
0000
0010
0000
0001
0000
0010
0000
0100
0000
1000
0000
0010
0000
0100
0010
,
0100
0000
0001
0000
0010
0000
0100
0000
1000
0100
1000
0000
0001
0000
0000
0000
,
0110
1001
1010
0101
,
1001
0100
0010
0100
0010
0100
1001
0000
,
0010
0000
0100
0000
1000
0000
0001
0010
0001
0000
1000
0000
0100
0000
0010
0001
,
0010
0000
0001
0000
0010
0000
0100
0000
1000
0100
1000
0000
0010
0000
0000
0000
,
1001
0011
1100
1001
,
0110
0000
1001
0000
0100
0010
0100
0000
,
0001
0000
0010
0000
0100
0000
1000
0000
0100
0000
0010
0000
0001
0000
1000
0100
,
1000
0000
0010
0000
0100
0000
0001
0010
0001
0010
0001
0000
0100
0000
0000
0000
,
1001
0000
0110
0000
1001
0000
0000
0010
,
0100
0000
1000
0000
0001
0000
0010
0000
0002
0000
0000
0000
0003
0000
1000
0100
,
1000
0000
0000
0000
0010
0000
0100
0000
0000
0000
0001
0000
1000
0000
0001
0010
,
0001
0000
1000
0100
0010
0002
0000
0003
,
0110
0000
1001
0000
0110
0000
0000
0001
,
0010
0000
0100
0000
1000
0000
0010
0000
0200
0000
0000
0000
0300
0000
0010
0100
,
0010
0000
0000
0000
1000
0000
0001
0000
0000
0000
1000
0000
0001
0000
0010
0001
,
0010
0000
0001
1000
0100
0020
0000
0030
,
1001
0000
0100
0000
0010
0000
0100
0000
1001
0000
0000
0000
0000
0000
0100
0010
,
0100
0000
0001
0000
0010
0000
0100
0000
2000
0000
0000
0000
3000
0000
0010
0100
,
0010
0000
1000
0100
0010
0001
0010
0100
,
1000
0000
0010
0100
0010
0110
0000
0000
,
1001
0000
0000
0000
0110
0000
0000
0000
1001
0000
0000
0000
0000
0000
1000
0100
,
1000
0000
0001
0000
0010
0000
0100
0000
2000
0000
0000
0000
3000
0000
0001
0010
,
0001
0000
1000
0100
1000
0000
0010
0100
0010
0000
1000
0001
1000
0000
0001
0000
,
1001
0000
0100
0010
0100
0220
0330
0000
,
0001
0010
0100
1000
0100
0010
0001
1000
,
0100
1000
0001
0010
0100
1000
0010
0100
,
0001
0100
1000
0000
1000
0100
0001
0000
,
0110
1001
0220
0330
,
1000
0100
0010
0001
0100
0001
0010
0100
,
1000
0010
0100
0010
1000
0100
0010
0001
,
1000
0100
1000
0010
0100
0001
0010
0000
,
1001
0110
2002
3003
,
0110
0000
1001
0000
0010
0100
1000
0001
,
0010
0001
0011
0000
1100
0000
1001
0000
,
0010
0100
1000
0010
0100
0001
0010
0001
,
0011
0110
2200
3300
,
0001
0010
0100
1000
0001
0010
0100
1000
,
0010
0100
0001
0100
1000
0100
0001
0010
,
0001
1000
0100
0010
0001
0100
0010
0000
,
1001
0110
2002
3003
,
0110
0000
0000
0000
1000
0000
0001
0000
0000
0000
1000
0000
0001
0000
1000
0100
,
1000
0010
0100
0000
1001
0000
0110
0000
,
1001
0000
0000
0000
0100
0000
0010
0000
0001
0000
1000
0000
0000
0000
0100
1000
,
0001
0010
0001
0000
0220
0000
0330
0000
,
1001
0000
0100
0000
0010
0000
0100
0000
0000
0000
0001
0000
1000
0000
0001
0010
,
0001
1000
0100
0000
1001
0000
0110
0000
,
0000
0000
1000
0000
0001
0000
0010
0001
1000
0000
0000
0000
0100
0000
0000
0000
,
0010
0001
0010
0001
0010
0000
0000
0000
2002
0000
0000
0000
3003
0000
0000
0000
,
0010
0000
0100
0000
1000
0000
0001
0000
0000
0000
0010
0000
0001
0000
1000
0100
,
1000
0010
0100
0000
1001
0000
0110
0000
,
1001
0000
0000
0000
0010
0000
0100
0000
1000
0000
0001
0000
0010
0000
0001
1000
,
0100
1000
0010
0000
2002
0000
3003
0000
,
0100
0000
0010
0000
0100
0000
0010
0000
0000
0000
1000
0000
0001
0000
0010
0001
,
0010
0001
1000
0000
0110
0000
1001
0000
,
0010
0000
0100
0000
1000
0000
0001
0010
0001
0000
1000
0000
0001
0000
0000
0000
,
0100
0010
0100
0010
0100
0000
0000
0000
0220
0000
0000
0000
0000
0000
0000
0000
,
0000
0000
0000
0000
0000
0330
0000
0000
,
1000
0000
0100
0000
0010
0000
0001
0000
1000
0000
0100
0000
1000
0100
1000
0100
,
1000
0001
0010
0100
1000
0010
0100
0001
,
0010
0001
1000
0100
1000
0010
0100
0001
,
0010
0000
0100
0000
1000
0000
0010
0000
0100
0000
0001
0000
0010
0000
0100
1000
,
0001
0000
0010
0000
0001
0000
1000
0100
1000
0000
0010
0000
0100
0000
0000
0000
,
0001
0000
0010
0000
0100
0000
1000
0000
0010
0000
0100
0000
0001
0000
0010
0001
,
0010
0001
1000
0100
0010
0001
0100
0010
,
1000
0000
0100
0000
0001
0000
0100
0000
1000
0000
0100
0000
0001
0000
0100
1000
,
0100
0000
0010
0000
0001
0000
1000
0000
0010
0100
0010
0000
1000
0000
0000
0000
,
0001
0010
0100
1000
0010
0100
0001
0010
,
0011
1100
0011
1100
,
0001
0000
0010
0000
0100
0000
1000
0000
0010
0000
0100
0000
0001
0000
0010
0001
,
0010
0000
0001
0000
1000
0000
0100
1000
0100
0000
1000
0000
0010
0000
0000
0000
,
0100
0010
0110
0000
0001
1000
1001
0000
,
0010
0100
0110
0000
0001
1000
1001
0000
,
0110
1000
0001
1000
1001
0100
0010
0100
,
0110
0001
1000
0001
0100
0010
0110
0000
,
0001
0010
0100
1000
0100
0010
0001
0100
,
0010
0000
1000
0000
0100
0000
0001
0000
0010
0000
0001
0000
1000
0000
0100
1000
,
0100
0000
0000
0000
0010
0000
0001
0000
0000
0000
1000
0000
0100
0000
1000
0001
,
0010
0001
1000
0100
0010
0001
0100
0010
,
1000
0100
1000
0010
0100
0010
1000
0001
,
0010
0000
0100
0000
1000
0000
0010
0100
0010
0000
0000
0000
0000
0000
0001
0000
,
1000
0000
0001
0010
0001
0000
1000
0100
1000
0000
0010
0100
0010
0000
1000
0001
,
1000
0100
0010
0001
0010
0100
1000
0000
,
0220
0000
0000
0000
,
0000
0000
0330
0000
;
